#TITLE:INNOCENCE OF SILENCE (Alternative);
#SUBTITLE:;
#ARTIST:nc feat. NRG Factory;
#TITLETRANSLIT:;
#SUBTITLETRANSLIT:;
#ARTISTTRANSLIT:;
#GENRE:;
#CREDIT:;
#BANNER:INNOCENCE OF SILENCE.png;
#BACKGROUND:background.png;
#LYRICSPATH:;
#CDTITLE:;
#MUSIC:INNOCENCE OF SILENCE.ogg;
#OFFSET:0.000000;
#SAMPLESTART:0.000000;
#SAMPLELENGTH:12.000000;
#SELECTABLE:YES;
#BPMS:0.000000=142.000000
,64.000000=71.000000
,112.000000=142.000000
;
#STOPS:
;
#BGCHANGES:;
#KEYSOUNDS:;
#ATTACKS:;

//---------------dance-single - ----------------
#NOTES:
     dance-single:
     :
     Challenge:
     15:
     0.690808,0.957015,0.121397,0.435007,1.208915,478.000000,466.000000,12.000000,43.000000,0.000000,0.000000,0.690808,0.957015,0.121397,0.435007,1.208915,478.000000,466.000000,12.000000,43.000000,0.000000,0.000000:
// measure 0
0000
0000
0000
0000
,  // measure 1
0000
0000
0000
0000
,  // measure 2
0000
0000
0000
0000
,  // measure 3
0000
0000
0000
0000
,  // measure 4
1000
0000
0100
0000
0010
0001
0000
0010
0000
0001
0000
0100
0000
0010
1000
0010
,  // measure 5
1000
0000
0010
0000
0100
0001
0000
0010
0000
0100
0000
0010
0000
0100
1000
0100
,  // measure 6
1000
0000
0001
0000
0100
0001
0000
0010
0000
0100
0000
0010
0000
0001
0100
0001
,  // measure 7
0100
0000
0101
0000
0001
0010
0000
0011
0000
1010
0000
0011
0000
0010
0100
1000
,  // measure 8
0001
0000
0100
0000
0010
1000
0000
0002
0000
2003
0000
3200
0000
0310
0100
1000
,  // measure 9
0001
0000
1000
0000
0010
1000
0000
0200
0000
2300
0000
3020
0000
0130
0001
0010
,  // measure 10
0100
0000
0010
0000
0001
0010
0000
0200
0000
2300
0000
3020
0000
0130
0010
1000
,  // measure 11
0001
0000
0010
0000
0100
0010
0000
0002
0000
2003
0000
3020
0000
0130
0001
0010
,  // measure 12
0100
0000
0010
0000
0001
0010
0000
0200
0000
0320
0000
0032
0000
0013
0100
0010
,  // measure 13
0001
0000
1000
0000
0010
1000
0000
0020
0000
0230
0000
0320
0000
1030
0001
0010
,  // measure 14
0100
0010
0000
0001
0000
1000
0010
0100
0010
1000
0000
0001
0000
0010
0001
0100
,  // measure 15
0001
0010
0000
0100
0000
0010
0001
1000
0010
1000
0000
0001
0000
1000
0100
0010
,  // measure 16
0100
1000
0010
1000
0000
0000
0000
0000
0011
0000
0100
0010
0000
0100
0001
0010
,  // measure 17
0100
1000
0001
1000
0000
0000
0000
0000
0101
0000
0010
1000
0000
0100
1000
0001
,  // measure 18
0010
0001
1000
0001
0000
0000
0000
0000
1000
0100
0100
1000
0000
0001
0100
0010
,  // measure 19
1000
0100
1000
0001
0000
0000
0000
0000
0000
0001
0010
0100
0000
0010
0001
0100
,  // measure 20
0010
1000
0100
0001
0000
0000
0000
0000
1100
0000
1000
0010
0000
0100
0001
0010
,  // measure 21
1000
0010
0001
1000
0000
0000
0000
0000
1001
0000
0001
0100
0000
0100
0001
0010
,  // measure 22
1000
0010
0100
1000
0000
0000
0000
0000
0000
0010
0001
0001
0000
1000
0010
0100
,  // measure 23
0001
0010
1000
0010
0000
0000
0000
0000
0000
0100
0010
0001
0000
1000
0010
0100
,  // measure 24
0001
0000
1000
0000
0000
0000
0100
0000
0000
0000
0010
0000
0000
0000
0100
0000
0000
0000
1000
0000
0000
0000
0010
0000
0000
0000
0100
0000
0000
0010
1000
0001
,  // measure 25
0000
0000
1000
0000
0000
0000
0100
0000
0000
0000
1000
0000
0000
0000
0010
0000
0000
0000
0100
0000
0000
0000
0001
0000
0000
0000
0010
0000
0000
0100
1000
0001
,  // measure 26
0100
0010
1000
0001
0010
1000
0010
0001
1000
0010
1000
0001
1000
0100
0001
0100
,  // measure 27
1000
0100
1000
0100
1000
0000
0100
0000
0010
0001
0010
0001
0010
0000
0001
0000
1000
0010
0100
0000
0001
0010
0100
0000
0010
0001
0100
0010
1000
0100
0010
0001
,  // measure 28
1000
0001
0010
0000
0100
1000
0010
0000
0100
0001
0010
0000
1000
0100
0010
0000
,  // measure 29
0001
0100
0010
0000
0100
0001
0010
0000
0100
1000
0010
0000
0100
0001
0010
0100
,  // measure 30
1000
0001
0100
0000
0001
1000
0100
0000
1000
0010
0100
0000
0010
1000
0100
0000
,  // measure 31
0001
1000
0100
0000
1000
0001
0100
0000
0001
1000
0100
0000
0010
0100
1000
0001
,  // measure 32
0100
0001
0010
0000
0100
1000
0001
0000
0100
0010
1000
0000
0100
0010
0001
0000
,  // measure 33
0010
0100
0010
0000
0100
1000
0010
0000
0100
0001
0010
0000
0100
0010
0001
1000
,  // measure 34
0100
0010
0001
0000
0010
0100
1000
0000
0100
1000
0010
0000
0100
0001
0010
0000
,  // measure 35
0001
1000
0100
0000
1000
0010
0100
0000
0001
0010
0100
0000
0010
0001
1000
0010
,  // measure 36
1000
0100
0020
0000
0130
1000
0002
0000
0103
0010
2000
0000
3010
0100
0002
0000
,  // measure 37
0013
0100
2000
0000
3001
0100
0020
0000
0130
0010
2000
0000
3001
0010
0100
0010
,  // measure 38
0001
1000
0002
0000
0103
0010
2000
0000
3100
0010
0200
0000
0310
0001
2000
0000
,  // measure 39
3001
0100
0020
0000
0130
0001
2000
0000
3001
0010
0200
0000
0310
0001
1000
0100
,  // measure 40
0010
0100
2000
0000
3001
0100
0020
0000
0130
0001
0020
0000
0130
1000
0002
0000
,  // measure 41
1003
0001
0020
0000
0130
0010
0002
0000
1003
0100
0020
0000
0130
1000
0010
0100
,  // measure 42
0001
1000
0002
0000
0103
0010
0200
0000
0310
1000
0020
0000
0130
0001
0200
0000
,  // measure 43
0301
0000
0011
0000
0010
0100
0000
1100
0000
0101
0000
1100
0000
0100
0010
0001
,  // measure 44
1000
0000
0000
0000
;
