#VERSION:0.83;
#TITLE:INFINITE PRAYER (Alternative);
#SUBTITLE:;
#ARTIST:L.E.D.Light feat. Goro;
#TITLETRANSLIT:;
#SUBTITLETRANSLIT:;
#ARTISTTRANSLIT:;
#GENRE:;
#ORIGIN:;
#CREDIT:;
#BANNER:INFINITE PRAYER.png;
#BACKGROUND:INFINITE PRAYER-bg.png;
#PREVIEWVID:;
#JACKET:INFINITE PRAYER-jacket.png;
#CDIMAGE:;
#DISCIMAGE:;
#LYRICSPATH:;
#CDTITLE:;
#MUSIC:INFINITE PRAYER.ogg;
#OFFSET:0.000000;
#SAMPLESTART:33.290001;
#SAMPLELENGTH:15.000000;
#SELECTABLE:YES;
#BPMS:0.000=137.000;
#STOPS:;
#DELAYS:;
#WARPS:;
#TIMESIGNATURES:0.000=4=4;
#TICKCOUNTS:0.000=4;
#COMBOS:0.000=1;
#SPEEDS:0.000=1.000=0.000=0;
#SCROLLS:0.000=1.000;
#FAKES:;
#LABELS:0.000=Song Start;
#BGCHANGES:;
#KEYSOUNDS:;
#ATTACKS:
;

//---------------dance-single - ----------------
#NOTEDATA:;
#CHARTNAME:;
#STEPSTYPE:dance-single;
#DESCRIPTION:;
#CHARTSTYLE:;
#DIFFICULTY:Challenge;
#METER:14;
#RADARVALUES:0.652633,0.810524,0.159559,0.008398,0.478678,544.000000,525.000000,19.000000,1.000000,0.000000,0.000000,0.000000,0.000000,0.000000,0.652633,0.810524,0.159559,0.008398,0.478678,544.000000,525.000000,19.000000,1.000000,0.000000,0.000000,0.000000,0.000000,0.000000;
#CREDIT:;
#NOTES:
// measure 0
0000
0000
0000
0000
,  // measure 1
0000
0000
0000
0000
,  // measure 2
0000
0000
0000
0000
,  // measure 3
1000
0100
1000
0001
0100
0001
0010
0100
,  // measure 4
0010
0001
0100
0001
1000
0100
1000
0010
,  // measure 5
0100
0001
0001
0010
0100
0100
0010
0001
,  // measure 6
0001
0100
0010
0010
0100
0010
1000
0001
,  // measure 7
0010
0001
0100
0010
1000
0001
0010
0100
,  // measure 8
0010
0001
1000
0010
0100
0001
0010
0100
,  // measure 9
1000
0100
0100
1000
0010
0010
1000
0100
,  // measure 10
0100
1000
0010
0010
0100
0001
0010
0100
,  // measure 11
1100
0000
0000
0000
0010
0000
0000
0000
0101
0000
0000
0110
0000
0000
0010
0000
,  // measure 12
1000
0000
0000
0000
0100
0000
0000
0000
0011
0000
0000
1100
0000
0000
0100
0000
,  // measure 13
1000
0000
0000
0000
0010
0000
0000
0000
0110
0000
0000
0101
0000
0000
0001
0000
,  // measure 14
0010
0000
0000
0000
0100
0000
0000
0000
0011
0000
0000
1010
0000
0000
0001
0000
,  // measure 15
1001
1000
0100
0001
0100
1000
0010
1000
,  // measure 16
0001
0010
1000
0010
0001
0100
0010
1000
,  // measure 17
0001
0010
0010
0001
0100
0100
0001
1000
,  // measure 18
0001
0000
0000
0000
0000
0000
0000
0000
0000
0001
0000
0000
0000
0000
0000
0000
0000
0000
0001
0000
0000
0000
0000
0000
0000
0000
0000
1000
0000
0000
0001
0000
1000
0000
0001
0000
1000
0000
0000
0000
0000
0000
0001
0000
0000
0000
0000
0000
,  // measure 19
0100
0000
0000
0010
1000
0000
0000
1000
0100
0000
0000
0100
0010
0000
0100
0000
,  // measure 20
1000
0000
0000
0001
0010
0000
0000
0010
0100
0000
0000
0100
0010
0000
0001
0000
,  // measure 21
1000
0000
0000
0010
1000
0000
0000
1000
0001
0000
0000
0001
0010
0000
0001
0000
,  // measure 22
0100
0000
0000
0010
1000
0000
0000
1000
0100
0000
0000
0100
0010
0000
0100
0000
,  // measure 23
1000
0000
0000
0001
0010
0000
0000
0010
0100
0000
0000
0100
0010
0000
0001
0000
,  // measure 24
0100
0000
0000
0010
1000
0000
0000
0001
0100
0000
0000
0001
0010
0000
0100
0000
,  // measure 25
0010
0000
0000
0001
0010
0000
0000
0010
0100
0000
0000
0100
1000
0000
0010
0000
,  // measure 26
0200
0000
0000
0000
,  // measure 27
0310
0000
0000
1000
0010
0000
0000
0100
0010
0000
1000
0000
0100
0000
0010
0000
,  // measure 28
0001
0000
0000
0010
0001
0000
0000
0010
0100
0000
0010
0000
0100
0000
1000
0000
,  // measure 29
0001
0000
0000
0100
0001
0000
0000
0010
0100
0000
0010
0000
0001
0000
1000
0000
,  // measure 30
0010
0000
0000
1000
0010
0000
0000
0100
0010
0000
1000
0000
0001
0000
0010
0000
,  // measure 31
0001
0000
0000
0010
0100
0000
0000
0010
0001
0000
0100
0000
0001
0000
1000
0000
,  // measure 32
0100
0000
0000
0010
0100
0000
0000
0100
1000
0000
0010
0000
0100
0000
0001
0000
,  // measure 33
0010
0000
0000
0100
0010
0000
0000
0010
0001
0000
1000
0000
0010
0000
0100
0000
,  // measure 34
0001
0010
0100
1000
0010
0100
0001
0010
0100
1000
0100
0001
0100
1000
0100
0010
,  // measure 35
0001
0010
0001
0010
0001
0010
0100
1000
,  // measure 36
0010
0100
0010
0100
0010
1000
0001
0010
,  // measure 37
0100
1000
0100
1000
0100
0010
0001
1000
,  // measure 38
0010
0000
0100
0000
0001
0010
0100
1000
0001
1000
0001
1000
0001
1000
0001
1000
,  // measure 39
0001
0000
0000
0001
0000
0000
0001
0000
1000
0000
0000
1000
0000
0000
1000
0000
,  // measure 40
0010
0000
0000
0100
0000
0000
0010
0000
1000
0000
0000
0001
0000
0000
0010
0000
,  // measure 41
0100
0000
0100
0000
0100
1000
0100
0000
0100
1000
0000
0100
1000
0000
1000
0000
,  // measure 42
0001
0000
0000
0001
0000
0000
0100
0000
0000
0100
0000
0000
0010
0000
0100
0000
0001
0000
1000
0000
0010
0000
0100
0000
,  // measure 43
0001
0100
0001
0010
0100
0010
0001
1000
,  // measure 44
0100
0010
0100
1000
0010
0100
0001
1000
,  // measure 45
0001
0010
0010
0001
0100
0100
0001
0010
,  // measure 46
0010
0001
0100
0100
0001
0010
0100
1000
,  // measure 47
0100
1000
0010
0100
0001
0010
0100
0010
,  // measure 48
0001
1000
0100
0010
0100
1000
0010
0100
,  // measure 49
0010
1000
1000
0010
0100
0100
0010
1000
,  // measure 50
1000
0010
0100
0100
0010
0100
0001
1000
,  // measure 51
1001
0000
0000
1000
0001
0000
0000
0001
0010
0000
0100
0000
0010
0000
0011
0000
,  // measure 52
1100
0000
0000
0100
1000
0000
0000
1000
0010
0000
0100
0000
0001
0000
0101
0000
,  // measure 53
1100
0000
0000
0100
0010
0000
0000
0010
0001
0000
0100
0000
0010
0000
1010
0000
,  // measure 54
0101
0000
0000
0001
1000
0000
0000
0010
0100
0000
0001
0000
0010
0000
0110
0000
,  // measure 55
1100
0000
0000
1000
0100
0000
0000
0100
0010
0000
0000
0010
0001
0000
1000
0001
,  // measure 56
0100
0000
0000
0100
0010
0000
0000
0010
1000
0000
0000
1000
0001
0000
1000
0001
,  // measure 57
0010
0100
0000
0100
1000
0010
0000
0010
0100
0001
0000
0010
0100
1000
0000
0001
,  // measure 58
0100
0010
1000
0001
1000
0001
1000
0001
1000
0001
1000
0001
1000
0001
1000
0001
,  // measure 59
1000
0010
0000
0100
0001
0000
0010
0000
1000
0000
0010
0000
0100
0000
1000
0000
,  // measure 60
0001
0010
0000
0100
1000
0000
0100
0000
1000
0000
0010
0000
0100
0000
0001
0000
,  // measure 61
1000
0100
0000
0100
0010
0000
0100
0000
1000
0000
0010
0000
0100
0000
0001
0000
,  // measure 62
0010
0001
0000
0010
0100
0000
0010
0000
0001
0000
0100
0000
0001
0000
1000
0000
,  // measure 63
0100
0010
0100
0000
0010
0000
0001
0000
0100
0000
0010
0000
1000
0000
0001
0000
,  // measure 64
0010
0100
0010
0000
0001
0000
0100
0000
0010
0100
0000
0000
0000
0000
0000
0000
,  // measure 65
0010
1000
0001
0100
0001
0010
0100
1000
,  // measure 66
0001
0000
0100
0100
0000
0010
0010
0000
1000
1000
0000
0000
0000
0000
0000
0000
;
