#TITLE:Howling (Alternative);
#SUBTITLE:;
#ARTIST:PON;
#TITLETRANSLIT:;
#SUBTITLETRANSLIT:;
#ARTISTTRANSLIT:;
#GENRE:;
#CREDIT:;
#BANNER:Howling†.png;
#BACKGROUND:Howling†-bg.png;
#LYRICSPATH:;
#CDTITLE:cdtitle.png;
#MUSIC:Howling†.mp3;
#OFFSET:-0.245000;
#SAMPLESTART:17.219999;
#SAMPLELENGTH:12.000000;
#SELECTABLE:YES;
#BPMS:0.000000=155.000000
,178.500000=310.000000
,179.000000=155.000000
,180.000000=310.000000
,180.500000=155.000000
;
#STOPS:140.500000=0.194000,
142.000000=0.194000,
143.500000=0.194000,
145.000000=0.194000,
146.500000=0.194000,
148.000000=0.194000,
149.500000=0.194000,
153.000000=0.194000,
154.500000=0.194000,
156.000000=0.194000,
157.500000=0.194000,
178.500000=0.097000,
178.666672=0.097000,
178.833328=0.097000,
180.000000=0.097000,
180.166672=0.097000,
180.333328=0.097000,
185.500000=0.097000,
185.750000=0.097000,
186.000000=0.097000,
186.250000=0.097000,
202.750000=0.097000,
203.250000=0.097000
;
#BGCHANGES:;
#KEYSOUNDS:;
#ATTACKS:;

//---------------dance-single - ----------------
#NOTES:
     dance-single:
     :
     Challenge:
     16:
     0.799483,0.833764,0.411627,0.586788,0.858286,639.000000,592.000000,47.000000,67.000000,0.000000,0.000000,0.799483,0.833764,0.411627,0.586788,0.858286,639.000000,592.000000,47.000000,67.000000,0.000000,0.000000:
// measure 0
0000
0000
0000
0000
,  // measure 1
0000
0000
0000
0000
,  // measure 2
0000
0000
0000
0000
,  // measure 3
0000
0000
0000
0000
,  // measure 4
2000
0000
0000
0000
0000
0000
3001
0010
0200
0000
0000
0000
0000
0000
0310
0001
,  // measure 5
0200
0000
0000
0000
0010
0000
0310
1000
0002
0000
0000
0000
1003
0000
0100
1000
,  // measure 6
0002
0000
0103
0010
2000
0000
3100
0010
,  // measure 7
0001
0000
1000
0001
0000
0001
1000
0000
0001
0000
1000
0001
0000
0001
1000
0000
,  // measure 8
0001
0000
1000
0001
0000
0001
1000
0000
0001
0000
1000
0001
0000
0001
1000
0000
,  // measure 9
0001
0100
0010
1000
0000
0010
0100
0000
0001
0010
0100
0010
0000
0100
1000
0000
,  // measure 10
0010
0100
0001
0010
0000
0100
0010
0000
0011
0000
0110
0000
1100
0000
0110
0000
,  // measure 11
2001
0000
0000
0000
0010
0000
3001
0010
0200
0000
0000
0000
0310
0000
0001
0100
,  // measure 12
0020
0000
0000
0000
0130
0000
0010
1000
0002
0000
0000
0000
0013
0000
0100
1000
,  // measure 13
0002
0000
1003
0001
0200
0000
0310
0000
,  // measure 14
0110
0000
0100
0000
1001
0000
0011
0000
1100
1000
0100
1000
0001
0010
0001
0010
,  // measure 15
0200
0000
0000
0000
0310
0000
1000
0001
0020
0000
0000
0000
0130
0000
0010
0001
,  // measure 16
2000
0000
0000
0000
3010
0000
1000
0001
0020
0000
0000
0000
0130
0000
0010
0001
,  // measure 17
2000
0000
3001
0100
0020
0000
1030
0000
,  // measure 18
2002
0000
3003
0000
0001
0100
1000
0010
,  // measure 19
0001
0000
0100
0010
0000
0100
0001
0010
0100
0000
0010
0001
0000
0010
0001
1000
,  // measure 20
0010
0000
0100
0001
0000
0010
0100
0010
0001
0000
1000
0100
0000
1000
0010
1000
,  // measure 21
0001
0000
1000
0010
0000
0100
0001
0010
0100
0000
0010
0001
0000
0010
0001
0000
,  // measure 22
1001
0000
0000
0000
0011
0000
0000
0000
1010
0000
0100
0001
0100
0001
0100
0001
,  // measure 23
0100
0000
0010
1000
0000
0001
0010
0001
1000
0000
0100
1000
0000
1000
0010
0100
,  // measure 24
0001
0000
0010
0001
0000
0010
0001
1000
0010
0000
0010
0100
0000
0010
1000
0001
,  // measure 25
0010
0000
0100
0010
0000
0100
1000
0010
0100
0000
0001
1000
0000
0100
0010
0100
,  // measure 26
1000
0100
0000
0100
0010
0001
0000
0010
0011
0000
1100
0000
0022
0000
0033
0000
,  // measure 27
0001
0000
1000
0000
0010
0010
0000
0000
0100
0000
0001
0100
0000
0100
0001
0010
,  // measure 28
0100
0000
0010
0000
0001
0001
0000
0000
1000
0000
0001
1000
0000
1000
0001
0010
,  // measure 29
0100
0000
0010
0000
0100
0100
0000
0000
0010
0000
0100
1000
0000
1000
0100
1000
,  // measure 30
0010
0000
1000
0000
0100
0100
0000
0000
0010
0000
0100
0010
0000
0010
0001
1000
,  // measure 31
0010
0000
0100
0000
0001
0001
0000
0000
1000
0000
0001
0100
0000
0010
1000
0100
,  // measure 32
0010
0000
0100
0000
1000
1000
0000
0000
0100
0000
1000
0010
0000
0100
0001
0010
,  // measure 33
0100
0000
0010
0000
0001
0001
0000
0000
1000
0000
0001
0100
0000
0001
0010
0100
,  // measure 34
1000
0100
0110
0100
1010
0010
1001
1000
,  // measure 35
0001
0011
1000
0001
0011
1000
0001
1100
,  // measure 36
1000
0001
0011
1000
0001
0011
1000
0001
,  // measure 37
0011
0000
0000
1000
0000
0000
0001
0000
0000
0011
0000
0000
1000
0000
0000
0001
0000
0010
0100
0000
0000
1000
0000
0000
,  // measure 38
0100
0010
0011
0100
0001
0011
0100
0001
,  // measure 39
0110
0000
0001
0000
0100
0000
0011
0000
0001
1000
0001
0010
0100
0000
1001
0000
,  // measure 40
1000
0000
0001
1000
0010
0000
1001
0000
1000
0000
0001
1000
0010
0000
1001
0000
,  // measure 41
1000
0000
0000
0000
0000
0000
0001
0000
0000
1000
0000
0000
0010
0000
0000
0000
0000
0000
1001
0000
0000
0000
0000
0000
1000
0000
0000
0000
0000
0000
0001
0000
0000
0000
1000
0000
0001
0000
0000
0000
0000
0000
0001
0000
0000
0000
0001
0000
,  // measure 42
1000
0000
0000
1000
0000
1000
0001
0000
0000
0001
0000
0001
1000
0000
0000
1000
0000
1000
0010
0000
0010
0100
0000
0100
,  // measure 43
0001
0000
0000
0000
0001
0000
0010
0000
0000
0000
0100
0000
0010
0000
0000
0001
0000
0000
1000
0000
0000
0000
0000
0000
0000
0000
0000
0000
0000
0000
0102
0000
0000
0000
0000
0000
0000
0000
0000
0000
0000
0000
0000
0000
0000
0000
0000
0000
,  // measure 44
0103
0000
0000
0001
0000
0000
2000
0000
0000
0000
0000
0000
0000
0000
0000
0000
0000
0000
0000
0000
0000
0000
0000
0000
3100
0000
0000
0000
0000
0000
0010
0000
0010
0000
0010
0000
0001
0000
0000
0000
0000
0000
1000
0000
0000
0000
0000
0000
,  // measure 45
0001
0001
0001
0001
0000
0000
0100
0000
0000
0010
0100
0010
0100
0010
0100
0010
0000
0000
0100
0000
0000
0002
0000
0000
,  // measure 46
0000
0000
0000
0000
0003
0000
0000
0000
0000
0000
0000
0000
2001
0000
3020
0030
1002
0000
0203
0300
2002
0000
0000
0000
3003
0000
1000
0000
0010
0000
0100
0000
,  // measure 47
0001
0010
0200
0000
0000
0000
1300
0000
0100
0010
0002
0000
0000
0000
0000
0000
,  // measure 48
0103
0010
0200
0000
0000
0000
0001
0000
0310
1000
0002
0000
0000
0000
1000
0000
,  // measure 49
0103
0001
0020
0000
0000
0130
0010
0000
0100
0000
2000
0000
0000
3010
0100
0000
,  // measure 50
0010
0000
2000
0000
0000
0000
0000
0000
0000
0000
3002
2003
3002
2003
3002
2003
,  // measure 51
3020
0000
0000
0000
1030
0000
0100
0010
0002
0000
0000
0000
0013
0000
0100
0010
,  // measure 52
0002
0000
0000
0000
1003
0000
0100
1000
0020
0000
0000
0000
0130
0000
0010
1000
,  // measure 53
0002
0000
0000
0000
1003
0000
0100
0010
0200
0000
0000
0000
0310
0000
0000
0000
,  // measure 54
0110
0000
0011
0000
1100
0000
0101
0000
1001
0000
0000
1000
0100
0010
0001
0010
,  // measure 55
0200
0000
0000
0000
0310
0000
0100
0010
0002
0000
0000
0000
1003
0000
0001
0100
,  // measure 56
0020
0000
0000
0000
1030
0000
0100
0010
0002
0000
0000
0000
1003
0000
0001
1000
,  // measure 57
0200
0000
0000
0310
0100
0000
0010
0000
0002
0000
0000
1003
0001
0000
0010
0000
,  // measure 58
2001
0000
0000
0000
3001
0100
1000
0010
,  // measure 59
0001
0000
0100
0001
0000
0010
0100
0010
0001
0000
1000
0010
0000
0100
0001
0010
,  // measure 60
0100
0000
0010
0100
0000
0010
0100
1000
0010
0000
0100
0010
0000
0010
1000
0001
,  // measure 61
1000
0000
0200
0000
0302
0000
0203
0000
1300
0000
0020
0000
0130
0000
0002
0003
,  // measure 62
0011
0000
0200
0300
1100
0000
2000
3000
2001
0000
3001
0010
0002
0103
0010
1000
,  // measure 63
0100
0000
0010
0100
0000
0010
0001
1000
0010
0000
0100
0001
0000
0100
0010
1000
,  // measure 64
0001
0000
0010
0001
0000
1000
0001
0100
0010
0000
1000
0100
0000
0010
0100
1000
,  // measure 65
0001
0000
1000
0010
0000
0100
0001
0010
0100
1000
0000
0100
0010
0000
0100
0010
,  // measure 66
0001
0000
1000
0010
0100
0001
0010
0100
0010
0001
0100
0010
1000
0100
0010
0001
,  // measure 67
0200
0000
0000
0000
,  // measure 68
0300
0000
0000
0000
;
