#TITLE:Hollow Man (Alternative);
#SUBTITLE:;
#ARTIST:Corn And Beans;
#TITLETRANSLIT:;
#SUBTITLETRANSLIT:;
#ARTISTTRANSLIT:;
#GENRE:;
#CREDIT:;
#BANNER:Hollow Man.png;
#BACKGROUND:Hollow Man-bg.png;
#LYRICSPATH:;
#CDTITLE:;
#MUSIC:Hollow Man.mp3;
#OFFSET:-0.062000;
#SAMPLESTART:81.879997;
#SAMPLELENGTH:12.000000;
#SELECTABLE:YES;
#BPMS:0.000000=82.110001
,8.000000=164.220001
,72.000000=82.110001
,104.000000=164.220001
,248.000000=82.110001
,268.000000=164.220001
;
#STOPS:
;
#BGCHANGES:;
#KEYSOUNDS:;
#ATTACKS:;

//---------------dance-single - ----------------
#NOTES:
     dance-single:
     :
     Challenge:
     13:
     0.511491,0.932903,0.071609,0.198913,0.246652,450.000000,441.000000,9.000000,25.000000,0.000000,0.000000,0.511491,0.932903,0.071609,0.198913,0.246652,450.000000,441.000000,9.000000,25.000000,0.000000,0.000000:
// measure 0
0000
0000
0000
0000
,  // measure 1
0000
0000
0000
0000
,  // measure 2
0102
0000
1000
1000
0000
0010
0000
0000
,  // measure 3
0000
0100
0100
0000
1003
0001
1001
0000
,  // measure 4
2010
0000
0001
0001
0000
0100
0000
0000
,  // measure 5
0000
0010
0010
0000
3001
1000
1001
0000
,  // measure 6
0210
0000
0001
0001
0000
0010
0000
0000
,  // measure 7
0000
0001
0001
0000
0310
0100
1001
0000
,  // measure 8
0001
0100
0001
0000
0100
0001
0010
0001
,  // measure 9
1000
0100
0010
0001
1000
0100
0010
0001
,  // measure 10
0000
1000
0010
0010
0100
0001
0010
0100
,  // measure 11
0010
0010
0001
1000
0010
1000
0001
0010
,  // measure 12
0100
0100
0010
0001
1000
0010
0100
0001
,  // measure 13
0010
0010
0001
0010
0100
0100
0010
0001
,  // measure 14
1000
1000
0100
0001
0100
1000
0010
0100
,  // measure 15
0001
0001
0010
1000
0010
0001
0100
0010
,  // measure 16
1000
1000
0001
0000
1000
1000
0001
0001
,  // measure 17
0010
1000
0010
0001
0100
1000
0100
0001
,  // measure 18
0020
0000
0000
0000
,  // measure 19
0000
0000
0000
0000
,  // measure 20
0000
0230
0000
0000
0000
0000
0000
0000
,  // measure 21
0000
2300
0000
0000
0000
0000
0000
0000
,  // measure 22
3001
0100
1000
0000
0000
0000
0000
0000
1000
0100
0001
1000
0000
0000
0000
0000
,  // measure 23
0001
0010
1000
0000
0000
0000
0000
0000
1000
0010
0001
1000
0000
0000
0000
0000
,  // measure 24
0001
0100
1000
0000
0000
0000
0000
0000
1000
0100
0010
1000
0000
0000
0000
0000
,  // measure 25
1000
0010
0001
0000
0000
0000
0000
0000
0001
0010
0100
0001
0000
0000
1000
0000
,  // measure 26
1001
0001
0001
1000
0010
1000
0001
0010
,  // measure 27
0100
0100
0010
0001
0010
0010
0001
0010
,  // measure 28
0100
0100
1000
0010
0100
0100
0010
1000
,  // measure 29
0001
0001
1000
0100
0010
0100
1000
0010
,  // measure 30
0100
0100
0010
1000
0001
0001
0010
0100
,  // measure 31
0010
0010
0001
0010
0100
1000
0001
0010
,  // measure 32
0100
0100
1000
0000
0100
0100
1000
0100
,  // measure 33
0010
0010
0001
0001
0100
0100
0010
0010
,  // measure 34
0000
1000
0010
0001
0010
0100
0001
0010
,  // measure 35
1000
0010
0001
0100
0001
1000
0100
0001
,  // measure 36
0100
1000
0010
0100
0001
0010
1000
0010
,  // measure 37
0001
0100
0001
1000
0100
0001
0100
1000
,  // measure 38
0010
1000
0001
0010
1000
0010
0001
0100
,  // measure 39
1000
0100
0010
1000
0001
0010
1000
0010
,  // measure 40
0100
0100
0010
0000
0100
0100
0010
0100
,  // measure 41
0010
0010
0001
0001
0100
0100
0010
0010
,  // measure 42
1000
0000
0000
0000
0001
0000
0000
0100
0000
0000
0000
0000
1010
0000
0000
0000
,  // measure 43
1000
0000
0000
0000
0100
0000
0000
1000
0000
0000
0100
0000
0110
0000
0000
0000
,  // measure 44
1000
0000
0001
0100
0000
0001
1000
0000
0100
1000
0000
0100
0010
0000
0100
1000
,  // measure 45
0000
0010
0100
0000
0001
0010
0000
0100
0010
0001
0010
0001
1000
0100
1000
0100
,  // measure 46
1000
0000
0001
0200
0000
1300
0200
0000
,  // measure 47
0310
1000
0001
0020
0000
0100
0100
0130
,  // measure 48
0000
0000
0010
0200
0000
1300
0020
0000
,  // measure 49
0130
0001
1000
0002
0000
0010
0010
0013
,  // measure 50
0000
0000
0100
2000
0000
3010
0200
0000
,  // measure 51
0310
1000
0001
2000
0000
0010
0010
3010
,  // measure 52
0000
0000
0100
0002
0000
0013
0200
0000
,  // measure 53
0310
0001
1000
0020
0000
0000
2030
0000
,  // measure 54
3001
0100
1000
0000
0100
0000
0010
0000
,  // measure 55
1000
0010
0001
0010
2000
0001
0001
3001
,  // measure 56
0010
0100
0010
0000
0100
0000
1000
0000
,  // measure 57
0100
1000
0100
0001
2000
0100
0100
3100
,  // measure 58
0010
0100
1000
0000
0001
0000
0100
0000
,  // measure 59
0001
1000
0100
0010
0002
0010
0010
0013
,  // measure 60
0100
0010
0001
0000
0010
0000
1000
0000
,  // measure 61
0010
0100
1000
0020
0000
0000
0230
0000
,  // measure 62
0300
0000
0001
0100
0000
0100
1000
0000
1000
0100
0000
0010
0000
1000
0010
0100
,  // measure 63
0000
0000
0010
1000
0000
0100
0010
0000
0100
1000
0000
0001
0000
1000
0001
0100
,  // measure 64
0000
0000
0001
0010
0000
0100
0010
0000
0001
0100
0000
0010
0000
0100
0001
1000
,  // measure 65
0001
0000
1000
0001
0000
0010
0100
0000
0010
0001
0000
0010
0100
0000
1000
0010
0000
0100
0001
0000
0010
0100
0000
0010
0001
0010
0001
0010
0100
1000
0100
1000
,  // measure 66
0020
0000
0000
0000
,  // measure 67
0030
0000
0000
0000
;
