#VERSION:0.83;
#TITLE:Groove 2001 (Alternative);
#SUBTITLE:;
#ARTIST:Sho-T feat.Brenda;
#TITLETRANSLIT:;
#SUBTITLETRANSLIT:;
#ARTISTTRANSLIT:;
#GENRE:;
#ORIGIN:;
#CREDIT:;
#BANNER:Groove 2001.png;
#BACKGROUND:Groove 2001-bg.png;
#PREVIEWVID:;
#JACKET:Groove 2001-jacket.png;
#CDIMAGE:;
#DISCIMAGE:;
#LYRICSPATH:;
#CDTITLE:cdtitle.png;
#MUSIC:Groove 2001.ogg;
#OFFSET:0.000000;
#SAMPLESTART:58.215000;
#SAMPLELENGTH:15.000000;
#SELECTABLE:YES;
#BPMS:0.000=140.000;
#STOPS:;
#DELAYS:;
#WARPS:;
#TIMESIGNATURES:0.000=4=4;
#TICKCOUNTS:0.000=4;
#COMBOS:0.000=1;
#SPEEDS:0.000=1.000=0.000=0;
#SCROLLS:0.000=1.000;
#FAKES:;
#LABELS:0.000=Song Start;
#BGCHANGES:;
#KEYSOUNDS:;
#ATTACKS:
;

//---------------dance-single - ----------------
#NOTEDATA:;
#CHARTNAME:;
#STEPSTYPE:dance-single;
#DESCRIPTION:;
#CHARTSTYLE:;
#DIFFICULTY:Challenge;
#METER:14;
#RADARVALUES:0.711533,0.897391,0.719201,0.150281,0.703099,464.000000,397.000000,67.000000,14.000000,0.000000,0.000000,6.000000,0.000000,0.000000,0.711533,0.897391,0.719201,0.150281,0.703099,464.000000,397.000000,67.000000,14.000000,0.000000,0.000000,6.000000,0.000000,0.000000;
#CREDIT:Pandemonium X;
#NOTES:
// measure 0
0000
0000
0000
0000
,  // measure 1
0000
0000
0000
0000
,  // measure 2
1001
0000
1000
0000
0001
0000
0100
0010
0000
1000
0000
0100
0000
0010
0000
0100
,  // measure 3
1000
0000
0100
0000
1000
0000
0001
0010
0000
0100
0000
0010
0000
0001
0000
0100
,  // measure 4
0010
0000
1000
0000
0001
0000
0010
0001
0000
0010
0000
0100
0000
0010
0000
0001
,  // measure 5
1000
0100
0001
0100
1000
0010
1000
0001
,  // measure 6
0011
0000
1000
0000
1000
0000
0001
1000
0000
0010
0000
1000
0000
0100
0000
0010
,  // measure 7
0100
0001
0100
1000
0010
1000
0001
0000
,  // measure 8
1000
0000
0001
0000
0010
0000
0100
0010
0000
0001
0000
0100
0000
0010
0000
1000
,  // measure 9
0002
0000
0000
0000
0000
0000
0000
0000
0000
0000
0000
0000
0000
0000
0000
0003
,  // measure 10
1100
0000
0100
0000
0110
0000
0010
0001
0000
0100
0000
0010
1000
0000
0001
0000
,  // measure 11
1000
0010
0001
0010
0100
0010
1000
0000
,  // measure 12
1001
0000
0001
0000
0010
0000
0100
0010
0000
0100
0000
1000
0000
0010
0100
0001
,  // measure 13
1000
0100
0010
0100
1000
0010
0100
0001
,  // measure 14
0011
0000
0010
0000
0001
0000
1000
0010
0000
0100
0000
0001
0000
0010
0100
0000
,  // measure 15
1000
0100
0001
0100
0010
0001
1000
0000
,  // measure 16
0001
0000
0100
0000
0010
0000
1000
0010
0000
0100
0000
0001
0000
0010
0100
0000
,  // measure 17
1100
0000
0011
0000
0101
0000
0001
0101
0000
1010
0000
1001
0000
0010
0100
0000
,  // measure 18
2002
0000
0000
0000
,  // measure 19
0000
0000
0000
0000
,  // measure 20
0000
0000
0000
0000
,  // measure 21
0000
0000
0000
3003
,  // measure 22
0101
0000
0100
0000
0110
0000
1000
0001
0000
0010
0000
1000
0000
0010
0001
0000
,  // measure 23
1000
0000
0001
0000
0101
0000
0001
0010
0000
1000
0000
0010
0000
0100
1000
0000
,  // measure 24
0100
0000
0010
0000
0011
0000
0001
0010
0000
0001
0000
0100
0000
0010
2000
0000
,  // measure 25
3002
0203
2300
3200
0320
2030
3002
0023
,  // measure 26
0130
0000
0010
0000
1001
0000
1000
0100
0000
0001
0000
0100
0000
1000
0010
0000
,  // measure 27
0100
0000
0001
0000
0101
0000
0001
0100
0000
1000
0000
0100
0000
0010
0001
0000
,  // measure 28
1000
0000
0001
0000
0011
0000
0010
0001
0000
0100
0000
0010
0000
1000
0001
0000
,  // measure 29
1001
0000
1010
0000
0101
0000
0001
0011
0000
1100
0000
0011
0000
0010
0100
0000
,  // measure 30
1001
0000
1000
0000
0001
0000
0010
0001
0000
0100
0000
0010
0000
1000
0100
0000
,  // measure 31
0010
0000
0100
0000
1000
0000
0001
0010
0000
0001
0000
0100
0000
0010
1000
0000
,  // measure 32
0001
0000
0010
0000
1000
0000
0010
0100
0000
0010
0000
0001
0000
0100
0040
0000
,  // measure 33
4030
0000
3400
0000
0304
0000
0403
0000
0340
0000
0031
0000
1000
0001
1000
0001
,  // measure 34
1000
0000
0100
0000
1000
0000
0010
1000
0000
0010
0000
0100
0010
0000
0100
0000
,  // measure 35
0001
0000
1000
0001
0100
0000
0010
0000
1000
0000
0001
0010
0100
0000
1000
0000
,  // measure 36
0001
0000
0010
0000
0100
0000
1000
0100
0000
1000
0000
0010
0000
0100
0001
1000
,  // measure 37
0001
0010
1000
0010
0100
1000
0010
0100
,  // measure 38
0101
0000
0001
0000
0010
0000
0100
0010
0000
0001
0000
1000
0000
0010
1000
0000
,  // measure 39
0001
1000
0000
1000
0001
0000
0010
0000
0100
1000
0000
1000
0100
0000
0010
0000
,  // measure 40
0001
0000
0010
0000
0100
0000
0010
0001
0000
1000
0000
0010
0000
0100
0001
0000
,  // measure 41
1100
0000
0011
0000
0110
0000
0100
1100
0000
0011
0000
0110
0000
1000
0001
0000
,  // measure 42
0110
0100
0001
0011
1100
1000
0100
1000
,  // measure 43
0100
0010
0000
0010
0001
0000
0100
0000
0010
1000
0000
1000
0010
0000
1000
0000
,  // measure 44
1001
0000
0001
0000
1000
0000
1010
0000
0101
0000
0001
0000
0010
0000
0100
0010
,  // measure 45
0001
0010
1000
0010
0100
1000
0100
0001
,  // measure 46
0101
0000
0100
0000
0010
0000
0011
0000
1100
0000
1000
0000
0100
0000
1000
0010
,  // measure 47
0100
0001
0010
1000
0010
0100
1000
0000
,  // measure 48
1001
0001
1000
1010
0110
0100
0001
0010
,  // measure 49
0110
0000
1100
0000
1010
0000
1000
1010
0000
0101
0000
0011
0000
0110
0000
0000
,  // measure 50
1001
0000
0101
0000
0011
0000
0010
0110
0000
1100
0000
1010
0000
1100
0000
0000
,  // measure 51
1001
0000
0011
0000
0110
0000
0100
0110
0000
0011
0000
1010
0000
0100
0001
0000
,  // measure 52
2002
3003
0000
0000
;
