#VERSION:0.83;
#TITLE:GRID KNIGHT(Alternative);
#SUBTITLE:;
#ARTIST:SAW WAVE SQUAD;
#TITLETRANSLIT:;
#SUBTITLETRANSLIT:;
#ARTISTTRANSLIT:;
#GENRE:;
#ORIGIN:;
#CREDIT:;
#BANNER:GRID KNIGHT†.png;
#BACKGROUND:GRID KNIGHT-bg.png;
#PREVIEWVID:;
#JACKET:GRID KNIGHT†-jacket.png;
#CDIMAGE:;
#DISCIMAGE:;
#LYRICSPATH:;
#CDTITLE:cdtitle.png;
#MUSIC:GRID KNIGHT†.mp3;
#OFFSET:-0.533000;
#SAMPLESTART:74.019997;
#SAMPLELENGTH:12.000000;
#SELECTABLE:YES;
#BPMS:0.000=160.000;
#STOPS:288.333=0.125,
288.667=0.125,
289.000=0.125,
289.333=0.125,
289.667=0.125,
314.667=0.125,
315.000=0.125,
315.333=0.125,
315.667=0.125,
316.000=0.125,
316.333=0.125,
316.667=0.125,
317.000=0.125,
317.333=0.125,
317.667=0.125,
318.000=0.125;
#DELAYS:;
#WARPS:;
#TIMESIGNATURES:0.000=4=4;
#TICKCOUNTS:0.000=4;
#COMBOS:0.000=1;
#SPEEDS:0.000=1.000=0.000=0;
#SCROLLS:0.000=1.000;
#FAKES:;
#LABELS:0.000=Song Start;
#BGCHANGES:;
#KEYSOUNDS:;
#ATTACKS:
;

//---------------dance-single - ----------------
#NOTEDATA:;
#CHARTNAME:;
#STEPSTYPE:dance-single;
#DESCRIPTION:;
#CHARTSTYLE:;
#DIFFICULTY:Challenge;
#METER:15;
#RADARVALUES:0.626991,0.966236,0.441258,0.661886,1.040107,557.000000,501.000000,56.000000,84.000000,0.000000,0.000000,0.000000,0.000000,0.000000,0.626991,0.966236,0.441258,0.661886,1.040107,557.000000,501.000000,56.000000,84.000000,0.000000,0.000000,0.000000,0.000000,0.000000;
#CREDIT:;
#NOTES:
// measure 0
0000
0000
0000
0000
,  // measure 1
0000
0000
0000
0000
,  // measure 2
0000
0000
0000
0000
,  // measure 3
0000
0000
0000
0000
,  // measure 4
0000
0000
0000
0000
,  // measure 5
1000
0000
0001
0010
0000
0100
0010
0001
1000
0010
0000
0100
,  // measure 6
0010
1000
0001
0010
0100
0010
0001
1000
0010
0100
0001
1000
,  // measure 7
0001
0000
0010
0001
0000
0010
0100
0010
0001
1000
0000
0001
,  // measure 8
0100
0010
1000
0001
0000
1100
0000
0011
0000
0110
0000
1100
,  // measure 9
2000
0000
0000
0000
,  // measure 10
3002
0000
0000
0000
0000
0000
2003
0000
0000
0000
0000
3000
,  // measure 11
0201
0000
0000
0000
0000
0320
0000
0000
0000
0000
0000
0000
,  // measure 12
2030
0000
0000
0000
0000
0000
3002
0000
0000
2003
0000
3000
,  // measure 13
0120
0000
0000
0000
0000
0000
0000
0000
0000
0000
0000
0030
,  // measure 14
1001
0000
0000
0000
,  // measure 15
0210
0300
1001
0000
,  // measure 16
0110
1001
0110
1001
,  // measure 17
1010
0000
1000
0001
0000
0010
0100
0000
0010
0001
0000
0100
,  // measure 18
0020
0000
1030
0100
0000
0010
0110
0000
1100
0000
1010
0000
,  // measure 19
0101
0000
0001
0010
0000
0100
0010
0000
0001
1000
0000
0010
,  // measure 20
2000
0000
3001
0010
0000
0100
0020
0000
0031
0010
0000
0010
,  // measure 21
0200
0000
1300
0100
0000
1000
0010
0000
0010
0100
0000
0100
,  // measure 22
0101
0000
0001
0000
0010
0000
0110
0000
0100
0000
1000
0000
,  // measure 23
2001
0000
3001
0010
0000
0100
0010
0000
0001
0100
0000
0010
,  // measure 24
2000
0000
3010
0100
0000
0001
0010
0000
0100
0010
0000
0001
,  // measure 25
1000
0000
0010
2000
0000
0000
0100
0000
0000
0010
0000
0000
,  // measure 26
3002
0000
0000
0000
0000
0203
0000
0000
0310
1000
0000
0100
,  // measure 27
0020
0000
0000
0000
0000
0032
0000
0000
0000
0000
0000
0000
,  // measure 28
2003
0000
0000
3020
0000
0000
0230
0000
0000
0320
0000
1030
,  // measure 29
0200
0000
0000
0000
0000
0320
0000
0000
0000
0000
0030
0000
,  // measure 30
0200
0320
0032
2003
,  // measure 31
0002
0000
0000
0000
0000
0000
0000
0000
0000
0000
3003
0000
,  // measure 32
0200
0000
0320
0000
,  // measure 33
1030
0000
1000
0100
0000
0100
0010
0000
0010
0001
0000
0001
,  // measure 34
0100
0000
0100
0010
0000
0010
1000
0000
1000
0010
0100
0001
,  // measure 35
0010
0000
0001
0010
0000
0010
0100
0000
0100
1000
0000
1000
,  // measure 36
0010
0000
0010
0100
0000
0100
0001
0000
0001
1000
0010
1000
,  // measure 37
0100
0000
0100
0000
0000
0010
0001
0000
1000
0000
0000
0010
,  // measure 38
1000
0000
1000
0000
0000
0001
0010
0000
0100
0000
0000
0010
,  // measure 39
0001
0100
0010
1000
,  // measure 40
1000
0001
0000
0101
0000
0011
0000
1100
0000
0110
0000
1000
,  // measure 41
0002
0000
0000
1003
0001
0010
0200
0000
0000
0320
0000
0000
,  // measure 42
0230
0000
0000
0310
0001
1000
0020
0000
0000
0130
0000
0000
,  // measure 43
1002
0000
0000
1003
0001
0010
0200
0000
0000
2300
0000
0000
,  // measure 44
3020
0000
0000
0130
0001
0010
0200
0000
0000
0310
0001
1000
,  // measure 45
1020
0000
0000
0130
0000
0000
0010
1000
0001
0010
0100
1000
,  // measure 46
2100
0000
0000
3010
0000
0000
0100
0010
1000
0001
0010
0001
,  // measure 47
0201
0310
1020
0130
,  // measure 48
0010
0100
0001
1000
0010
0100
0001
0010
0100
0020
0000
0000
,  // measure 49
0230
0000
0000
2300
0000
0000
3010
0100
0001
0010
0100
0010
,  // measure 50
0002
0000
0000
1003
0001
0010
0100
0010
0001
0100
0010
1000
,  // measure 51
0100
0100
0010
0200
0000
0300
0010
0001
0100
0010
0100
0001
,  // measure 52
2000
0000
3000
0100
0010
0100
1000
0001
0010
0100
1000
0001
,  // measure 53
0010
0010
0001
2000
0000
3000
0010
1000
0010
0100
0010
1000
,  // measure 54
0001
0001
1000
0002
0000
0013
0100
1000
0100
0010
0100
1000
,  // measure 55
0010
0010
0100
0001
0001
0010
0100
0100
1000
0001
0001
1000
,  // measure 56
0001
0010
1000
0010
0001
0100
0020
0000
0000
0000
0000
0030
,  // measure 57
1002
0000
0000
0023
0000
0000
0130
0010
0001
0010
0100
1000
,  // measure 58
0002
0000
0000
0203
0000
0000
0310
1000
0001
0010
0100
0010
,  // measure 59
0001
0001
1000
0002
0000
0003
1000
0010
1000
0100
0010
0100
,  // measure 60
2000
0000
3000
0001
0100
0001
0010
0100
1000
0100
0010
0100
,  // measure 61
1000
1000
0001
1000
1000
0001
1000
0100
0010
0001
1000
0100
,  // measure 62
0010
0010
0001
0010
0010
0001
1000
0100
0010
0001
1000
0100
,  // measure 63
0010
0100
1000
0010
0100
0001
0010
0100
0010
0001
1000
0001
,  // measure 64
1000
1000
0001
0010
0010
0100
0010
0001
0100
2000
0000
3000
,  // measure 65
0201
0000
0000
0302
,  // measure 66
2003
0000
0000
0000
0000
3200
0000
0000
0000
2300
0000
3000
,  // measure 67
2001
0000
0000
0000
0000
3002
0000
0000
0000
2003
0000
0000
,  // measure 68
0200
0000
0000
0000
0000
0000
0000
0000
3300
0020
0000
0030
,  // measure 69
0210
0000
0000
0000
0000
0000
0000
0000
0000
0320
0000
0030
,  // measure 70
1002
0000
0000
0000
0000
0023
0000
0000
0000
0230
0000
0300
,  // measure 71
2001
0000
0000
0000
0000
0000
0001
0000
0000
0000
0000
3000
,  // measure 72
0000
0101
1010
1100
0011
0110
1001
1000
0000
0001
0010
0000
,  // measure 73
0100
0010
0001
0100
0010
0000
0100
0001
0010
0100
0010
0001
,  // measure 74
0100
0010
1000
0100
0010
0100
1000
0001
0000
1000
0100
0000
,  // measure 75
0010
0001
1000
0001
1000
0000
0001
0010
0100
1000
0010
0100
,  // measure 76
0001
1000
0100
0010
0100
1000
0001
0102
0000
0000
0103
0000
,  // measure 77
0000
0010
0000
0000
2000
0000
3000
0011
0000
0000
0010
0000
,  // measure 78
0000
0002
0000
1000
0000
1003
0000
0000
0101
1010
1100
0110
,  // measure 79
0011
0110
1001
1010
0101
0011
0110
1001
0020
0000
0000
0000
,  // measure 80
0000
0000
0000
0000
,  // measure 81
0000
0000
0000
0030
;
