#VERSION:0.83;
#TITLE:Elysium (Alternative);
#SUBTITLE:;
#ARTIST:Scott Brown;
#TITLETRANSLIT:;
#SUBTITLETRANSLIT:;
#ARTISTTRANSLIT:;
#GENRE:;
#ORIGIN:;
#CREDIT:;
#BANNER:Elysium.png;
#BACKGROUND:Elysium-bg.png;
#PREVIEWVID:;
#JACKET:Elysium-jacket.png;
#CDIMAGE:;
#DISCIMAGE:;
#LYRICSPATH:;
#CDTITLE:cdtitle.png;
#MUSIC:elysium.ogg;
#OFFSET:-0.003000;
#SAMPLESTART:54.856998;
#SAMPLELENGTH:12.000000;
#SELECTABLE:YES;
#BPMS:0.000=175.000;
#STOPS:;
#DELAYS:;
#WARPS:;
#TIMESIGNATURES:0.000=4=4;
#TICKCOUNTS:0.000=4;
#COMBOS:0.000=1;
#SPEEDS:0.000=1.000=0.000=0;
#SCROLLS:0.000=1.000;
#FAKES:;
#LABELS:0.000=Song Start;
#BGCHANGES:;
#KEYSOUNDS:;
#ATTACKS:
;

//---------------dance-single - ----------------
#NOTEDATA:;
#CHARTNAME:;
#STEPSTYPE:dance-single;
#DESCRIPTION:;
#CHARTSTYLE:;
#DIFFICULTY:Challenge;
#METER:14;
#RADARVALUES:0.762534,0.872066,0.708997,0.668483,0.197506,527.000000,457.000000,70.000000,66.000000,0.000000,0.000000,0.000000,0.000000,0.000000,0.762534,0.872066,0.708997,0.668483,0.197506,527.000000,457.000000,70.000000,66.000000,0.000000,0.000000,0.000000,0.000000,0.000000;
#CREDIT:;
#NOTES:
// measure 0
0000
0000
0000
0000
,  // measure 1
0000
0000
0000
0000
,  // measure 2
0000
0000
0000
0000
,  // measure 3
0000
0000
0000
0000
,  // measure 4
0100
0100
0100
1001
,  // measure 5
0010
0010
0010
1001
,  // measure 6
0100
0100
0100
1001
,  // measure 7
0010
1001
0100
1001
,  // measure 8
1000
0010
1000
0001
0010
0001
1001
0000
,  // measure 9
0001
0010
0001
1000
0001
0010
1001
0000
,  // measure 10
1000
0010
0100
0010
1000
0001
0011
0000
,  // measure 11
0100
1000
1010
0000
0100
0001
0011
0000
,  // measure 12
0001
1000
0100
1000
0010
0100
0101
0000
,  // measure 13
0001
0010
0001
1000
0010
0100
0101
0000
,  // measure 14
0001
0100
0010
1000
0100
0010
0110
0000
,  // measure 15
0100
1000
1100
0000
0001
0100
0101
0000
,  // measure 16
0002
0000
0103
2000
0000
3100
0020
0000
,  // measure 17
1030
0200
0000
0301
0200
0000
0310
0001
,  // measure 18
2000
0000
3010
0002
0000
0013
0200
0000
,  // measure 19
0301
0020
0000
1030
0020
0000
0130
0010
,  // measure 20
0002
0000
1003
0200
0000
1300
0020
0000
,  // measure 21
0130
0002
0000
0013
0200
0000
0310
0001
,  // measure 22
0200
0000
0310
2000
0000
3100
2000
0000
,  // measure 23
3100
0020
0000
0130
2000
0000
3001
0100
,  // measure 24
0010
0010
1000
0001
0010
1000
0010
0001
,  // measure 25
0100
1000
0100
0010
1000
0001
0010
0100
,  // measure 26
0100
0010
0001
0001
1000
0010
0010
1000
,  // measure 27
0001
0001
0010
0010
0100
0010
0001
1000
,  // measure 28
0100
0100
1000
0010
0100
1000
0100
0010
,  // measure 29
1000
1000
0100
0010
0010
0100
1000
1000
,  // measure 30
0001
0100
1000
0100
0001
0010
1000
0010
,  // measure 31
0100
0010
0001
1000
0001
0100
0001
1000
,  // measure 32
1001
0000
0001
1020
0000
1030
0021
0000
,  // measure 33
0031
1020
0000
0031
1200
0000
1300
0001
,  // measure 34
1001
0000
1000
0021
0000
0031
1020
0000
,  // measure 35
1030
0201
0000
0301
1020
0000
1030
0001
,  // measure 36
0110
0000
0100
0021
0000
0130
1200
0000
,  // measure 37
1300
1002
0000
0103
0120
0000
0130
0001
,  // measure 38
1001
0000
0010
2001
0000
3100
1002
0000
,  // measure 39
1003
0210
0000
0301
0120
0000
0130
0001
,  // measure 40
1001
0000
0000
0000
0100
0010
0002
0000
0000
0000
1003
0001
0200
0000
0000
0000
,  // measure 41
0310
1000
0200
0000
0000
0000
0310
0100
2000
0000
0000
0000
3100
0010
0001
0000
,  // measure 42
1001
0000
0000
0000
0001
0100
0020
0000
0000
0000
1030
0001
0020
0000
0000
0000
,  // measure 43
0130
0010
0002
0000
0000
0000
0013
0001
0200
0000
0000
0000
0310
1000
0001
0000
,  // measure 44
1001
0000
0000
0000
1000
0001
0020
0000
0000
0000
0130
1000
0020
0000
0000
0000
,  // measure 45
0130
0010
2000
0000
0000
0000
3001
1000
0200
0000
0000
0000
0310
0100
1000
0000
,  // measure 46
1001
0000
0000
0000
1000
0010
0200
0000
0000
0000
0310
1000
0002
0000
0000
0000
,  // measure 47
0013
0100
2000
0000
0000
0000
3100
1000
0020
0000
0000
0000
0130
0001
0010
0000
,  // measure 48
1100
0000
0000
0000
1000
0100
0002
0000
0000
0000
0103
0010
0002
0000
0000
0000
,  // measure 49
0013
0100
2000
0000
0000
0000
3100
0010
0002
0000
0000
0000
1003
0001
0100
0000
,  // measure 50
0110
0000
0000
0000
1000
0100
0002
0000
0000
0000
0103
0010
2000
0000
0000
0000
,  // measure 51
3001
0010
2000
0000
0000
0000
3010
0100
2000
0000
0000
0000
3100
0010
0001
0000
,  // measure 52
1001
0000
0000
0000
1000
0100
0002
0000
0000
0000
0103
0010
0002
0000
0000
0000
,  // measure 53
0013
0001
2000
0000
0000
0000
3010
0100
0002
0000
0000
0000
1003
0001
0100
0000
,  // measure 54
0110
0000
0000
0000
0100
0010
2000
0000
0000
0000
3001
0010
0200
0000
0300
0000
,  // measure 55
1001
0000
0000
0000
0000
0000
0000
0000
0000
0000
0000
0000
0001
1000
0001
1000
,  // measure 56
0001
0100
0010
1000
0100
0010
0011
0000
,  // measure 57
0010
0100
0010
0001
1000
0010
1010
0000
,  // measure 58
1000
0001
0010
0001
0100
0010
0110
0000
,  // measure 59
0100
0001
1001
0000
0100
0010
1001
0000
,  // measure 60
0101
0100
0110
0010
1010
1000
1001
0000
,  // measure 61
1100
0100
0110
0010
0011
0001
1001
0000
,  // measure 62
1001
0001
1001
1000
1010
0010
0110
0000
,  // measure 63
0100
0001
0011
0000
0100
1000
1100
0000
,  // measure 64
0001
0100
0010
1000
0100
0010
0011
0000
,  // measure 65
0001
0010
0100
0010
0001
0010
0110
0010
,  // measure 66
0010
0100
0010
0001
1000
0100
0011
0000
,  // measure 67
0001
0010
0110
0000
0100
1000
1100
0100
,  // measure 68
1000
1000
0001
0001
1000
1000
0001
0000
,  // measure 69
1000
1000
0001
0001
1000
1000
0001
0001
,  // measure 70
1000
1000
0001
0001
1000
1000
0001
0000
,  // measure 71
1000
0001
0110
0000
0001
1000
0110
0000
;
