#VERSION:0.83;
#TITLE:Electrified (Alternative);
#SUBTITLE:;
#ARTIST:SySF.;
#TITLETRANSLIT:;
#SUBTITLETRANSLIT:;
#ARTISTTRANSLIT:;
#GENRE:;
#ORIGIN:;
#CREDIT:;
#BANNER:Electrified.png;
#BACKGROUND:Electrified-bg.png;
#PREVIEWVID:;
#JACKET:Electrified-jacket.png;
#CDIMAGE:;
#DISCIMAGE:;
#LYRICSPATH:;
#CDTITLE:cdtitle.png;
#MUSIC:Electrified.ogg;
#OFFSET:-5.633999;
#SAMPLESTART:75.899719;
#SAMPLELENGTH:13.714287;
#SELECTABLE:YES;
#BPMS:0.000=140.000;
#STOPS:;
#DELAYS:;
#WARPS:;
#TIMESIGNATURES:0.000=4=4;
#TICKCOUNTS:0.000=4;
#COMBOS:0.000=1;
#SPEEDS:0.000=1.000=0.000=0;
#SCROLLS:0.000=1.000;
#FAKES:;
#LABELS:0.000=Song Start;
#BGCHANGES:;
#KEYSOUNDS:;
#ATTACKS:
;

//---------------dance-single - ----------------
#NOTEDATA:;
#CHARTNAME:;
#STEPSTYPE:dance-single;
#DESCRIPTION:;
#CHARTSTYLE:;
#DIFFICULTY:Challenge;
#METER:13;
#RADARVALUES:0.531737,0.759454,0.267061,0.408937,0.354690,446.000000,414.000000,32.000000,49.000000,0.000000,0.000000,0.000000,0.000000,0.000000,0.531737,0.759454,0.267061,0.408937,0.354690,446.000000,414.000000,32.000000,49.000000,0.000000,0.000000,0.000000,0.000000,0.000000;
#CREDIT:Pandemonium X;
#NOTES:
// measure 0
0000
0000
0000
0000
,  // measure 1
0000
0000
0000
0000
,  // measure 2
0000
0000
0000
0000
,  // measure 3
0000
0000
0000
0000
,  // measure 4
0000
0000
0000
0000
,  // measure 5
1001
0000
1100
0100
0010
0010
0100
1000
,  // measure 6
0000
0001
0100
1000
0000
0100
0010
1000
,  // measure 7
1001
0000
0011
0010
0001
0001
1000
0100
,  // measure 8
0000
1000
0010
0001
0000
0010
0100
0001
,  // measure 9
1001
0000
1010
0010
1000
1000
0100
1000
,  // measure 10
0000
0001
0010
1000
0000
0010
0100
1000
,  // measure 11
1001
0000
0011
0001
1000
1000
0010
1000
,  // measure 12
0100
1000
0010
0100
1002
0000
1003
0001
,  // measure 13
1001
0000
0001
0100
1000
0100
0010
1000
,  // measure 14
0000
0010
0100
0001
0000
0001
0100
0010
,  // measure 15
1000
0000
0100
0001
0100
0010
0001
0010
,  // measure 16
0000
0100
0010
0001
0000
0001
0010
0100
,  // measure 17
1000
0000
0100
0001
0100
1000
0010
0001
,  // measure 18
0000
0010
0100
0010
0000
0100
0010
1000
,  // measure 19
0001
0000
0001
0100
1000
0100
1000
0001
,  // measure 20
0000
0000
0010
0000
1000
0000
0001
0000
0010
0100
1000
0000
0001
0000
0100
0000
,  // measure 21
1001
0000
1000
0000
0000
0000
0001
0000
0200
0000
0000
1300
0000
0000
0100
0000
,  // measure 22
1000
0010
0200
0000
0000
0000
0300
0000
,  // measure 23
0020
0000
0000
0000
0000
0000
1030
0000
0002
0000
0000
0003
0000
0000
0010
0000
,  // measure 24
0100
0000
1000
0000
0002
0000
0000
0000
0013
0100
1000
0000
0000
0000
0000
0000
,  // measure 25
0001
0000
0000
1000
0000
0000
0010
0000
2000
0000
0000
0000
3000
0000
0100
0000
,  // measure 26
0010
0001
0020
0000
0000
0000
0030
0000
,  // measure 27
0002
0000
0003
0000
0000
0000
0010
0000
0200
0000
0000
0300
0000
0000
0100
0000
,  // measure 28
1001
0000
1001
0000
1001
0000
0000
0000
1000
0001
1000
0000
0101
0000
0000
0000
,  // measure 29
1000
0001
0010
0100
0010
0001
1000
0000
0001
1000
0000
1010
0000
0000
0000
0000
,  // measure 30
1000
0010
0100
0010
1000
0001
0010
0000
0100
0010
0001
0010
0100
0000
0000
0000
,  // measure 31
0010
0001
1000
0010
1000
0001
1000
0000
0001
0100
0000
1010
0000
0000
0000
0000
,  // measure 32
1100
0000
0000
0100
0010
0000
0001
0000
1001
0000
0000
0001
0010
0000
0100
0000
,  // measure 33
1000
0010
1000
0001
0010
0100
1000
0000
0100
1000
0000
0011
0000
0000
0000
0000
,  // measure 34
0010
0001
0100
0010
1000
0001
0010
0100
1000
0100
0010
0100
1000
0010
0100
0001
,  // measure 35
1000
0000
0000
0001
0010
0000
0100
0000
1100
0000
0000
1000
0100
0000
0010
0000
,  // measure 36
0011
0000
0000
0001
0100
0000
0010
0000
1010
0000
0011
0000
0010
0100
0010
0000
,  // measure 37
1001
0000
0000
0000
,  // measure 38
0000
0000
0000
0000
,  // measure 39
0000
0002
0203
0320
,  // measure 40
0230
0000
2300
0000
3200
0000
0302
0000
0203
0000
0320
0000
2030
3200
0302
0023
,  // measure 41
0130
0000
0010
0001
0200
0000
0310
2000
,  // measure 42
0000
3002
0000
2003
0000
3001
0010
0100
,  // measure 43
0010
0001
0100
0010
1000
0100
0010
0200
,  // measure 44
0000
2300
0000
3020
0000
0200
0000
0000
,  // measure 45
0330
0000
0101
0000
1100
0000
0001
0010
,  // measure 46
0000
0000
0100
0000
0010
0100
0010
0000
0100
1000
0100
0000
1000
0001
1000
0000
,  // measure 47
0000
0001
1000
0010
1000
0100
0010
0002
,  // measure 48
0000
0000
0013
0000
0100
1000
0010
0000
0100
0001
2000
0000
0000
0000
0000
0000
,  // measure 49
3000
0000
0001
0010
0200
0000
1300
0200
,  // measure 50
0000
0000
2300
0000
3001
0100
0010
0000
0100
0010
1000
0000
0001
0010
0100
0000
,  // measure 51
0000
0100
0010
0100
0010
0001
0100
0020
,  // measure 52
0000
0000
2030
0000
3001
0010
0100
0000
0100
1000
0010
0000
0000
0000
0000
0000
,  // measure 53
0000
0000
1010
0000
0011
0000
1000
0001
,  // measure 54
0000
0000
1000
0000
0001
0100
0001
0000
0100
0010
0100
0000
0010
1000
0010
0000
,  // measure 55
0100
0010
1000
0001
0010
0100
1000
0100
0010
0000
0100
0000
1000
0000
0001
0000
,  // measure 56
0010
0000
0100
0000
1000
0100
0010
0000
0001
0100
0010
0000
1000
0000
0000
0000
,  // measure 57
0001
0000
1000
0000
0010
0000
0000
0100
0000
0001
0000
0010
0000
0100
0010
0001
,  // measure 58
1000
0001
1000
0000
0010
0000
0000
1000
0000
0100
0000
0010
0000
0100
0000
1000
,  // measure 59
0002
0003
0000
0000
2000
3000
0000
0000
0010
0000
0100
0000
0110
0000
0000
0000
,  // measure 60
0020
0000
0000
2030
0000
0000
3200
0000
0000
0000
0310
0000
1001
0000
0000
0000
,  // measure 61
0001
0000
1000
0000
0100
0000
0000
0010
0000
0100
0000
1000
0000
0010
0100
0010
,  // measure 62
1000
0001
1000
0000
0100
0000
0000
0010
0000
0100
0000
1000
0000
0001
0000
0100
,  // measure 63
0020
0000
0030
0000
0000
0000
0200
0000
0300
0000
0000
0000
0001
0000
0000
1000
0000
0000
1001
0000
0000
0000
0000
0000
,  // measure 64
2000
3000
0000
0000
0200
0300
0000
0000
0010
0100
1000
0000
0002
2000
0000
0000
,  // measure 65
3003
0000
0000
0000
;
