#TITLE:Electric Super Highway (Alternative);
#SUBTITLE:;
#ARTIST:MACHO ROBOT feat. nouvo nude;
#TITLETRANSLIT:;
#SUBTITLETRANSLIT:;
#ARTISTTRANSLIT:;
#GENRE:;
#CREDIT:;
#BANNER:Electric Super Highway.png;
#BACKGROUND:Electric Super Highway-bg.png;
#LYRICSPATH:;
#CDTITLE:;
#MUSIC:Electric Super Highway.mp3;
#OFFSET:-3.934000;
#SAMPLESTART:86.760010;
#SAMPLELENGTH:12.000000;
#SELECTABLE:YES;
#BPMS:0.000000=69.500000
,6.000000=139.000000
,34.000000=69.500000
,38.000000=139.000000
,178.000000=69.500000
,180.000000=139.000000
;
#STOPS:
;
#BGCHANGES:;
#KEYSOUNDS:;
#ATTACKS:;

//---------------dance-single - ----------------
#NOTES:
     dance-single:
     :
     Challenge:
     15:
     0.683845,0.797683,0.547310,0.686179,0.678010,586.000000,519.000000,67.000000,84.000000,0.000000,0.000000,0.683845,0.797683,0.547310,0.686179,0.678010,586.000000,519.000000,67.000000,84.000000,0.000000,0.000000:
// measure 0
1000
0000
0000
0001
0000
0001
0000
0100
0010
0000
1000
0100
0000
0000
0000
0000
0110
0000
0100
1000
0000
0000
0000
0000
0001
0000
0000
0001
0000
0000
0000
0000
,  // measure 1
1000
0000
0000
1000
0000
0000
0000
0000
0010
0000
0000
0010
0000
0000
0000
0000
0100
0000
0001
0000
0010
0000
0000
0000
0100
0000
0000
0000
0010
0000
0001
0000
,  // measure 2
1000
0000
0001
0000
1001
0000
0000
0000
0001
0100
0010
0000
0100
0000
0010
1000
,  // measure 3
0100
0000
0010
0000
1001
0000
0000
0000
1000
0001
0010
0000
0100
0000
0010
0001
,  // measure 4
0100
0000
0010
0000
1001
0000
0000
0000
0001
1000
0100
0000
0010
0000
0100
1000
,  // measure 5
0010
0000
0100
0000
1001
0000
0000
0000
1000
0010
0100
0000
0001
0000
0010
0100
,  // measure 6
1000
0000
0100
0000
1001
0000
0000
0000
0001
0010
0100
0000
0010
0000
0001
1000
,  // measure 7
0010
0000
0100
0000
1001
0000
0000
0000
0001
1000
0010
0000
1000
0000
0001
0010
,  // measure 8
0100
0000
0000
0000
0000
0000
0000
0000
0000
0000
0000
0000
0000
0000
0000
0000
0000
0000
0000
0000
0000
0000
0000
0000
0010
0000
0000
0000
0000
0000
0000
0000
0000
0000
0000
0000
0000
0000
0000
0000
0000
0000
0000
0000
0000
0000
0000
0000
0001
0000
0000
0000
0000
0000
0000
0000
0000
0000
0000
0000
0010
0000
0000
0000
0000
0000
0000
0000
0000
0000
0000
0000
0001
0000
0000
0000
0000
0000
0000
0000
0000
0000
0000
0000
0010
0000
0000
0000
0000
0000
0000
0000
0000
0000
0000
0000
0200
0000
0000
0000
0000
0000
0000
0000
0000
0000
0000
0000
0000
0000
0000
0000
0000
0000
0000
0000
0000
0000
0000
0000
0320
0000
0000
0000
0000
0000
0000
0000
0000
0000
0000
0000
0000
0000
0000
0000
0030
0000
0000
0000
0000
0000
0000
0000
0011
0000
0000
0000
0000
0000
0000
0000
0000
0000
0000
0000
0000
0000
0000
0000
0000
0000
0101
0000
0000
0000
0000
0000
0000
0000
0000
0000
0000
0000
0000
0000
0000
0000
0000
0000
0011
0000
0000
0000
0000
0000
0000
0000
0000
0000
0000
0000
,  // measure 9
0000
0101
0000
0000
0011
0000
0000
0011
0000
0000
0000
0001
1000
0001
0000
0000
1020
0000
0000
0000
1030
0000
0000
0000
0001
0000
0000
0000
0010
0000
0000
0000
,  // measure 10
1200
1300
0100
0010
0021
0031
1000
0010
,  // measure 11
2010
0000
3100
0000
0010
0000
0001
0000
2000
3020
1030
0000
1000
0000
0100
0000
,  // measure 12
0201
0301
0010
0100
2100
3001
0010
0100
,  // measure 13
0020
0032
0203
0320
2000
0000
0030
3000
0021
0000
0031
0000
0100
0000
0010
0000
,  // measure 14
1200
1300
0100
0010
0201
0301
1000
0001
,  // measure 15
0021
0000
0031
0000
0100
0000
0010
0000
0200
2300
3100
0000
0010
0000
0001
0000
,  // measure 16
0201
0301
0010
0100
1002
0103
0001
1000
,  // measure 17
0120
0000
0031
0000
0210
0000
1300
0000
0001
0010
0000
0000
0010
0100
0000
0000
,  // measure 18
0100
1000
0000
0000
1000
0010
0000
0000
0010
0100
0000
0000
0100
0001
0000
0000
,  // measure 19
0001
2000
0000
0000
3010
0000
0000
0000
0100
0001
0000
0000
0010
0100
0000
0000
,  // measure 20
0010
0001
0000
0000
1000
0100
0000
0000
0010
0100
0000
0000
1000
0010
0000
0000
,  // measure 21
0200
0000
0000
0000
0301
0000
0000
0000
0001
0010
0000
0000
0010
0100
0000
0000
,  // measure 22
0100
1000
0000
0000
1000
0001
0000
0000
0001
0100
0000
0000
0100
0010
0000
0000
,  // measure 23
2000
0000
0000
0000
3100
0000
0000
0000
0100
0010
0000
0000
0010
0001
0000
0000
,  // measure 24
0001
0100
0000
0000
0100
0010
0000
0000
1010
0000
0000
0000
0101
0000
0000
0000
,  // measure 25
0011
0000
0000
0000
0110
0000
0000
0000
0001
0000
0000
0001
0000
0000
0001
0000
,  // measure 26
1000
0000
0000
0001
1000
0000
0001
1000
0001
0000
0000
0001
0000
0000
0001
0000
,  // measure 27
1000
0000
0000
0000
0010
0000
0010
0100
0001
0000
0000
0000
1000
0000
0000
0100
,  // measure 28
0000
0000
1000
0000
1010
0000
0000
0000
0010
0000
0000
0000
0100
0000
0000
0001
,  // measure 29
0000
0000
0010
0000
0100
0000
0100
0000
0010
0000
0000
0000
0001
0000
0000
0010
,  // measure 30
0000
0000
0100
0000
1100
0000
0000
0000
0100
0000
0000
0000
1000
0000
0000
0010
,  // measure 31
0000
0000
0100
0000
0010
0000
0010
0000
1000
0000
0000
0000
0001
0000
0000
1000
,  // measure 32
0000
0000
0010
0000
0110
0000
0000
0000
0010
0000
0000
0000
0100
0000
0000
0001
,  // measure 33
0000
0000
0010
0000
0100
0000
0100
0000
0010
0000
0000
0000
0001
0000
0000
0010
,  // measure 34
0000
0000
0100
0000
1100
0000
0000
0000
0010
0001
0010
0001
0010
0001
0010
0001
,  // measure 35
0010
0000
0000
0001
0000
0000
0010
0000
0000
0001
0000
0000
0010
0000
0000
0001
0000
0000
0010
0000
0000
0001
0000
0000
0010
0000
0000
0000
0000
0000
0000
0000
0010
0000
0000
0000
0000
0000
0000
0000
0010
0000
0000
0000
0000
0000
0000
0000
,  // measure 36
0010
0000
0010
0000
0010
0000
0010
0000
0010
0000
0010
0000
,  // measure 37
0010
0000
0010
0000
0010
0000
0100
0000
0100
0000
0100
0000
,  // measure 38
0100
0000
0100
0000
0100
0000
0100
0000
0100
0000
0100
0000
,  // measure 39
0100
0000
0100
0000
0100
0000
1100
0000
1100
0000
1100
0000
,  // measure 40
1100
0000
1100
0000
1100
0000
1100
0000
1100
0000
1100
0000
,  // measure 41
1100
0000
1100
0000
1100
0000
0101
0000
0101
0000
0101
0000
,  // measure 42
0101
0000
0101
0000
0101
0000
0011
0000
0011
0000
0011
0000
,  // measure 43
0011
0000
0011
0000
0011
0000
1001
0000
0000
0101
0000
0110
,  // measure 44
0000
0000
0000
0000
0000
0000
1010
0000
0000
0000
0000
0000
0000
0000
0000
0000
1001
0000
0000
0000
0000
0000
0000
0000
2100
0000
0000
0000
0000
0000
0000
0000
0000
0000
0000
0000
0000
0000
0000
0001
0000
0000
3001
0000
0000
0000
0000
0000
,  // measure 45
0020
0031
0100
0000
0010
0000
1000
0000
0200
1300
0010
0000
0100
0000
0001
0000
,  // measure 46
2000
3001
0010
0000
0100
0000
0010
0000
0002
0103
0010
0000
1000
0000
0001
0000
,  // measure 47
0020
0230
1300
0000
0100
0000
1000
0000
0200
0310
0001
0000
0010
0000
0001
0000
,  // measure 48
0200
0310
1000
0000
0001
0000
1000
0000
0002
0203
0320
2030
0200
0000
3300
0000
,  // measure 49
0020
0130
1000
0000
0001
0000
1000
0000
0200
1300
0010
0000
0100
0000
0001
0000
,  // measure 50
0020
0130
1000
0000
0100
0000
1000
0000
0002
0103
0010
0000
1000
0000
0001
0000
,  // measure 51
0200
0302
0013
0000
0100
0000
0010
0000
0200
1300
0010
0000
0100
0000
0001
0000
,  // measure 52
2000
3001
0010
0000
0100
0000
0010
0000
2001
0000
3010
0000
1002
0000
0103
0000
,  // measure 53
0020
0000
1030
0001
0200
0000
0301
0010
0200
0000
0310
0100
0010
0001
0100
0010
,  // measure 54
2000
0000
3001
0010
0200
0000
0310
0001
0200
0000
0310
1000
0001
0010
0100
0010
,  // measure 55
0002
0000
1003
0010
0200
0000
0310
1000
0200
0000
0310
0100
0010
0001
1000
0010
,  // measure 56
2000
0000
3001
0010
0200
0000
0310
0001
0200
0320
2030
3200
2000
0000
0300
0000
,  // measure 57
3020
0000
0130
0001
2000
0000
3001
0010
0200
0000
0310
0001
0100
0001
0010
0100
,  // measure 58
0020
0000
0130
1000
0002
0000
0103
0010
2000
0000
3001
0010
0100
0010
0001
1000
,  // measure 59
0020
0000
0130
0001
2000
0000
3001
0010
0200
0000
0310
0001
0100
0010
1000
0100
,  // measure 60
0020
0000
0130
1000
0002
0000
0103
0010
2000
0000
3002
0000
0023
0000
0230
0000
,  // measure 61
0320
0000
0000
0000
,  // measure 62
0000
0000
0000
0000
,  // measure 63
0030
0000
0000
0000
;
