#VERSION:0.83;
#TITLE:Disconnected;
#SUBTITLE:-STOP SPECIAL-;
#ARTIST:Inspector K;
#TITLETRANSLIT:;
#SUBTITLETRANSLIT:;
#ARTISTTRANSLIT:;
#GENRE:;
#ORIGIN:;
#CREDIT:;
#BANNER:Disconnected.png;
#BACKGROUND:Disconnected-bg.png;
#PREVIEWVID:;
#JACKET:Disconnected-jacket.png;
#CDIMAGE:;
#DISCIMAGE:;
#LYRICSPATH:;
#CDTITLE:cdtitle.png;
#MUSIC:Disconnected.mp3;
#OFFSET:-0.204000;
#SAMPLESTART:67.404007;
#SAMPLELENGTH:18.299995;
#SELECTABLE:YES;
#BPMS:0.000=200.000;
#STOPS:34.000=0.300,
37.000=0.300,
40.000=0.300,
43.000=0.300,
62.000=0.300,
65.000=0.300,
68.000=0.300,
71.000=0.300,
91.000=1.200,
95.000=1.200,
99.000=1.200,
103.000=1.200,
134.000=0.300,
165.000=0.300,
170.000=0.150,
170.500=0.150,
171.000=0.300,
176.000=0.150,
176.500=0.150,
177.000=0.300,
182.000=0.150,
182.500=0.150,
183.000=0.300,
188.000=0.150,
188.500=0.150,
189.000=0.300,
196.000=0.150,
196.500=0.150,
203.000=0.150,
203.500=0.150,
210.000=0.150,
210.500=0.150,
217.000=0.150,
217.500=0.150,
224.000=0.150,
224.500=0.150,
231.000=0.150,
231.500=0.150,
238.000=0.150,
238.500=0.150,
245.000=0.150,
245.500=2.550,
260.000=0.300,
275.000=0.300,
290.000=0.300,
303.000=0.150,
303.500=0.150,
304.000=0.300,
305.000=0.600,
306.000=0.600,
307.000=0.150,
307.500=0.150,
308.000=0.150,
309.000=0.150,
310.000=0.900,
311.000=0.150,
311.500=0.150,
312.500=0.300,
313.000=0.900,
313.500=0.300,
314.000=0.300,
314.500=0.300,
314.833=1.515;
#DELAYS:;
#WARPS:;
#TIMESIGNATURES:0.000=4=4;
#TICKCOUNTS:0.000=4;
#COMBOS:0.000=1;
#SPEEDS:0.000=1.000=0.000=0;
#SCROLLS:0.000=1.000;
#FAKES:;
#LABELS:0.000=Song Start;
#BGCHANGES:;
#KEYSOUNDS:;
#ATTACKS:
;

//---------------dance-single - ----------------
#NOTEDATA:;
#CHARTNAME:;
#STEPSTYPE:dance-single;
#DESCRIPTION:;
#CHARTSTYLE:;
#DIFFICULTY:Challenge;
#METER:14;
#RADARVALUES:0.563546,0.767183,0.379155,0.145208,0.080671,489.000000,442.000000,47.000000,18.000000,0.000000,0.000000,0.000000,0.000000,0.000000,0.563546,0.767183,0.379155,0.145208,0.080671,489.000000,442.000000,47.000000,18.000000,0.000000,0.000000,0.000000,0.000000,0.000000;
#CREDIT:;
#NOTES:
// measure 0
0000
0000
0000
0000
,  // measure 1
0000
0000
0000
0000
,  // measure 2
0000
0000
0000
0000
,  // measure 3
0000
0000
0000
0000
,  // measure 4
0000
0000
0000
0000
,  // measure 5
0000
0000
0000
0000
,  // measure 6
0000
0000
0000
0000
,  // measure 7
0000
0000
0000
0000
,  // measure 8
1000
0100
0001
0100
1100
0000
0010
0001
,  // measure 9
0100
0010
1001
0000
0001
0010
1000
0010
,  // measure 10
0011
0000
0010
0001
0100
0001
1000
1000
,  // measure 11
0001
0000
0010
0001
0000
0001
0000
0000
,  // measure 12
1000
1000
0000
0001
0100
0100
0010
0000
,  // measure 13
0100
0000
0001
0000
0010
0010
0000
0100
,  // measure 14
1000
1000
0001
0000
0000
0000
0000
0000
,  // measure 15
1000
0010
0001
0010
1010
0000
1000
0100
,  // measure 16
0001
0100
0010
0000
0100
0010
0001
1000
,  // measure 17
1001
0000
0001
0100
0010
1000
0100
0100
,  // measure 18
1000
0000
0100
0010
0000
0010
0000
0000
,  // measure 19
1000
1000
0000
1000
0001
0001
0010
0000
,  // measure 20
0100
0000
0100
0000
0010
0010
0000
0001
,  // measure 21
0000
1000
0001
0000
0000
0000
0000
0000
,  // measure 22
1010
0000
0000
1100
0000
0000
1001
0000
,  // measure 23
0011
0000
0000
0101
0000
0000
1001
0000
,  // measure 24
0110
0000
0000
0101
0000
0000
1100
0000
,  // measure 25
0110
0000
0000
1010
0000
0000
0011
0000
,  // measure 26
1000
0001
0100
0001
0010
0100
1000
0000
,  // measure 27
0001
1000
0010
1000
0100
1000
0001
1000
,  // measure 28
0001
1000
0100
1000
0001
0010
0100
0000
,  // measure 29
1000
0100
1000
0010
1000
0001
0010
0100
,  // measure 30
1000
0001
0100
0001
1000
0100
0010
0000
,  // measure 31
0100
1000
0010
0100
0001
0010
0100
0010
,  // measure 32
0001
0000
1000
0010
0000
0010
0000
0000
,  // measure 33
0100
0001
0100
0001
0100
0001
0100
0001
0100
0000
0000
0000
0010
0000
0010
0000
,  // measure 34
0100
0001
1000
1000
0100
0000
0010
0010
,  // measure 35
0100
1000
0001
0001
1000
0001
1000
1000
,  // measure 36
0001
0010
0100
0100
0010
0000
0100
1000
,  // measure 37
0001
0010
0001
0001
1000
1000
0010
0010
,  // measure 38
0100
0001
1000
1000
0100
0000
0010
0010
,  // measure 39
0100
0010
0001
1000
0010
0100
0001
0000
,  // measure 40
1000
0010
0000
0010
0000
0000
1000
0000
,  // measure 41
0001
1000
0000
0000
0001
0000
0000
0000
1000
0000
0100
0000
0001
0000
0100
0000
,  // measure 42
0010
0000
0000
0000
0200
2300
3020
0130
,  // measure 43
0010
0000
0000
1000
0000
0000
0001
0000
1000
0000
0100
0000
0000
0000
0000
0000
,  // measure 44
0020
0032
2003
3000
0001
0010
0001
0100
,  // measure 45
0010
0000
0100
0001
2000
3002
0023
0130
,  // measure 46
0010
0000
0000
0001
0000
0000
0001
0000
0010
0000
0001
0000
0100
0000
0100
0000
,  // measure 47
0020
2030
0002
3003
1001
0000
0001
0000
,  // measure 48
0100
0000
0010
1000
0100
0000
0010
0000
,  // measure 49
0011
1100
0100
0000
1000
0000
0010
0000
,  // measure 50
0100
0010
1000
0000
0001
0000
1001
1010
,  // measure 51
0001
0000
1000
0000
0100
0000
0010
0100
,  // measure 52
1000
0000
0010
0000
1010
0101
0001
0000
,  // measure 53
0010
0000
0100
0000
0010
0001
0200
0000
,  // measure 54
0301
0000
0101
1010
0001
0000
1000
0000
,  // measure 55
0100
0000
0010
0100
1000
0000
0010
0000
,  // measure 56
0101
0011
0001
0000
0010
0000
0100
0000
,  // measure 57
0010
0001
0100
0000
0010
0000
0110
1010
,  // measure 58
1000
0000
0100
0000
0010
0000
0100
1000
,  // measure 59
0010
0000
0100
0000
0101
1010
0001
0000
,  // measure 60
0000
1000
0000
1000
0000
0000
1002
0000
,  // measure 61
0103
0000
0000
0000
0110
0000
0220
0330
0100
0000
0010
0000
1000
0000
0001
0000
,  // measure 62
0010
0100
1000
0000
0100
1000
0010
0100
,  // measure 63
0001
0010
0100
0010
0001
1000
0001
0010
,  // measure 64
0000
0000
0100
0000
0000
0000
0000
0000
1000
0001
1000
0001
1000
0001
1000
0001
,  // measure 65
1000
0000
0001
0100
0001
0010
0100
0010
,  // measure 66
0001
0000
1000
0001
0010
0100
0010
0001
,  // measure 67
1000
0010
0100
0001
0010
0100
0000
1000
,  // measure 68
0000
0000
0000
0000
0001
0010
0001
0010
0001
0010
0001
0010
0001
0000
0000
0000
,  // measure 69
1000
0100
0001
0100
0010
0001
0100
0010
,  // measure 70
1000
0010
0001
0010
0100
0010
0001
0100
,  // measure 71
0010
1000
0010
0001
0010
0100
0001
1000
,  // measure 72
0100
0010
0100
0010
0100
0010
0100
0010
0100
0000
0000
0000
0010
0000
0001
0000
,  // measure 73
0100
1000
0100
0010
1000
0001
0010
1000
,  // measure 74
0010
0001
0010
0100
1000
0100
0001
0100
,  // measure 75
0010
0001
1000
0010
0100
0001
1000
1000
,  // measure 76
1000
0000
0101
0000
1010
0000
0001
1000
,  // measure 77
0110
0000
0110
0000
0110
0000
0010
1010
,  // measure 78
0000
0000
0000
0000
0000
0000
0001
0000
0000
0000
0000
0000
1001
0000
0000
0000
0000
0000
1001
0000
0000
0000
0000
0000
0101
0000
0000
0000
0000
0000
1010
0101
0000
0000
0000
0000
2002
0000
0000
0000
0000
0000
0000
0000
0000
0000
0000
0000
,  // measure 79
0000
3003
0000
0000
;
