#VERSION:0.83;
#TITLE:DOMINION (Alternative);
#SUBTITLE:;
#ARTIST:L.E.D.-G;
#TITLETRANSLIT:;
#SUBTITLETRANSLIT:;
#ARTISTTRANSLIT:;
#GENRE:;
#ORIGIN:;
#CREDIT:;
#BANNER:DOMINION.png;
#BACKGROUND:DOMINION-bg.png;
#PREVIEWVID:;
#JACKET:;
#CDIMAGE:;
#DISCIMAGE:;
#LYRICSPATH:;
#CDTITLE:;
#MUSIC:DOMINION.mp3;
#OFFSET:-0.550000;
#SAMPLESTART:29.889000;
#SAMPLELENGTH:12.000000;
#SELECTABLE:YES;
#BPMS:0.000=196.000,
64.000=98.000,
72.000=196.000;
#STOPS:84.000=0.918,
309.000=1.837;
#DELAYS:;
#WARPS:;
#TIMESIGNATURES:0.000=4=4;
#TICKCOUNTS:0.000=4;
#COMBOS:0.000=1;
#SPEEDS:0.000=1.000=0.000=0;
#SCROLLS:0.000=1.000;
#FAKES:;
#LABELS:0.000=Song Start;
#BGCHANGES:;
#KEYSOUNDS:;
#ATTACKS:
;

//---------------dance-single - ----------------
#NOTEDATA:;
#CHARTNAME:;
#STEPSTYPE:dance-single;
#DESCRIPTION:;
#CHARTSTYLE:;
#DIFFICULTY:Challenge;
#METER:17;
#RADARVALUES:0.879224,1.254367,0.307324,0.129400,0.347761,761.000000,723.000000,38.000000,16.000000,22.000000,0.000000,0.000000,0.000000,0.000000,0.879224,1.254367,0.307324,0.129400,0.347761,761.000000,723.000000,38.000000,16.000000,22.000000,0.000000,0.000000,0.000000,0.000000;
#CREDIT:Pandemonium X;
#NOTES:
// measure 0
0000
0000
0000
0000
,  // measure 1
0000
0000
0000
0000
,  // measure 2
0000
0000
0000
0000
,  // measure 3
0000
0000
0000
0000
,  // measure 4
M000
00M0
0000
0000
,  // measure 5
0000
0000
0000
0M00
0000
000M
0000
00M0
,  // measure 6
0000
0000
0000
0000
,  // measure 7
0000
0M00
00M0
000M
,  // measure 8
1010
0010
0000
0100
0001
0010
0000
1100
,  // measure 9
0000
0101
0000
1001
0000
0010
1001
0000
,  // measure 10
1000
0001
0010
0000
0100
1100
0000
0101
,  // measure 11
0000
0011
0000
0101
0000
1001
0000
0010
,  // measure 12
0101
0001
0010
0110
0100
1000
1100
0100
,  // measure 13
0110
0010
0011
0001
1000
1100
1100
0000
,  // measure 14
1000
0010
0001
0010
1000
0100
0001
0100
,  // measure 15
1000
0010
0100
0001
0010
0100
0010
0001
0100
0010
1000
0001
0010
0100
1000
0001
,  // measure 16
1000
0001
0100
0100
0001
0010
0001
0001
1000
0100
1000
0010
1000
0001
0010
0100
,  // measure 17
1000
1000
0100
1000
0010
0100
0010
1000
1000
0100
0010
0001
0100
0001
0010
0001
,  // measure 18
0100
0000
0000
0000
0010
0000
1000
0000
0000
0000
0100
0000
0010
0001
0100
0000
,  // measure 19
0010
0000
0000
0000
0100
0000
0001
0000
0000
0000
1000
0000
0001
1000
0010
0000
,  // measure 20
0100
0010
1000
0001
0010
1000
0010
0001
,  // measure 21
1000
0000
1001
1000
0001
0010
0100
0010
,  // measure 22
0001
1000
0010
0001
0010
1000
0010
0001
,  // measure 23
0010
1000
0100
0010
0100
1000
0010
0100
,  // measure 24
0001
1000
0010
0001
0010
1000
0010
0001
,  // measure 25
0010
0100
0001
0010
0010
1000
0010
0100
,  // measure 26
0010
0001
0100
0100
0001
0001
1000
0001
,  // measure 27
0010
0001
1000
0010
0010
0100
0001
0001
,  // measure 28
0010
0010
0110
0100
1100
1001
0000
0110
,  // measure 29
1001
1001
0101
0100
0010
1000
0001
0010
,  // measure 30
0100
0010
0001
0100
1000
0100
0001
0100
,  // measure 31
1000
0100
0001
0010
0100
0010
0001
1000
,  // measure 32
0010
1000
0001
0010
1000
0010
0001
0010
,  // measure 33
0100
0010
0001
1000
1000
0010
0100
0001
,  // measure 34
0010
0100
1000
0100
0001
0100
0010
0001
,  // measure 35
0100
1000
0100
0010
1000
1000
0020
0000
,  // measure 36
1030
0001
1000
0001
1000
0000
0100
0000
1000
0000
0100
0000
0001
0000
0100
0000
,  // measure 37
0001
0100
1000
0100
0001
0100
0010
0001
,  // measure 38
0010
1000
0010
0001
0010
0100
0010
0001
,  // measure 39
0100
0000
0010
1000
0010
0001
0010
1000
,  // measure 40
0010
0100
0010
1000
0010
0001
0010
1000
,  // measure 41
0001
1000
0001
0010
1000
0010
0001
0010
,  // measure 42
0100
0010
0001
0010
1000
0010
0100
0010
,  // measure 43
0001
1000
0010
0001
0010
0100
0001
0100
,  // measure 44
0010
1000
0001
0001
0001
0001
0000
1000
,  // measure 45
1000
1000
0001
0100
0010
100M
0100
0010
,  // measure 46
0100
100M
0010
0100
0001
M010
0100
0010
,  // measure 47
0001
M100
0010
1000
0001
M010
0100
0010
,  // measure 48
0001
10M0
0100
0010
0100
100M
0010
1000
,  // measure 49
0001
M010
0100
0010
0001
10M0
0100
1000
,  // measure 50
0010
M100
0001
0010
0100
001M
0001
1000
,  // measure 51
0010
M100
0001
0001
1000
1M00
0010
0010
,  // measure 52
0100
0000
M100
0000
0001
1000
0001
1000
0100
0010
0100
0010
1000
0001
1000
0001
,  // measure 53
0100
0010
0100
0010
0100
0001
0010
0000
0100
1000
0010
0000
0100
0001
0010
0000
,  // measure 54
0100
1000
0010
0000
0100
0001
0010
0000
0100
1000
0010
0000
0100
0001
0010
0000
,  // measure 55
0100
1000
0010
0000
0100
0000
0001
0000
0010
0000
0210
0000
0000
0000
0320
0000
,  // measure 56
0000
0032
0000
0203
0000
2300
0000
3100
,  // measure 57
0010
0000
1000
0000
0001
1000
0010
0000
0100
0010
1000
0000
0001
1000
0010
0000
,  // measure 58
0100
0010
1000
0000
0001
1000
0010
0000
0100
0010
1000
0000
0001
1000
0010
0000
,  // measure 59
0100
0010
1000
0000
0001
0010
0100
0000
0100
0010
0001
0000
0001
0010
0100
0000
,  // measure 60
0100
0010
0001
0000
0010
0100
1000
0000
1000
0100
0010
0000
0010
0100
1000
0000
,  // measure 61
1000
0100
0010
0000
0001
0000
0100
0000
0010
0000
1000
0000
0001
0000
0010
0000
,  // measure 62
0100
1000
0100
0001
0100
1000
0010
0001
,  // measure 63
0010
1000
0001
0010
0001
1000
0010
1000
,  // measure 64
0001
1000
0100
0001
0100
1000
0010
0001
,  // measure 65
0010
0100
0010
1000
0010
0100
0001
0010
,  // measure 66
0100
0010
0001
0010
1000
0010
0100
1000
,  // measure 67
0100
0001
0100
0010
0001
1000
0100
0010
,  // measure 68
0001
0000
1000
0000
0010
0100
0010
0100
0001
1000
0001
1000
0010
0100
0010
0100
,  // measure 69
0001
1000
0001
1000
0020
0000
0000
0000
0000
0000
0000
0000
0000
0000
0000
0000
,  // measure 70
0000
0000
0000
0000
,  // measure 71
0000
0000
0130
0000
0000
0100
0000
0100
,  // measure 72
0000
0100
0020
2030
3200
0302
0203
0320
,  // measure 73
0032
1003
1010
1000
0001
0011
0010
0100
,  // measure 74
1100
0100
0110
0010
0011
0001
0100
1010
,  // measure 75
0101
0000
0001
0010
1000
0010
0001
0100
,  // measure 76
1000
0000
0100
0000
0010
1000
0100
0010
0001
1000
0010
0100
0001
0010
0100
0010
,  // measure 77
0001
1000
0010
0100
0001
0000
0000
0000
0010
0000
0010
0000
1001
0000
1000
0000
,  // measure 78
0100
1000
0010
0100
0001
0010
1000
0010
,  // measure 79
0001
0010
1000
0010
0001
1000
0010
0010
,  // measure 80
0100
0001
1000
1000
0001
0010
0100
1000
,  // measure 81
0100
0001
0100
1000
0100
0010
0001
0010
,  // measure 82
0010
0001
0100
0100
0010
1000
0001
0010
,  // measure 83
1000
0010
0001
0010
0100
1000
0001
0100
,  // measure 84
0100
0010
1000
1000
0100
0010
0011
0010
,  // measure 85
0110
0100
0000
1100
0100
0110
0001
0100
,  // measure 86
0010
1000
0001
0001
0010
0100
1000
1000
,  // measure 87
0001
0001
0100
0100
0010
0010
1000
0010
,  // measure 88
0100
0001
0010
0100
0010
0001
1000
1000
,  // measure 89
0100
0100
0001
0001
0100
0100
0010
0001
,  // measure 90
0001
0100
0010
0010
0100
0001
1000
0100
,  // measure 91
0001
0100
1000
0100
0001
0100
0010
0001
,  // measure 92
0001
0000
0100
0000
0020
0000
0000
0000
1030
0001
1000
0001
1000
0100
1000
0010
,  // measure 93
0100
0001
0010
0100
0010
0001
0100
0010
1000
0001
0010
0100
2000
0000
0000
0000
,  // measure 94
3000
0000
0000
0000
;
