#VERSION:0.83;
#TITLE:Crank It;
#SUBTITLE:-FREEZE SPECIAL-;
#ARTIST:Crayvxn;
#TITLETRANSLIT:;
#SUBTITLETRANSLIT:;
#ARTISTTRANSLIT:;
#GENRE:;
#ORIGIN:;
#CREDIT:;
#BANNER:Crank It-banner.png;
#BACKGROUND:Crank It-background.png;
#PREVIEWVID:;
#JACKET:jacket.png;
#CDIMAGE:;
#DISCIMAGE:;
#LYRICSPATH:;
#CDTITLE:cdtitle.png;
#MUSIC:Crank It.ogg;
#OFFSET:-1.000000;
#SAMPLESTART:79.000000;
#SAMPLELENGTH:12.000000;
#SELECTABLE:YES;
#BPMS:0.000=160.000;
#STOPS:;
#DELAYS:;
#WARPS:;
#TIMESIGNATURES:0.000=4=4;
#TICKCOUNTS:0.000=4;
#COMBOS:0.000=1;
#SPEEDS:0.000=1.000=0.000=0;
#SCROLLS:0.000=1.000;
#FAKES:;
#LABELS:0.000=Song Start;
#BGCHANGES:;
#KEYSOUNDS:;
#ATTACKS:
;

//---------------dance-single - ----------------
#NOTEDATA:;
#CHARTNAME:;
#STEPSTYPE:dance-single;
#DESCRIPTION:;
#CHARTSTYLE:;
#DIFFICULTY:Challenge;
#METER:11;
#RADARVALUES:0.411227,0.540572,0.133888,1.405823,0.000000,344.000000,328.000000,16.000000,168.000000,0.000000,0.000000,0.000000,0.000000,0.000000,0.411227,0.540572,0.133888,1.405823,0.000000,344.000000,328.000000,16.000000,168.000000,0.000000,0.000000,0.000000,0.000000,0.000000;
#CREDIT:;
#NOTES:
0000
0000
0000
0000
,
0000
0000
0000
0000
,
0000
0000
0000
0000
,
0000
0000
0000
0000
,
1000
0010
0100
0010
2000
0000
3001
0010
,
1000
0010
0001
0100
0002
0000
0003
0000
,
1000
0001
0010
0001
0200
0000
0310
1000
,
0010
0001
0010
0100
0001
0010
0100
0010
,
0001
1000
0001
0010
0200
0000
0310
0001
,
1000
0100
0001
0100
0020
0000
0030
0000
,
0100
0010
0001
0100
0010
0000
0100
0010
,
2002
0000
0000
3003
,
1001
0000
0001
0200
0000
0300
1000
0200
,
0000
0300
0001
0020
0000
0030
1000
0010
,
0011
0000
0001
0200
0000
0300
1000
0200
,
0000
0300
0001
0010
0110
0000
1100
0000
,
0001
0100
0020
0000
0130
0010
2000
0000
,
3001
0010
0200
0000
0310
0001
0200
0000
,
0310
0100
0001
1000
0010
0100
0001
1000
,
0002
0003
0002
0000
2000
3000
2000
3003
0002
0000
2000
0000
0000
0000
3003
0000
,
0002
0203
0320
0230
,
0302
0000
2003
0000
3200
0000
0310
0100
,
2000
3200
2300
3020
,
0230
0000
0302
0000
0203
0000
0301
0010
,
0200
0320
0032
0023
,
0230
0000
2300
0000
3200
0000
1300
0010
,
0200
0000
0302
0000
2003
0000
3020
0030
,
2002
0000
0000
3003
,
0002
0000
0203
0000
0302
0000
0103
0001
,
0020
0230
0320
0230
,
2300
0000
3200
0000
2300
0000
3100
1000
,
0020
0230
0320
0230
,
0320
0000
2030
0000
3020
0000
1030
0010
,
0100
0002
0203
0302
,
0203
0000
0320
0000
2030
0000
3001
0010
,
0200
0000
2300
0000
0002
0000
0000
3003
,
1002
1000
0000
1000
,
0000
1000
0000
1000
,
0000
1000
0000
1000
,
0000
1000
0000
1003
,
2001
0001
0000
0001
,
0000
0001
0000
0001
,
0000
0001
0000
0001
,
0000
0001
0000
0001
,
3001
1000
0200
0000
0310
0001
2000
0000
,
3001
0100
0002
0000
0013
0100
2000
0000
,
3100
1000
0020
0000
0130
0010
2000
0000
,
3001
0010
0200
0300
0110
0000
0011
0000
,
0001
1000
0020
0000
1030
0001
0010
0100
,
0010
0001
2000
0000
3100
1000
0010
0100
,
0001
1000
0001
1000
0001
1000
0001
1000
,
0002
0003
0002
0000
0200
0300
0203
0000
0320
0000
2000
0000
3030
0000
0000
0000
,
0002
2003
3200
2300
,
3020
0000
0230
0000
0302
0000
0013
0100
,
2000
3200
2300
3020
,
0230
0000
0302
0000
0203
0000
0301
0010
,
0200
0320
0032
0023
,
0230
0000
2300
0000
3200
0000
1300
0010
,
0100
0000
0002
0000
0023
0000
0230
0300
,
2002
0000
0000
3003
,
0002
0000
0203
0000
2300
0000
3100
0010
,
2000
0000
3002
0000
0023
0000
0130
0010
,
0002
0000
0023
0000
0130
1000
0010
0100
,
0002
2003
0020
3030
,
0002
0000
2003
0000
3200
0000
1300
0010
,
0200
0000
0302
0000
2003
0000
3001
0010
,
0200
0000
0320
0000
0031
0010
0100
1000
,
0002
0000
2000
3003
0220
0000
0330
0000
,
0002
0000
2000
0003
0002
3000
0020
0003
,
0200
0030
0020
0300
0002
0030
1003
0100
,
0020
0000
0200
0030
2000
0300
0020
3000
,
0200
0030
0002
0300
2000
0003
3001
0010
,
0200
0000
0020
0300
0002
0030
0200
0003
,
0020
0300
2000
0030
0002
3000
0103
0010
,
2002
3003
0220
0330
,
2002
3003
0000
0000
,
0110
0000
0000
0000
;
