#VERSION:0.83;
#TITLE:Coalesce;
#SUBTITLE:-BPM SPECIAL-;
#ARTIST:onSlot;
#TITLETRANSLIT:;
#SUBTITLETRANSLIT:;
#ARTISTTRANSLIT:;
#GENRE:;
#ORIGIN:;
#CREDIT:;
#BANNER:Coalesce.png;
#BACKGROUND:Coalesce-bg.png;
#PREVIEWVID:;
#JACKET:;
#CDIMAGE:;
#DISCIMAGE:;
#LYRICSPATH:;
#CDTITLE:cdtitle.png;
#MUSIC:Coalesce.mp3;
#OFFSET:0.020000;
#SAMPLESTART:70.919998;
#SAMPLELENGTH:12.000000;
#SELECTABLE:YES;
#BPMS:0.000=137.000,
9.000=68.500,
9.500=137.000,
16.500=68.500,
17.000=137.000,
24.000=68.500,
24.500=137.000,
31.500=68.500,
32.000=137.000,
56.000=274.000,
64.000=137.020,
68.000=34.250,
76.000=68.525,
106.000=137.000,
109.000=274.000,
111.000=137.000,
114.000=274.000,
116.000=137.000,
119.000=274.000,
121.000=137.000,
124.000=274.000,
126.000=137.000,
129.000=274.000,
131.000=137.000,
134.000=274.000,
136.000=137.000,
139.000=274.000,
141.000=137.000,
144.000=68.500,
145.000=137.000,
147.000=274.000,
149.000=137.000,
152.000=274.000,
154.000=137.000,
157.000=274.000,
159.000=137.000,
162.000=274.000,
164.000=137.000,
167.000=274.000,
169.000=137.000,
172.000=274.000,
174.000=137.000,
177.000=274.000,
179.000=137.000,
183.000=274.000,
185.000=68.500;
#STOPS:106.000=1.314;
#DELAYS:;
#WARPS:;
#TIMESIGNATURES:0.000=4=4;
#TICKCOUNTS:0.000=4;
#COMBOS:0.000=1;
#SPEEDS:0.000=1.000=0.000=0;
#SCROLLS:0.000=1.000;
#FAKES:;
#LABELS:0.000=Song Start;
#BGCHANGES:;
#KEYSOUNDS:;
#ATTACKS:
;

//---------------dance-single - ----------------
#NOTEDATA:;
#CHARTNAME:;
#STEPSTYPE:dance-single;
#DESCRIPTION:;
#CHARTSTYLE:;
#DIFFICULTY:Challenge;
#METER:14;
#RADARVALUES:0.566799,0.941198,0.137491,0.176774,0.633440,404.000000,390.000000,14.000000,18.000000,0.000000,0.000000,0.000000,0.000000,0.000000,0.566799,0.941198,0.137491,0.176774,0.633440,404.000000,390.000000,14.000000,18.000000,0.000000,0.000000,0.000000,0.000000,0.000000;
#CREDIT:;
#NOTES:
// measure 0
0000
0000
0000
0000
,  // measure 1
0000
0000
0000
0000
,  // measure 2
0000
0000
0000
0000
,  // measure 3
0000
0000
0000
0000
,  // measure 4
0000
0000
0000
0000
1000
0000
0010
0000
0000
0000
0100
0001
0010
0000
0100
0000
,  // measure 5
0000
0000
0010
0001
1000
0000
0001
0000
0000
0000
0100
0010
1000
0000
0100
0000
,  // measure 6
0001
0100
1000
0000
0100
0000
0000
0000
0010
0001
1000
0000
0001
0000
0000
0000
,  // measure 7
0100
0000
0000
0010
0000
0000
1000
0000
0000
0000
0000
0000
0010
0000
0000
0000
0000
0000
0000
0000
0000
0000
0000
0000
0100
0000
0000
0001
0000
0000
0010
0000
0000
0000
0000
0000
0100
0000
1000
0000
0100
0000
1000
0000
0000
0000
0000
0000
,  // measure 8
0000
0000
1000
0010
1000
0100
0010
0001
0000
0000
0011
0000
0000
0000
1100
0000
,  // measure 9
0000
0000
1000
0100
1000
0001
0100
0010
0000
0000
0110
0000
0000
0000
1010
0000
,  // measure 10
0000
0000
1000
0001
0010
0001
0100
0010
0000
0000
0110
0000
0000
0000
1010
0000
,  // measure 11
0000
0000
1000
0001
0010
0001
1000
0100
0000
0000
0100
0000
1001
0000
0000
0000
,  // measure 12
0010
1000
0010
0001
0010
0100
0001
0010
,  // measure 13
1000
0010
0001
0010
0100
0010
0001
1000
,  // measure 14
0001
0100
0001
0100
0010
1000
0010
1000
,  // measure 15
0001
0000
0000
0010
0000
0000
0100
0000
0000
0010
0000
0000
0001
0000
0000
1000
0001
0000
1000
0000
0000
0001
0000
0000
,  // measure 16
1000
0000
0000
0000
0000
0000
1000
0010
,  // measure 17
0101
0000
0000
0001
0000
0000
0010
0000
0100
0000
0000
0010
0001
0010
0100
1000
0100
0000
0000
0100
1000
0100
0010
0001
0010
0000
0000
0000
0000
0000
0100
1000
,  // measure 18
0020
0000
0000
0230
0000
0000
0302
0000
2003
0000
0000
3001
0010
1000
0010
0100
1000
0000
0000
1000
0100
0001
0100
0010
0001
0000
0000
0001
0010
0100
0010
0001
,  // measure 19
1000
0000
0001
0000
0101
0000
0000
0001
0100
1000
0000
1000
0100
0010
1000
0001
,  // measure 20
0020
0000
0000
0130
0010
0001
0010
0100
0020
0000
0000
0000
0000
0000
0130
1000
,  // measure 21
0010
0000
0000
1000
0000
0000
0001
0000
2000
0000
0000
3100
1000
0010
0001
0010
,  // measure 22
0100
0000
0000
1000
0100
0001
0010
0100
0010
0000
0000
0100
0010
0001
0010
0100
,  // measure 23
1000
0000
0001
0010
0110
0000
0000
0010
1000
0100
0000
0010
0001
0100
1000
0100
,  // measure 24
0010
0000
1000
0001
0101
0000
0000
0000
0001
0010
0000
0010
0001
0000
1000
0001
,  // measure 25
0200
0000
0000
0000
0001
0000
0000
0000
0310
1000
0100
0010
1001
0000
0000
0000
,  // measure 26
1000
0000
0001
0010
0100
0000
0000
0100
1000
0000
0000
0000
0000
0000
0001
0100
,  // measure 27
0000
0100
0000
0010
1000
0000
0001
0000
1000
0000
0001
0000
0200
0000
0000
0000
,  // measure 28
0300
0000
0100
0001
0000
0010
0000
0001
1000
0000
0100
0000
1000
0000
0100
0000
,  // measure 29
0020
0000
0000
0000
0030
0000
0010
0001
0000
0100
0000
0010
1000
0000
0100
0000
,  // measure 30
1000
0000
0100
0000
0020
0000
0000
0000
0030
0000
0010
0001
0000
0100
0000
0001
,  // measure 31
0010
0000
0100
0000
0010
0000
0100
0000
2000
0000
0000
0000
3000
0000
1000
0001
,  // measure 32
0000
0010
0000
0001
0100
0000
0010
0000
0100
0000
0010
0000
0200
0000
0000
0000
,  // measure 33
0300
0000
0100
0010
0000
1000
0000
0100
0010
0000
0001
0000
0010
0000
0001
0000
,  // measure 34
0020
0000
0000
0000
0030
0000
0010
0001
0000
1000
0000
0010
0100
0000
0001
0000
,  // measure 35
0100
0000
0001
0000
0200
0000
0000
0000
0300
0000
0100
0000
0000
0010
0000
0000
,  // measure 36
1001
0000
0000
0000
0001
0010
0001
0010
0001
0000
0000
0000
1000
0000
0001
0000
0100
0000
0000
0000
0010
0000
1000
0000
0100
0000
0000
0000
0010
0000
0000
0000
,  // measure 37
0100
0000
1000
0000
0001
0000
0100
0000
0010
1000
0100
0000
0010
0100
1000
0000
,  // measure 38
0010
0000
0001
0000
0100
0000
0001
0000
1000
0001
1000
0000
0001
0100
0010
0000
,  // measure 39
0100
0001
1000
0000
0001
0000
0010
0000
0001
0000
0010
0000
0001
0010
0100
0000
,  // measure 40
0010
0100
1000
0000
0100
1000
0010
0000
0100
0000
0001
0000
0100
0000
0001
0000
,  // measure 41
0100
0010
1000
0000
0100
0010
0001
0000
0010
0100
1000
0000
0001
0000
1000
0000
,  // measure 42
0001
0000
1000
0000
0100
1000
0010
0000
0100
0001
0010
0000
0100
0010
0001
0000
,  // measure 43
1000
0000
0010
0000
1000
0000
0010
0000
0100
0001
0010
0000
0100
0010
0001
0000
,  // measure 44
0010
0100
0010
0000
0100
0000
1000
0000
0100
0000
1000
0000
0100
1000
0010
0000
,  // measure 45
0100
0010
1000
0000
0001
0010
0100
0000
0010
0000
0000
0000
0001
0000
0010
0000
,  // measure 46
1000
0000
0000
0000
0010
0000
0000
0000
0100
0000
0000
0000
0000
0000
0000
0000
0000
0000
0020
0030
2002
0000
0000
0000
3003
0000
0000
0000
0000
0000
0000
0000
;
