#VERSION:0.83;
#TITLE:シティ・エンジェル;
#SUBTITLE:-CHAOS SPECIAL-;
#ARTIST:PINK PONG;
#TITLETRANSLIT:City angel;
#SUBTITLETRANSLIT:;
#ARTISTTRANSLIT:;
#GENRE:;
#ORIGIN:;
#CREDIT:;
#BANNER:bn.PNG;
#BACKGROUND:bg.PNG;
#PREVIEWVID:;
#JACKET:;
#CDIMAGE:;
#DISCIMAGE:;
#LYRICSPATH:;
#CDTITLE:14 Gold.png;
#MUSIC:City Angel.ogg;
#OFFSET:-0.411000;
#SAMPLESTART:26.913000;
#SAMPLELENGTH:12.000000;
#SELECTABLE:YES;
#BPMS:0.000=145.000,
16.000=72.500,
24.000=145.000,
52.000=72.500,
53.500=145.000,
127.000=72.500,
139.000=145.000;
#STOPS:68.750=0.621,
93.250=0.207,
93.750=0.207,
94.250=0.207,
94.750=1.862,
147.250=0.207,
147.750=0.207,
148.250=0.207,
149.250=1.655;
#DELAYS:;
#WARPS:;
#TIMESIGNATURES:0.000=4=4;
#TICKCOUNTS:0.000=4;
#COMBOS:0.000=1;
#SPEEDS:0.000=1.000=0.000=0;
#SCROLLS:0.000=1.000;
#FAKES:;
#LABELS:0.000=Song Start;
#BGCHANGES:;
#KEYSOUNDS:;
#ATTACKS:
;

//---------------dance-single - ----------------
#NOTEDATA:;
#CHARTNAME:;
#STEPSTYPE:dance-single;
#DESCRIPTION:;
#CHARTSTYLE:;
#DIFFICULTY:Challenge;
#METER:15;
#RADARVALUES:0.695275,0.846092,0.096184,0.028855,1.077265,506.000000,496.000000,10.000000,3.000000,0.000000,0.000000,0.000000,0.000000,0.000000,0.695275,0.846092,0.096184,0.028855,1.077265,506.000000,496.000000,10.000000,3.000000,0.000000,0.000000,0.000000,0.000000,0.000000;
#CREDIT:;
#NOTES:
// measure 0
0000
0000
0000
0000
,  // measure 1
0000
0000
0000
0000
,  // measure 2
0000
0000
0000
0000
,  // measure 3
0000
0000
0000
0000
,  // measure 4
0000
1000
0010
0100
0010
0000
0000
0110
0000
0100
0001
0010
0100
0000
0000
0110
,  // measure 5
0000
0100
0010
0001
1000
0000
0000
0110
0000
1000
0001
0010
0100
0000
0000
0110
,  // measure 6
0000
1000
0100
0001
0100
0000
0000
0110
,  // measure 7
0000
0100
1000
0001
0100
0000
0000
0110
,  // measure 8
0000
0010
1000
0001
0010
0000
0000
0110
,  // measure 9
0000
0010
0001
1000
0100
0000
0000
0110
,  // measure 10
0000
0100
0010
0001
2000
0000
0000
3010
,  // measure 11
0000
0100
1000
0100
0002
0000
0000
0013
,  // measure 12
0000
0100
0010
0001
2000
0000
0000
3001
,  // measure 13
1000
0001
0100
0000
0000
0010
1000
0001
0010
0100
1000
0000
0000
0000
0000
0000
0000
0000
0000
0000
0001
0000
1000
0000
0001
0000
0000
0000
0000
0000
1000
0000
,  // measure 14
0100
1000
0100
0010
0001
0000
0000
0001
0010
0001
0010
0100
1000
0000
0000
1000
,  // measure 15
0100
1000
0100
0010
0001
0000
0000
0001
0010
0001
0010
0100
1000
0000
0000
1000
,  // measure 16
0100
1000
0100
0010
0001
0000
0000
0001
0010
0001
0010
0100
1000
0000
0000
1000
,  // measure 17
0100
1000
0100
0010
0001
1000
0001
0000
0000
0100
0010
1000
0001
0010
0100
0000
,  // measure 18
0000
0010
0001
1000
0100
0010
0100
0000
0000
0010
0001
0100
0001
1000
0100
0000
,  // measure 19
0000
0010
0100
0010
0001
1000
0001
0000
0000
1000
0010
1000
0001
0010
0100
0000
,  // measure 20
0000
0010
0001
1000
0100
0010
0100
0000
0000
0010
0100
0010
0001
1000
0001
0000
,  // measure 21
0000
1000
0001
0100
0001
0010
0100
0000
0000
0010
0001
0100
0001
1000
0100
0000
,  // measure 22
0000
0010
0100
0010
0001
1000
0001
0000
0000
1000
0001
0100
0001
0010
0100
0000
,  // measure 23
0000
0010
0001
1000
0001
1000
1000
0100
0100
0010
0100
1000
0001
0100
0001
0000
,  // measure 24
0100
0000
0100
0000
0000
0010
0000
0010
0000
0010
0100
0000
0000
0010
0100
0000
,  // measure 25
0010
0000
0010
0000
0000
0000
1000
0000
0000
1000
0001
0000
0000
1000
0001
0000
,  // measure 26
1000
0000
0001
0010
0000
0010
0000
0010
0000
0010
0100
0000
0000
0010
0100
0000
,  // measure 27
1000
0000
1000
0000
0000
0000
0000
0001
0000
1000
0001
0000
0000
0100
0010
0000
,  // measure 28
1000
0000
0100
0000
0000
0010
0000
0010
0000
0001
0100
0000
0000
0010
0100
0000
,  // measure 29
0001
0000
1000
0000
0000
0000
0100
0000
0000
0010
0100
0000
0000
0010
0001
0000
,  // measure 30
1000
0000
0001
0000
0000
0100
0000
0100
0000
0010
1000
0000
0000
0100
0010
0000
,  // measure 31
0100
0000
0000
0000
0100
0000
0000
0000
0000
0000
0000
0000
0010
0000
0000
0000
0000
0000
0001
0000
1000
0000
0000
0000
0000
0001
0100
0000
0010
0000
1000
0000
,  // measure 32
0000
0100
0000
0010
0000
0100
1000
0000
0000
0100
1000
0000
0001
0000
1000
0000
0000
0000
0001
0000
0000
0010
0100
0000
0000
0010
0001
0000
0100
0000
0010
0000
,  // measure 33
0000
0100
0000
0001
0000
1000
0100
0000
0000
0010
0100
0000
1000
0000
0001
0000
0000
0000
1000
0000
0000
0001
0100
0000
0010
0000
0000
1000
0000
0000
0001
0000
,  // measure 34
0000
0010
0000
0000
0100
0000
0000
0010
0000
0000
0001
0000
0000
1000
0000
0000
0010
0000
0000
0100
0000
0000
0010
0000
1000
0000
0001
0000
1000
0000
0001
0000
,  // measure 35
1000
0001
1000
0001
1000
0001
1000
0001
1000
0001
1000
0001
1000
0001
1000
0001
,  // measure 36
1000
0001
1000
0001
1000
0001
1000
0001
1000
0001
1000
0001
1000
0100
0100
0010
,  // measure 37
0010
0001
0010
0001
0100
0010
0000
1000
0001
0000
1000
0000
0001
0010
0000
0100
,  // measure 38
0010
0000
0010
0000
0001
0100
0000
0001
1000
0000
0100
0000
1000
0010
0000
0100
,  // measure 39
0001
0000
0010
0000
0100
0010
0000
0100
1000
0000
0100
0000
1000
0100
0000
0010
,  // measure 40
0100
0000
0100
0000
1000
0100
0000
0010
0100
0000
1000
0000
0010
0100
0000
0010
,  // measure 41
1000
0000
0001
0000
0010
0100
0000
0010
0001
0000
1000
0000
0001
0100
0000
0010
,  // measure 42
0100
0000
0100
0000
0001
0010
0000
0100
0010
0000
0100
0000
1000
0001
0000
0100
,  // measure 43
0010
0000
0010
0000
1000
0001
0000
0010
0100
0000
0010
0000
0100
1000
0000
0010
,  // measure 44
0100
0000
0001
0000
0001
0010
0000
0100
0010
0000
0001
0000
0010
0001
0000
0001
,  // measure 45
1000
0000
0010
0000
0100
0000
0001
0100
1000
0000
0100
0000
0100
0010
0000
1000
,  // measure 46
0010
0000
0100
0000
0001
0010
0100
0010
0001
0000
0010
0000
0100
1000
0000
0100
,  // measure 47
0010
0000
0100
0000
1000
0010
0100
0001
0010
0000
0100
0000
0010
0100
0000
0100
,  // measure 48
0010
0000
0100
0000
1000
0010
0000
0100
0001
0000
1000
0000
0001
0010
0000
0100
,  // measure 49
1000
0000
0001
0000
1000
0000
0001
0010
1000
0000
0010
0000
0100
0010
0000
0001
,  // measure 50
0010
0000
0100
0000
1000
0010
0100
1000
0100
0000
0001
0000
0010
0001
0000
0100
,  // measure 51
0010
0000
1000
0000
0001
1000
0000
0001
0100
0000
0010
0000
0100
0001
0000
0010
,  // measure 52
0100
0000
1000
0000
0100
1000
0000
0001
0100
0000
1100
0000
1000
0100
0000
0001
,  // measure 53
0010
0000
1100
0000
1000
0001
0000
0000
0000
0000
0000
0000
0000
0000
0000
0000
;
