#VERSION:0.83;
#TITLE:Caterpillar (Alternative);
#SUBTITLE:;
#ARTIST:Eagle;
#TITLETRANSLIT:;
#SUBTITLETRANSLIT:;
#ARTISTTRANSLIT:;
#GENRE:;
#ORIGIN:;
#CREDIT:;
#BANNER:Caterpillar.png;
#BACKGROUND:Caterpillar-bg.png;
#PREVIEWVID:;
#JACKET:Caterpillar-jacket.png;
#CDIMAGE:;
#DISCIMAGE:;
#LYRICSPATH:;
#CDTITLE:cdtitle.png;
#MUSIC:Caterpillar.mp3;
#OFFSET:-2.549999;
#SAMPLESTART:46.300705;
#SAMPLELENGTH:11.294121;
#SELECTABLE:YES;
#BPMS:0.000=170.000;
#STOPS:;
#DELAYS:;
#WARPS:;
#TIMESIGNATURES:0.000=4=4;
#TICKCOUNTS:0.000=4;
#COMBOS:0.000=1;
#SPEEDS:0.000=1.000=0.000=0;
#SCROLLS:0.000=1.000;
#FAKES:;
#LABELS:0.000=Song Start;
#BGCHANGES:;
#KEYSOUNDS:;
#ATTACKS:
;

//---------------dance-single - ----------------
#NOTEDATA:;
#CHARTNAME:;
#STEPSTYPE:dance-single;
#DESCRIPTION:;
#CHARTSTYLE:;
#DIFFICULTY:Challenge;
#METER:17;
#RADARVALUES:0.815426,0.895769,0.503645,0.423702,0.851401,714.000000,651.000000,63.000000,53.000000,0.000000,0.000000,10.000000,0.000000,0.000000,0.815426,0.895769,0.503645,0.423702,0.851401,714.000000,651.000000,63.000000,53.000000,0.000000,0.000000,10.000000,0.000000,0.000000;
#CREDIT:;
#NOTES:
// measure 0
0000
0000
0000
0000
,  // measure 1
0000
0000
0000
0000
,  // measure 2
0000
0000
0000
0000
,  // measure 3
1000
0000
0000
0000
0000
0000
1000
0000
0010
0000
0000
0010
0000
0000
0100
0000
,  // measure 4
0000
0000
0001
0000
0000
0010
0000
0000
0001
0000
0000
1000
0000
0000
0001
0000
,  // measure 5
0000
0000
0100
0000
0000
0000
0100
0000
0010
0000
0000
0010
0000
0000
1000
0000
,  // measure 6
0000
0001
0000
0001
0010
0000
0001
0000
,  // measure 7
1100
0000
1000
0100
0001
0100
0010
0000
,  // measure 8
0011
0000
1010
0000
0011
0000
0001
0100
,  // measure 9
0020
1030
0101
0011
,  // measure 10
0010
1001
0000
0100
1001
0000
0000
0000
,  // measure 11
0001
0100
0010
1000
0100
0001
0100
0010
,  // measure 12
0001
1000
0010
1000
0001
0010
0100
1000
,  // measure 13
0001
0100
0001
0100
0001
0100
0001
0100
0001
0100
0001
0100
0001
0100
0001
0100
,  // measure 14
0002
0000
0023
0000
0230
0000
2300
0000
3002
0000
0203
0000
0320
0200
0000
0330
,  // measure 15
1001
0000
0000
0000
0001
0000
0010
0000
1100
0000
1000
0100
0010
0100
1000
0010
,  // measure 16
0100
0001
0010
0100
0010
0001
1000
0010
0200
0000
0302
0000
0023
0000
2030
0000
,  // measure 17
3010
0000
0000
0000
0100
0010
0001
0100
0010
0100
0010
1000
0100
0010
0100
0010
,  // measure 18
0001
1000
0010
0100
0001
0010
0100
0010
0002
0000
0203
0000
0320
0000
2030
0000
,  // measure 19
3100
0000
0000
0000
0011
0000
0000
0000
0100
1000
0100
0010
0001
0010
0100
0010
,  // measure 20
0001
1000
0001
0010
0100
1000
0100
0010
0002
0000
0023
0000
0230
0000
0320
0000
,  // measure 21
0031
0000
0000
0000
0010
0001
0100
0010
1000
0001
0010
0100
0010
0001
1000
0010
,  // measure 22
0400
0300
0000
0000
0004
0003
0000
0000
4000
3000
0000
0000
0400
0300
4000
3000
,  // measure 23
0101
0000
0000
0000
0001
0000
0010
0000
0100
0010
0001
1000
0010
0100
0010
1000
,  // measure 24
0001
0010
0001
1000
0100
0010
0100
1000
0002
0000
2003
0000
3020
0000
2030
0000
,  // measure 25
3200
0000
0000
0000
0310
0001
0100
0001
0010
0001
0100
0010
1000
0100
0010
0100
,  // measure 26
1000
0010
0100
0010
1000
0001
0020
0000
0100
0000
0000
0000
0031
0000
0010
0000
,  // measure 27
1100
0000
0000
0000
0101
0000
0000
0000
0100
0010
1000
0001
0010
0001
1000
0010
,  // measure 28
0100
0010
1000
0001
0010
0001
1000
0100
0020
0000
0032
0000
0203
0000
0320
0000
,  // measure 29
1030
0000
0100
0001
0100
0010
0001
0000
,  // measure 30
0011
0000
0000
0000
0000
0000
0000
0000
0000
0000
0000
0000
1010
0000
0000
0000
0000
0000
0000
0000
0000
0000
0000
0000
0020
0000
0000
0030
0000
0000
0200
0000
0300
0000
0000
0000
2002
0000
0000
0000
0000
0000
3003
0000
0000
0000
0000
0000
,  // measure 31
1010
0000
0000
0000
0011
0000
0010
0100
1000
0100
0000
0100
0000
0010
0001
0000
,  // measure 32
0010
0100
0000
1000
0000
0001
0100
0000
0001
0010
0000
0100
0000
0010
0001
0000
,  // measure 33
1001
0000
0000
0000
0110
0000
0000
0000
1000
0010
0000
0100
0000
0001
0010
0000
,  // measure 34
0100
0010
0000
0100
0000
1000
0010
0000
0100
0000
0000
0000
0010
0000
1000
0000
,  // measure 35
0001
0010
0001
0010
0100
1000
0100
1000
,  // measure 36
0001
0100
0001
0100
0010
1000
0010
1000
,  // measure 37
0001
1000
0000
0020
0000
1030
0002
0000
0013
0100
0000
0020
0000
0130
2000
0000
,  // measure 38
3001
0100
1000
0100
0010
1000
0001
0010
1000
0010
0100
0010
0001
0000
0000
0000
,  // measure 39
1001
0000
0001
0010
0100
1000
0100
0000
,  // measure 40
1000
0000
0100
0000
1000
0000
1000
0010
,  // measure 41
0100
0000
0010
1000
,  // measure 42
0000
0001
0000
0001
1000
0000
0000
0000
,  // measure 43
0000
0000
0001
0010
0001
1000
0001
0000
,  // measure 44
0100
0000
0001
0000
0010
0000
0100
0010
,  // measure 45
0001
0000
0010
0001
,  // measure 46
0000
0100
0000
0100
0010
0000
1000
0000
,  // measure 47
1001
0000
0000
0000
0000
0000
1010
0000
0110
0000
0000
0110
0000
0000
0110
0000
,  // measure 48
0000
0000
1010
0000
0000
1010
0000
0000
0110
0000
0000
0110
0000
0000
0101
0000
,  // measure 49
0000
0000
1001
0000
0000
0000
0011
0000
0011
0000
0000
1100
0000
0000
0011
0000
,  // measure 50
0000
1001
0000
0110
1010
0000
0110
0000
,  // measure 51
0101
0000
0000
0100
0001
0000
0010
0000
0100
0000
0010
0000
0001
0000
0000
1000
,  // measure 52
0100
0000
0000
0001
0100
0000
0000
1000
0001
0000
0000
0010
0100
0000
1000
0000
,  // measure 53
1010
0000
0000
0000
0110
0000
0000
0100
0001
0000
0000
0010
0100
0000
0000
0000
,  // measure 54
0010
0001
0100
0000
0000
0000
0010
1000
0100
0000
0000
0000
0110
0000
0000
0000
,  // measure 55
1001
0000
0001
0100
1000
0100
0001
0000
,  // measure 56
0000
0000
1000
0010
0001
0010
1000
0000
,  // measure 57
0000
0000
0001
0100
1000
0010
0001
0000
,  // measure 58
2000
0000
3200
0000
0302
0000
0203
0000
0320
0000
0032
0000
0203
0020
0000
0330
,  // measure 59
1001
0000
0000
0000
2000
0000
3020
0000
0130
1000
0000
0100
0000
0001
0010
0000
,  // measure 60
1000
0010
0000
0100
0000
1000
0010
0000
0100
0010
0000
1000
0000
0000
0000
0000
,  // measure 61
0001
0010
0000
1000
0000
0010
0001
0000
0100
1000
0000
0100
0000
0010
1000
0000
,  // measure 62
0001
0010
0000
1000
0000
0010
0100
0000
0010
0000
0100
1000
0010
0000
0100
0000
,  // measure 63
0101
0000
0000
0000
0011
0000
0000
0000
0010
0100
0000
0010
0000
0001
0100
0000
,  // measure 64
1000
0100
0000
0001
0000
0010
0100
0000
0010
0001
0000
0010
0000
0000
0000
0000
,  // measure 65
0100
0010
0000
0001
0000
0100
0010
0000
1000
0001
0000
0010
0000
0001
0100
0000
,  // measure 66
0010
1000
0000
0001
0000
0010
0100
0000
0010
0000
0001
0100
0010
0000
1000
0000
,  // measure 67
1001
0000
0000
0000
0000
0000
0001
0100
0001
0100
0001
0100
0001
0000
0000
0000
0000
0000
1001
0000
0000
0000
0000
0000
,  // measure 68
1000
0000
0000
0000
0000
0000
0100
0010
0100
0010
0100
0010
0100
0000
0000
0000
0000
0000
0011
0000
0000
0000
0000
0000
,  // measure 69
1100
0000
0000
0000
0000
0000
1000
0010
1000
0010
1000
0010
1000
0000
0000
0000
0000
0000
1001
0000
0000
0000
0000
0000
,  // measure 70
0001
0000
0000
0000
0000
0000
0000
0000
0000
0000
0000
0000
0010
0000
0100
0000
0010
0000
0100
0000
0010
0000
0100
0000
0020
0000
0000
0030
0000
0000
0002
0000
0003
0000
0000
0000
2002
0000
0000
0000
0000
0000
3003
0000
0000
0000
0000
0000
,  // measure 71
1010
0000
0000
0000
0000
0000
0001
0100
0001
0100
0001
0100
0010
0000
0000
0000
0000
0000
0100
0000
0000
0001
0000
0000
,  // measure 72
0010
0000
0000
0000
0000
0000
0100
1000
0100
1000
0100
1000
0001
0000
0000
0000
0000
0000
1000
0000
0000
0001
0000
0000
,  // measure 73
0010
0000
0000
0000
0000
0000
0100
0010
0100
0010
0100
0010
0001
0000
0000
0000
0000
0000
1000
0000
0000
0001
0000
0000
,  // measure 74
0400
0300
0000
0000
0040
0030
0000
0000
4000
3000
0000
0000
0004
0003
4000
3000
,  // measure 75
0110
0000
0000
0000
0000
0000
0000
0000
0000
0100
0000
0000
0010
0000
0100
0000
0010
0000
0100
0000
0010
0000
0100
0000
0001
0000
0000
0000
0000
0000
1000
0000
0000
0000
0000
0000
1100
0000
0000
0000
0000
0000
0000
0000
0000
0000
0000
0000
,  // measure 76
0010
0000
0000
0000
0000
0000
0000
0000
0000
0001
0000
0000
0010
0000
0100
0000
0010
0000
0100
0000
0010
0000
0100
0000
1000
0000
0000
0000
0000
0000
0001
0000
0000
0000
0000
0000
1000
0000
0000
0000
0000
0000
0000
0000
0000
0000
0000
0000
,  // measure 77
0001
0000
0000
0000
0000
0000
0000
0000
0000
0100
0000
0000
0010
0000
1000
0000
0010
0000
1000
0000
0010
0000
1000
0000
0100
0000
0000
0000
0000
0000
0010
0000
0000
0000
0000
0000
0001
0000
0000
0000
0000
0000
0000
0000
0000
0000
0000
0000
,  // measure 78
1000
0000
0000
0000
0000
0000
0000
0000
0000
0001
0000
0000
0100
0000
0010
0000
0100
0000
0010
0000
0100
0000
0010
0000
1000
0000
0000
0000
0000
0000
0100
0000
0000
0000
0000
0000
0010
0000
0000
0000
0000
0000
0000
0000
0000
0000
0000
0000
,  // measure 79
1001
0000
0000
0000
0000
0000
0001
0100
0010
1000
0001
0100
0010
0000
0000
0000
0000
0000
1001
0000
0000
0000
0000
0000
,  // measure 80
0100
0000
0000
0000
0000
0000
0001
0010
0100
1000
0100
0010
0001
0000
0000
0000
0000
0000
1001
0000
0000
0000
0000
0000
,  // measure 81
1000
0000
0000
0000
0000
0000
0001
0010
0100
0010
0001
1000
0100
0000
0000
0000
0000
0000
0110
0000
0000
0000
0000
0000
,  // measure 82
0100
0010
0001
0100
0010
1000
0001
0010
0100
0001
1000
0010
0100
0000
0000
0000
,  // measure 83
1001
0000
0000
0000
;
