#TITLE:Bridge Over Lights (Alternative);
#SUBTITLE:;
#ARTIST:Tucker McClure;
#TITLETRANSLIT:;
#SUBTITLETRANSLIT:;
#ARTISTTRANSLIT:;
#GENRE:;
#CREDIT:;
#BANNER:Bridge over lights.png;
#BACKGROUND:Bridge Over Lights-bg.png;
#LYRICSPATH:;
#CDTITLE:cdtitle.png;
#MUSIC:Bridge Over Lights.mp3;
#OFFSET:-3.897001;
#SAMPLESTART:34.380001;
#SAMPLELENGTH:12.000000;
#SELECTABLE:YES;
#BPMS:0.000000=125.999992
;
#STOPS:224.000000=0.019000
;
#BGCHANGES:;
#KEYSOUNDS:;
#ATTACKS:;

//---------------dance-single - ----------------
#NOTES:
     dance-single:
     :
     Challenge:
     13:
     0.509133,0.495851,0.108467,0.371888,0.232430,460.000000,446.000000,14.000000,48.000000,0.000000,0.000000,0.509133,0.495851,0.108467,0.371888,0.232430,460.000000,446.000000,14.000000,48.000000,0.000000,0.000000:
// measure 0
1000
0001
0010
0000
0100
0010
0001
0000
,  // measure 1
0010
1000
0100
0000
1000
0010
0100
0001
,  // measure 2
0010
0001
1000
0000
0001
1000
0100
0000
,  // measure 3
0010
0100
1000
0000
0100
1000
0010
0100
,  // measure 4
0001
0010
0100
0000
0010
0001
1000
0000
,  // measure 5
0010
0100
1000
0000
0100
0010
1000
0001
,  // measure 6
0010
0100
1000
0000
0100
0010
0001
0000
,  // measure 7
0010
0001
0100
0000
0010
0100
0001
1000
,  // measure 8
1001
0000
1000
0001
0000
0000
0010
0000
0100
0000
0000
0000
1100
0000
0000
0000
,  // measure 9
1000
0000
0010
0100
0000
0000
0001
0000
0100
0000
0002
0000
0023
0000
0230
0000
,  // measure 10
0320
0000
0031
0100
0000
0000
0010
0000
1000
0000
0000
0000
1100
0000
0000
0000
,  // measure 11
0010
0000
0100
1000
0000
0000
0100
0000
1000
0000
0020
0000
0230
0000
0302
0000
,  // measure 12
0023
0000
0031
0100
0000
0000
0010
0000
1000
0000
0000
0000
0011
0000
0000
0000
,  // measure 13
0001
0000
1000
0100
0000
0000
1000
0000
0010
0000
0200
0000
0320
0000
2030
0000
,  // measure 14
3200
0000
1300
0010
0000
0000
0100
0000
0001
0000
0000
0000
0011
0000
0000
0000
,  // measure 15
0010
0000
0100
1000
0000
0000
0100
0000
0010
0000
0200
0000
0320
0000
0032
0000
,  // measure 16
2003
3001
0010
1000
0010
0200
0000
1300
,  // measure 17
0100
1000
0010
0001
0010
0200
0320
2030
,  // measure 18
3200
1300
0001
0100
0001
0020
0000
0130
,  // measure 19
0010
0001
1000
0010
0100
2000
3200
0302
,  // measure 20
0023
0100
0030
1000
0100
0000
0010
0001
0000
1000
0010
0000
0000
0000
0100
0000
,  // measure 21
0010
1000
0000
0001
0100
0000
0001
0010
0000
0100
2000
0000
3200
0000
0320
0000
,  // measure 22
0032
0010
0003
0001
0100
0000
0010
1000
0000
0001
1000
0000
0000
0000
0100
0000
,  // measure 23
0010
0100
0000
1000
0010
0000
0100
0001
0000
1000
0002
0000
2003
0000
3020
0000
,  // measure 24
0130
0000
0000
0001
0010
0000
0101
0000
,  // measure 25
0011
0000
0000
0010
0100
0020
0032
0203
,  // measure 26
0320
0030
0000
0100
0001
0000
1100
0000
,  // measure 27
1001
0000
0000
0001
0010
0200
0320
0032
,  // measure 28
2003
3000
0000
0001
0010
0000
0110
0000
,  // measure 29
0011
0000
0000
0001
0100
0002
0023
2030
,  // measure 30
3020
0030
0000
0100
1000
0000
1100
0000
,  // measure 31
0011
0000
0000
0001
0010
0200
0320
0032
,  // measure 32
1003
0000
0000
0001
1000
0000
0001
0000
1000
0000
0000
0001
1000
0000
0001
0000
,  // measure 33
1000
0000
0000
0001
1000
0000
0001
0000
0100
0000
0000
0100
0000
0000
0100
0000
,  // measure 34
0001
0000
0000
1000
0001
0000
1000
0000
0001
0000
0000
1000
0001
0000
1000
0000
,  // measure 35
0001
0000
0000
1000
0001
0000
1000
0000
0010
0000
0000
0010
0000
0000
0010
0000
,  // measure 36
1000
0000
0000
0010
0100
0000
0001
0000
1000
0000
0000
0010
0100
0000
0001
0000
,  // measure 37
1000
0000
0000
0010
0100
0000
0001
0000
1000
0000
0000
1000
0000
0000
1000
0000
,  // measure 38
0100
0000
0000
1000
0100
0000
0010
0000
0001
0000
0000
1000
0100
0000
0010
0000
,  // measure 39
0001
0000
0000
1000
0100
0000
0010
0000
0001
0000
0000
0001
0000
0000
0001
0000
,  // measure 40
1000
0001
0100
0010
1000
0001
0010
0100
,  // measure 41
0010
0000
0001
0000
0100
0000
1000
0000
0100
0000
0000
0100
0000
0000
0100
0000
,  // measure 42
0010
1000
0010
0100
0001
0010
0100
0010
,  // measure 43
0001
0000
1000
0000
0010
0000
1000
0000
0100
0000
0000
0100
0000
0000
0100
0000
,  // measure 44
1000
0100
0010
0100
1000
0001
0010
0100
,  // measure 45
1000
0000
0010
0000
0001
0000
1000
0000
0010
0000
0000
0010
0000
0000
0010
0000
,  // measure 46
0100
0010
0100
0010
1000
0100
0010
0001
,  // measure 47
0010
0000
0100
0000
1000
0000
0010
0000
0100
0000
0000
0100
0000
0000
0100
0000
,  // measure 48
0010
1000
0000
0010
1000
0100
0000
0010
,  // measure 49
0100
1000
0001
0010
0100
1000
0001
0010
,  // measure 50
0100
0010
0000
0100
1000
0010
0000
0100
,  // measure 51
0010
1000
0001
0010
0100
1000
0001
0010
,  // measure 52
0100
0010
0000
0100
1000
0010
0000
0100
,  // measure 53
0010
1000
0001
0010
0100
1000
0001
0010
,  // measure 54
0100
0010
0000
0010
0100
1000
0000
1000
,  // measure 55
0100
0010
0001
0010
0100
1000
0001
0010
,  // measure 56
0100
0000
1000
0000
0010
0000
0000
0000
0100
0000
0000
0010
0000
1000
0001
0000
,  // measure 57
0000
0000
1000
0000
0100
0000
0000
0000
1000
0000
0000
0010
0000
0100
0001
0000
,  // measure 58
0000
0000
0010
0000
0100
0000
0000
0000
0010
0000
0000
0001
0000
1000
0001
0000
,  // measure 59
0000
0000
0100
0000
0001
0000
0000
0000
0010
0000
0000
0100
0000
1000
0100
0000
,  // measure 60
1000
0000
0001
0000
0100
0000
0000
0000
0010
0000
0000
1000
0000
0001
0010
0000
,  // measure 61
0100
0000
1000
0000
0001
0000
0000
0000
1000
0000
0000
0010
0000
1000
0100
0000
,  // measure 62
1000
0000
0001
0000
0010
0000
0000
0000
0100
0000
0000
0010
0000
0001
1000
0000
,  // measure 63
0001
0000
0100
0000
0010
0000
0000
0000
0100
0000
0000
0010
0000
1000
0001
0000
,  // measure 64
0110
0000
0000
0000
;
