#VERSION:0.83;
#TITLE:Black Pentagram (Alternative);
#SUBTITLE:;
#ARTIST:Unlucky Morpheus;
#TITLETRANSLIT:;
#SUBTITLETRANSLIT:;
#ARTISTTRANSLIT:;
#GENRE:;
#ORIGIN:;
#CREDIT:;
#BANNER:Black Pentagram.png;
#BACKGROUND:Black Pentagram-bg.png;
#PREVIEWVID:;
#JACKET:Black Pentagram-jacket.png;
#CDIMAGE:;
#DISCIMAGE:;
#LYRICSPATH:;
#CDTITLE:CDtitle.png;
#MUSIC:Black Pentagram.ogg;
#OFFSET:-2.571001;
#SAMPLESTART:36.107388;
#SAMPLELENGTH:10.322578;
#SELECTABLE:YES;
#BPMS:0.000=186.000;
#STOPS:5.000=0.161,
5.500=0.161;
#DELAYS:;
#WARPS:;
#TIMESIGNATURES:0.000=4=4;
#TICKCOUNTS:0.000=4;
#COMBOS:0.000=1;
#SPEEDS:0.000=1.000=0.000=0;
#SCROLLS:0.000=1.000;
#FAKES:;
#LABELS:0.000=Song Start;
#BGCHANGES:;
#KEYSOUNDS:;
#ATTACKS:
;

//---------------dance-single - ----------------
#NOTEDATA:;
#CHARTNAME:;
#STEPSTYPE:dance-single;
#DESCRIPTION:;
#CHARTSTYLE:;
#DIFFICULTY:Challenge;
#METER:17;
#RADARVALUES:0.993985,1.229033,0.182417,0.399580,1.229141,801.000000,780.000000,21.000000,46.000000,0.000000,0.000000,0.000000,0.000000,0.000000,0.993985,1.229033,0.182417,0.399580,1.229141,801.000000,780.000000,21.000000,46.000000,0.000000,0.000000,0.000000,0.000000,0.000000;
#CREDIT:Pandemonium X;
#NOTES:
// measure 0
0000
0000
0000
0000
,  // measure 1
1000
0001
1000
0001
1001
0000
0110
0000
1001
0000
0010
1000
0100
0000
1000
0000
,  // measure 2
0010
0100
0001
0010
0100
1000
0100
1000
,  // measure 3
0010
0000
0100
0000
0001
0000
0010
0000
0100
0000
0010
0001
1000
0000
0001
0000
,  // measure 4
0100
0010
1000
0100
0010
0100
1000
0010
,  // measure 5
0100
0000
0001
0000
1000
0000
0100
0000
0010
0000
0100
1000
0001
0000
1000
0000
,  // measure 6
0010
1000
0001
0010
0100
0010
0001
1000
,  // measure 7
0010
0000
0100
0000
0001
0000
0010
0000
0100
0000
1000
0100
0010
0000
0100
0000
,  // measure 8
1000
0010
0100
0001
0010
0001
1000
0100
,  // measure 9
0010
0000
0100
0000
1000
0000
0001
0000
1000
0000
0001
1000
0010
0000
0000
0000
,  // measure 10
1000
0100
0010
0000
0000
0000
0100
1000
0010
0000
0000
0000
0100
0001
0010
0000
,  // measure 11
0000
0000
0100
0010
0001
0000
0010
0100
1000
0000
0001
0000
1000
0000
0000
0000
,  // measure 12
0001
0100
0010
0000
0000
0000
0100
0001
0010
0000
0000
0000
0100
1000
0001
0000
,  // measure 13
0000
0000
1000
0001
0010
0000
0100
0010
0001
0000
1000
0000
0010
0000
0000
0000
,  // measure 14
0100
0001
0010
0000
0000
0000
0100
1000
0001
0000
0000
0000
1000
0010
0100
0000
,  // measure 15
0000
0000
0010
1000
0001
0000
0010
0100
1000
0000
0100
0000
0010
0000
0000
0000
,  // measure 16
0100
1000
0010
0000
0000
0000
0100
0001
1000
0000
0000
0000
0001
0010
0100
0000
,  // measure 17
0000
0000
0010
0001
0100
0000
0010
1000
0001
0000
0100
0000
1001
0000
0000
0000
,  // measure 18
1000
0201
0000
1000
0000
0301
0000
0011
,  // measure 19
0010
0000
1000
0000
0010
0000
0001
0000
1000
0000
0000
0000
0001
0100
0001
0100
,  // measure 20
0001
0100
0001
0100
0001
0000
0000
0000
0000
0000
0000
0000
1000
0100
1000
0100
,  // measure 21
1000
0100
1000
0100
1000
0000
0000
0000
0000
0000
0000
0000
1001
0000
0000
0000
,  // measure 22
0001
1020
0000
0001
0000
1030
0000
1100
,  // measure 23
0100
0000
0001
0000
0100
0000
1000
0000
0001
0000
0000
0000
1000
0010
1000
0010
,  // measure 24
1000
0010
1000
0010
1000
0000
0000
0000
0001
0000
0021
0000
0000
0000
0130
0000
,  // measure 25
0010
0001
1000
0010
0001
0010
1000
0001
,  // measure 26
0010
0001
0010
0000
0100
0000
1000
0000
0010
1000
0010
0000
0100
0000
0001
0000
,  // measure 27
1000
0001
1000
0000
0001
0000
0100
0010
0000
1000
0100
0000
0010
0000
0100
0000
,  // measure 28
1000
0001
0100
0000
0010
0000
1000
0000
0001
1000
0001
0000
1000
0000
0000
0100
,  // measure 29
0010
0000
0000
0010
0001
0000
0000
0001
0100
0000
0000
0100
0001
0000
1000
0000
,  // measure 30
0010
1000
0010
0000
0100
0000
0001
0000
0010
0100
0010
0000
0100
0000
1000
0000
,  // measure 31
0001
0100
0001
0000
1000
0000
0001
0010
0000
0001
0100
0000
0010
0000
0100
0000
,  // measure 32
0001
1000
0100
0000
0010
0000
0001
0000
0100
0010
1000
0000
0001
1000
0001
1000
,  // measure 33
0001
1000
0001
1000
0001
1000
0001
1000
0001
1000
0001
1000
0001
0000
0010
0000
,  // measure 34
0100
1000
0010
0000
0100
0000
0001
0000
1000
0100
0010
0000
0100
0000
1000
0000
,  // measure 35
0001
0100
0010
0000
0100
0000
0010
1000
0000
1000
0001
0000
1000
0000
0001
0000
,  // measure 36
0010
0100
1000
0000
0100
0000
0010
0000
0001
0010
0100
0000
0010
0000
0000
0010
,  // measure 37
0100
0000
0000
0100
1000
0000
0000
1000
0001
0000
0000
0001
0100
0000
0010
0000
,  // measure 38
1000
0001
0010
0000
0100
0000
0010
0000
0001
0010
0100
0000
0010
0000
0001
0000
,  // measure 39
1000
0100
0010
0000
0100
0000
1000
0010
0000
0100
0001
0000
1000
0100
1000
0100
,  // measure 40
1000
0100
1000
0100
0010
0100
1000
0100
1000
0100
1000
0100
1000
0001
0100
0010
,  // measure 41
1000
0001
0010
0100
0010
0001
0100
0010
1000
0001
0010
0100
1000
0000
0001
0100
,  // measure 42
0010
2010
0000
3001
0010
0210
0000
1000
,  // measure 43
0000
0000
0300
0000
0000
0000
0100
0000
0010
0000
0001
0000
1001
0000
0001
0100
,  // measure 44
0010
0000
1020
0000
0000
0000
0130
0001
0010
0000
0200
0000
0000
0000
1000
0000
,  // measure 45
0000
0000
0001
0000
0000
0000
1300
0100
0010
0000
0001
0000
1000
0000
0001
0100
,  // measure 46
0010
0000
2100
0000
0000
0000
3001
0100
0010
0000
0100
0000
0000
0000
0102
0000
,  // measure 47
0000
0000
0003
0000
0000
0000
0010
0000
1000
0000
0010
0000
0100
0000
0010
0001
,  // measure 48
1000
0000
1020
0000
0000
0000
0130
0010
1000
0000
1001
0000
0000
0000
0011
0000
,  // measure 49
0000
0000
0000
1100
0000
0000
0000
0000
0000
0100
0000
0000
0010
0000
0000
0001
0000
0000
1001
0000
1000
0000
0100
0000
,  // measure 50
0010
0001
1000
0100
0010
0001
0010
0100
0010
0001
1000
0010
,  // measure 51
0100
0001
1000
0010
0100
0001
1000
0010
0100
0001
0010
0100
,  // measure 52
1000
0001
0010
0100
1000
0001
0010
0100
0010
0001
1000
0010
,  // measure 53
0100
0001
1000
0010
0100
0001
1000
0000
0000
0001
1000
0100
,  // measure 54
0010
0100
1000
0001
1000
0010
0100
0010
1000
0001
1000
0100
,  // measure 55
0010
0100
1000
0001
0100
0010
1000
0000
0000
0001
0001
0100
,  // measure 56
0010
0010
1000
0100
0100
0010
0001
0001
1000
0200
0000
0000
,  // measure 57
2300
0000
0000
3010
1000
0001
0020
0000
0000
0130
0010
0001
,  // measure 58
0100
0010
1000
0001
0010
0100
0010
0001
1000
0010
0100
0001
,  // measure 59
0010
0001
1000
0100
0010
0100
1000
0001
0100
0010
1000
0001
,  // measure 60
0010
0100
0010
0001
1000
0010
0100
0010
1000
0001
0010
0100
,  // measure 61
1000
0100
0010
0100
1000
0001
0200
0000
0300
0010
1000
0001
,  // measure 62
0010
0100
0010
0001
0100
0010
1000
0001
0010
0100
0010
0001
,  // measure 63
1000
0100
0010
0001
0010
0100
0010
0000
0000
0100
0100
1000
,  // measure 64
0010
0000
0000
0000
0010
0000
0000
0000
0100
0000
0000
0000
0001
0000
0000
0000
0001
0000
0000
0000
1000
0000
0000
0000
0010
0000
0000
0000
0010
0000
0000
0000
1000
0000
0000
0000
0001
0000
0000
0010
0000
0000
0100
0000
0000
0010
0000
0000
,  // measure 65
0001
0100
0010
1000
0001
0010
0100
0010
0001
0010
0100
1000
0002
0000
0000
0000
,  // measure 66
0103
2000
0000
3100
0001
1000
0200
0000
,  // measure 67
0000
0000
0310
0001
1000
0000
0001
0000
0100
0000
0001
0000
2000
0000
0000
3200
,  // measure 68
0000
0000
0302
0000
0203
0000
0000
0320
0000
0000
0032
0000
2003
0000
0000
0000
,  // measure 69
0002
0000
0000
0000
0000
3003
1000
0001
,  // measure 70
0010
0000
0000
0100
0000
0000
0010
0000
0001
0000
1000
0000
0100
0000
0010
0000
0001
0000
2000
0000
0000
0000
0000
0000
,  // measure 71
0000
3000
0001
1000
0010
0000
0100
0000
0001
0000
0010
0000
0200
0000
0000
0000
,  // measure 72
0000
0000
0000
0000
0320
0000
0030
0020
0000
0030
0020
0000
0200
0000
0000
0000
,  // measure 73
0000
0000
0000
0000
0000
0000
0000
0000
0000
0000
0330
0000
1000
0001
1000
0001
,  // measure 74
1000
0100
0010
0001
1000
0001
1000
0001
1000
0100
0010
0100
1000
0001
1000
0001
,  // measure 75
1000
0100
0010
0001
1000
0001
1000
0001
1000
0100
0010
0100
1000
0001
1000
0001
,  // measure 76
1000
0010
0100
0001
1000
0001
1000
0001
1000
0010
0100
0010
1000
0001
1000
0001
,  // measure 77
0100
0010
1000
0001
1000
0001
1000
0001
1000
0010
0100
0010
2000
0000
0000
0000
,  // measure 78
3200
0302
0203
0320
,  // measure 79
0032
0203
0320
2030
,  // measure 80
3002
0000
0000
2000
0000
0000
3003
0000
0000
1000
0000
0100
,  // measure 81
1000
0000
0000
0000
0100
0000
0000
0000
0010
0000
0000
0000
0001
0000
0000
0010
0000
0000
0100
0000
0000
0010
0000
0000
0001
0000
0000
0100
0000
0000
0010
0000
0000
1000
0000
0000
0001
0000
0000
0010
0000
0000
0100
0000
0000
1000
0000
0000
,  // measure 82
0001
0100
0010
1000
0001
0010
0100
0010
0001
1000
0100
0010
0001
0100
0010
1000
,  // measure 83
0001
0010
0100
0010
0001
1000
0100
0010
0001
0100
0010
1000
0002
0000
0000
0000
,  // measure 84
0000
0203
0000
0000
0320
0000
2000
0000
,  // measure 85
0000
0000
0000
3030
;
