#TITLE:BRILLIANT 2U (Alternative);
#SUBTITLE:;
#ARTIST:NAOKI;
#TITLETRANSLIT:;
#SUBTITLETRANSLIT:;
#ARTISTTRANSLIT:;
#GENRE:;
#CREDIT:;
#BANNER:BRILLIANT 2U.png;
#BACKGROUND:BRILLIANT 2U-bg.png;
#LYRICSPATH:;
#CDTITLE:;
#MUSIC:BRILLIANT 2U.ogg;
#OFFSET:0.000000;
#SAMPLESTART:27.197001;
#SAMPLELENGTH:15.000000;
#SELECTABLE:YES;
#DISPLAYBPM:150.000000;
#BPMS:0.000000=150.000000
;
#STOPS:
;
#BGCHANGES:;
#KEYSOUNDS:;
#ATTACKS:;

//---------------dance-single - ----------------
#NOTES:
     dance-single:
     :
     Challenge:
     13:
     0.636574,0.797454,0.821759,0.127315,0.532407,385.000000,314.000000,71.000000,11.000000,0.000000,0.000000,0.636574,0.797454,0.821759,0.127315,0.532407,385.000000,314.000000,71.000000,11.000000,0.000000,0.000000:
// measure 0
0000
0000
0000
0000
,  // measure 1
0000
0000
0000
0000
,  // measure 2
0000
0000
0000
0000
,  // measure 3
0000
0000
0000
0000
,  // measure 4
0000
0000
0000
0000
,  // measure 5
1100
0000
0000
0100
0000
0000
0010
0000
0000
0001
0000
0000
1001
0000
0000
0000
,  // measure 6
0011
0000
0000
0010
0000
0000
0100
0000
0000
1000
0000
0000
1001
0000
0000
0000
,  // measure 7
0001
0000
0000
0010
0000
0000
0100
0000
0000
1000
0000
0000
1100
0000
1000
0001
,  // measure 8
0200
0000
0000
0300
,  // measure 9
0010
0000
1000
0010
0000
0100
0001
0000
0010
0100
0000
0010
0001
0000
1000
0000
,  // measure 10
0000
0000
0000
0000
0001
1000
0000
0000
1000
0000
0100
0000
0010
0001
0100
0000
,  // measure 11
0101
0000
0000
0000
1010
0000
0000
0000
0101
0000
0001
0010
0001
0000
0000
0000
,  // measure 12
0010
0100
1000
0010
0100
0001
0010
0100
,  // measure 13
1000
0000
0100
1000
0000
1000
0010
0000
0010
0100
0000
0100
0001
0000
0010
0000
,  // measure 14
0100
0000
0100
0000
0110
0000
0000
0000
1000
0001
0000
1000
0001
0000
0000
0000
,  // measure 15
0101
0000
0011
0000
0101
0000
0001
0100
,  // measure 16
0020
1000
0100
1030
,  // measure 17
1100
0000
0000
1100
0000
0000
0110
0000
0000
0110
0000
0010
0001
0000
0100
0000
,  // measure 18
0110
0000
1001
0000
0110
0000
0001
0001
,  // measure 19
1001
0000
0000
0011
0000
0000
0110
0000
0000
1100
0000
0001
0010
0000
0100
0000
,  // measure 20
1100
0000
1010
0000
1100
0000
0010
0010
,  // measure 21
0110
0000
0000
0011
0000
0000
0101
0000
0000
0011
0000
0010
0100
0000
1000
0000
,  // measure 22
1001
0000
0110
0000
1001
0000
0010
0010
,  // measure 23
1001
0000
0000
1010
0000
0000
0101
0000
0000
0011
0000
0010
0100
0000
0010
0000
,  // measure 24
0001
1000
0001
0000
1000
0001
1000
0000
0001
0000
0100
0000
0000
0000
0000
0000
,  // measure 25
0010
0000
1000
0000
0100
1000
0000
0001
0000
0200
0000
0000
0300
0010
1000
0001
,  // measure 26
0010
0000
0100
0000
0010
0002
0000
2000
0000
0000
0000
0000
3003
0000
0000
0000
,  // measure 27
0001
0000
0100
0000
0010
1000
0000
0100
0000
0020
0000
0000
0000
0130
1000
0001
,  // measure 28
1000
0000
0100
0000
0010
0100
0000
1000
0100
0000
0010
0000
0001
0000
1000
0000
,  // measure 29
0001
0000
1000
0000
0010
1000
0000
0001
0000
0010
0000
0000
0000
0100
0010
0001
,  // measure 30
0010
0000
0100
0000
0010
0001
0000
2000
0000
0000
0000
0000
3000
0000
0000
0000
,  // measure 31
0001
0000
0100
0000
0010
1000
0000
0001
0000
2000
0000
0000
0000
0000
3000
0000
,  // measure 32
0001
0100
0001
0100
0010
1000
0010
1000
0001
1000
0001
1000
0010
0100
0010
0100
,  // measure 33
0001
0000
0010
0001
0000
0010
0100
0000
1000
0010
0000
0100
0001
0000
1000
0000
,  // measure 34
0000
0000
0000
0000
0001
0010
0000
0000
0100
0000
0010
0000
0001
1000
0001
0000
,  // measure 35
1001
0000
0000
0000
1010
0000
0000
0000
1001
0000
1000
0010
1000
0000
0000
0000
,  // measure 36
0010
1000
0100
0001
0100
0010
0001
0100
,  // measure 37
0010
0000
1000
0010
0000
0100
0001
0000
0010
0100
0000
0010
0001
0000
1000
0000
,  // measure 38
0010
0000
0010
0000
0110
0000
0000
0000
0100
0010
0000
1000
0001
0000
0000
0000
,  // measure 39
1010
0000
1100
0000
1010
0000
1000
0001
,  // measure 40
0200
0010
0001
0310
,  // measure 41
1001
0000
0000
1010
0000
0000
0101
0000
0000
0011
0000
0010
0100
0000
1000
0000
,  // measure 42
1010
0000
0110
0000
1010
0000
1000
1000
,  // measure 43
1001
0000
0000
0011
0000
0000
0110
0000
0000
1100
0000
1000
0100
0000
0010
0000
,  // measure 44
0011
0000
1100
0000
0011
0000
0001
0001
,  // measure 45
0101
0000
0000
1010
0000
0000
1001
0000
0000
0011
0000
0001
1000
0000
0001
0000
,  // measure 46
0101
0000
0000
0000
1010
0000
0000
0000
1100
0000
0100
1000
0010
0000
0000
0000
,  // measure 47
0100
0000
0100
0000
0100
0000
0000
0000
0010
0100
0000
0001
1000
0000
0000
0000
,  // measure 48
1001
0000
1000
0000
0010
0000
1000
0000
0100
0000
0000
0000
0010
0001
0100
0000
,  // measure 49
1001
0100
0000
0000
0000
0000
0000
0001
,  // measure 50
0110
1000
0000
0100
1001
0001
0110
1000
,  // measure 51
2002
0000
0000
0000
,  // measure 52
0000
0000
0000
0000
,  // measure 53
3003
0000
0000
0000
;
