#TITLE:BRIGHTNESS DARKNESS (Alternative);
#SUBTITLE:;
#ARTIST:SPARKER;
#TITLETRANSLIT:;
#SUBTITLETRANSLIT:;
#ARTISTTRANSLIT:;
#GENRE:;
#CREDIT:;
#BANNER:BRIGHTNESS DARKNESS.png;
#BACKGROUND:background.png;
#LYRICSPATH:;
#CDTITLE:;
#MUSIC:BRIGHTNESS DARKNESS.ogg;
#OFFSET:-0.799000;
#SAMPLESTART:43.999001;
#SAMPLELENGTH:12.799999;
#SELECTABLE:YES;
#BPMS:0.000000=150.000000
;
#STOPS:
;
#BGCHANGES:;
#KEYSOUNDS:;
#ATTACKS:;

//---------------dance-single - ----------------
#NOTES:
     dance-single:
     :
     Challenge:
     15:
     0.696422,1.008366,0.438298,0.035779,0.465133,545.000000,496.000000,49.000000,4.000000,0.000000,0.000000,0.696422,1.008366,0.438298,0.035779,0.465133,545.000000,496.000000,49.000000,4.000000,0.000000,0.000000:
// measure 0
0000
0000
0000
0000
,  // measure 1
1010
0000
0001
0010
0100
0010
0001
1000
,  // measure 2
1010
0000
1000
0001
0010
0100
0010
0001
,  // measure 3
1100
0000
1000
0001
0010
0100
0010
0001
,  // measure 4
1100
0000
1000
0001
0100
0001
1000
0100
,  // measure 5
0110
0010
0001
0100
0001
1000
0100
0010
,  // measure 6
0011
0000
0001
0010
0100
0010
0001
1000
,  // measure 7
1001
0000
1000
0001
1001
0000
1000
0001
,  // measure 8
1001
0000
1000
0001
1001
0010
1001
0100
,  // measure 9
0001
0000
0001
0010
0011
0000
1000
0100
,  // measure 10
1100
0000
1000
0010
1010
0000
0001
0100
,  // measure 11
0101
0000
0001
1000
1001
0000
0100
0010
,  // measure 12
0110
0000
0010
0001
0011
0000
1000
0100
,  // measure 13
0010
0001
0010
1000
0001
0100
1000
0100
,  // measure 14
0010
1000
0001
0010
0100
0000
1000
0000
,  // measure 15
1100
0101
0011
1010
,  // measure 16
0001
0100
0001
1000
0001
0010
0100
1000
0100
1000
0010
1000
0001
0000
0000
0000
,  // measure 17
2000
0000
0000
0002
0000
0000
0000
0000
0000
0000
0000
0000
0000
0000
0000
0000
,  // measure 18
0000
0000
0000
0000
0000
3000
0000
0003
,  // measure 19
0000
0010
1000
0100
0001
0100
0010
0001
,  // measure 20
0000
0010
1000
0010
0100
1000
0001
1000
,  // measure 21
0000
0001
0100
1000
0000
1000
0100
0001
,  // measure 22
0000
0001
0010
1000
0010
0100
0001
0010
,  // measure 23
0100
1000
0100
0000
0011
0000
0000
0000
0001
0100
0001
0000
1010
0000
0000
0000
,  // measure 24
1000
0010
1000
0000
0101
0000
0000
0000
1000
0100
1000
0000
0011
0000
0001
0000
,  // measure 25
0000
0100
0001
0100
0010
0001
1000
0010
,  // measure 26
0100
1000
0100
0001
0100
1000
0100
0010
,  // measure 27
0000
0100
0001
0010
1000
0010
0100
0010
,  // measure 28
0000
0100
1000
0001
0100
0001
0010
0100
,  // measure 29
0000
1000
0010
0001
0000
0001
0010
1000
,  // measure 30
0000
1000
0010
0001
0010
0100
0001
1000
,  // measure 31
0100
0010
0100
0000
0110
0000
0000
0000
0001
1000
0001
0000
1100
0000
0000
0000
,  // measure 32
0001
0010
0001
0000
1100
0000
0000
0000
0010
0100
0010
0000
1001
0000
0000
0000
,  // measure 33
0001
0100
1000
0100
0010
1000
0001
0010
,  // measure 34
1000
0010
0100
0010
0001
1000
0001
0100
,  // measure 35
0000
0000
0010
1000
0001
0010
0100
0010
0000
0000
0010
0001
1000
0100
0010
0001
,  // measure 36
0000
0000
0100
1000
0001
0100
0001
1000
0000
0000
0001
1000
0100
0010
0001
0010
,  // measure 37
0000
0000
0010
0001
0100
0010
1000
0100
0000
0000
1000
0001
0100
0001
0010
0001
,  // measure 38
0000
0000
1000
0001
0100
0010
1000
0100
0000
0000
0010
0001
1000
0100
1000
0001
,  // measure 39
0000
0000
0100
0001
0010
0100
0010
0100
0000
0000
0010
0001
1000
0100
0010
0100
,  // measure 40
0000
0000
0100
0010
0001
1000
0001
0100
0000
0000
0010
1000
0001
0010
0100
1000
,  // measure 41
0000
0001
1000
0100
0001
0100
1000
0001
,  // measure 42
0000
1000
0100
0001
0100
0010
0001
1000
,  // measure 43
0000
0001
0010
1000
0000
1000
0010
0001
,  // measure 44
0000
0001
0010
1000
0010
0100
0010
0001
,  // measure 45
1000
0010
0100
0000
0011
0000
0000
0000
0010
0100
1000
0000
1001
0000
0000
0000
,  // measure 46
0001
0010
0100
0000
0011
0000
0000
0000
1000
0100
0010
0000
1100
0000
0000
0000
,  // measure 47
0000
1000
0100
0001
0100
1000
0010
0001
,  // measure 48
0010
0100
0001
0010
0100
0010
0001
1000
,  // measure 49
0000
0000
0001
0100
0010
1000
0100
0010
0000
0000
0100
0010
0001
1000
0001
1000
,  // measure 50
0000
0000
0100
1000
0010
0100
0001
0010
0000
0000
0100
0010
0001
1000
0100
0010
,  // measure 51
0000
0000
0100
0010
0001
1000
0010
0100
0000
0000
0010
1000
0001
0010
0001
1000
,  // measure 52
0000
0000
0001
0010
0100
0010
0001
1000
0000
0000
0010
1000
0001
0010
0100
0010
,  // measure 53
0000
0000
0100
0010
0001
1000
0010
0100
0000
0000
0010
1000
0001
0010
0100
1000
,  // measure 54
0000
0001
0100
1000
,  // measure 55
0100
0100
0010
1000
0001
0001
0010
0100
,  // measure 56
0010
0010
0001
0001
1000
1000
0100
0100
,  // measure 57
1000
0010
0100
0001
0010
0100
0010
0001
1000
0010
1000
0001
0010
0100
0010
0001
,  // measure 58
1000
0100
0010
0001
1000
0100
0010
0001
0010
0100
0010
0001
1000
0100
0010
0001
,  // measure 59
1001
0000
0000
0000
0000
0000
0000
0000
1001
0000
0000
1001
0000
1001
0000
0000
,  // measure 60
1001
0000
0000
1001
,  // measure 61
0101
0100
0110
0010
1010
1000
1001
0001
,  // measure 62
1001
0001
0011
0010
0110
0100
1100
1010
,  // measure 63
2000
0000
0000
0002
0000
0000
0000
0000
0000
0000
0000
0000
0000
0000
0000
0000
,  // measure 64
0000
0000
0000
0000
,  // measure 65
0000
0000
0000
0000
,  // measure 66
3000
0000
0000
0000
0000
0003
0000
0000
0000
0000
0000
0000
0000
0000
0000
0000
;
