#VERSION:0.83;
#TITLE:Ancient Scapes (Alternative);
#SUBTITLE:;
#ARTIST:Durandal;
#TITLETRANSLIT:;
#SUBTITLETRANSLIT:;
#ARTISTTRANSLIT:;
#GENRE:;
#ORIGIN:;
#CREDIT:;
#BANNER:Ancient Scapes†.png;
#BACKGROUND:Ancient Scapes†-bg.png;
#PREVIEWVID:;
#JACKET:Ancient Scapes†-jacket.png;
#CDIMAGE:;
#DISCIMAGE:;
#LYRICSPATH:;
#CDTITLE:CDtitle.png;
#MUSIC:Ancient Scapes†.mp3;
#OFFSET:-1.905001;
#SAMPLESTART:34.242313;
#SAMPLELENGTH:16.179775;
#SELECTABLE:YES;
#BPMS:0.000=89.000,
30.000=178.000,
191.000=89.000,
205.000=178.000;
#STOPS:30.000=1.011,
205.000=1.011,
234.000=1.011;
#DELAYS:;
#WARPS:;
#TIMESIGNATURES:0.000=4=4;
#TICKCOUNTS:0.000=4;
#COMBOS:0.000=1;
#SPEEDS:0.000=1.000=0.000=0;
#SCROLLS:0.000=1.000;
#FAKES:;
#LABELS:0.000=Song Start;
#BGCHANGES:;
#KEYSOUNDS:;
#ATTACKS:
;

//---------------dance-single - ----------------
#NOTEDATA:;
#CHARTNAME:;
#STEPSTYPE:dance-single;
#DESCRIPTION:;
#CHARTSTYLE:;
#DIFFICULTY:Challenge;
#METER:17;
#RADARVALUES:0.906728,1.292172,0.625213,0.569814,1.234597,802.000000,723.000000,79.000000,72.000000,0.000000,0.000000,0.000000,0.000000,0.000000,0.906728,1.292172,0.625213,0.569814,1.234597,802.000000,723.000000,79.000000,72.000000,0.000000,0.000000,0.000000,0.000000,0.000000;
#CREDIT:;
#NOTES:
// measure 0
0102
0000
0000
0000
0000
0000
0010
0000
0000
0000
0000
0000
1003
0000
0000
0000
0000
0000
0000
0000
0000
0000
0000
0000
0000
0000
0100
0000
0000
0010
0000
0000
,  // measure 1
0201
0000
0000
0000
0000
0000
1000
0000
0000
0000
0000
0000
0010
0000
0000
0000
0000
0000
0000
0000
0000
0000
0310
0100
0010
0000
0000
0100
0000
0000
0010
0000
,  // measure 2
2001
0000
0000
0000
0000
0000
0010
0000
0000
0000
0000
0000
3100
0000
0000
0000
0000
0000
0000
0000
0000
0000
0000
0000
0000
0000
0100
0000
0000
0010
0000
0000
,  // measure 3
1200
0000
0000
0000
0000
0000
0010
0000
0000
0000
0000
0000
0301
0000
0000
0000
1000
0000
1000
0001
0000
1000
0001
0100
0010
0000
1000
0010
0000
0100
0001
0000
,  // measure 4
0011
0000
0010
0000
0001
0000
0100
0010
1000
0000
0001
0000
0010
0000
0010
0000
0001
0000
1000
0000
0100
0000
0010
0100
1000
0000
0001
0000
0100
0001
0100
0001
,  // measure 5
0100
0000
0001
0000
0010
0000
1000
0100
1000
0000
0001
0000
1000
0000
0010
0000
1000
0000
0100
0010
0000
0100
1000
0010
0100
0000
0001
1000
0000
0100
0010
0000
,  // measure 6
0001
0000
0010
0000
0100
0000
1000
0010
0100
0000
0010
0000
1000
0000
0001
0000
1000
0000
0100
0000
0010
0000
0100
1000
0010
0000
0100
0000
0001
0100
0001
0100
,  // measure 7
0001
0000
1000
0000
0100
0000
0010
0100
1000
0000
0010
0000
0100
0000
0001
0000
1001
0000
0000
0000
0000
0000
0000
0000
1010
0000
0000
0000
0000
0000
0000
0000
,  // measure 8
0011
0000
0110
0000
0100
1000
1010
0000
,  // measure 9
0101
0000
0000
0000
0011
0000
0000
0010
0001
0000
0100
0000
0110
0000
0000
0000
,  // measure 10
1001
0000
1010
0000
0001
0010
0110
0000
,  // measure 11
0011
0000
0000
0000
0010
0001
0000
0100
0010
0000
1000
0000
0201
0000
0000
0000
,  // measure 12
0000
0000
0010
0000
0000
0010
0000
0000
0310
1000
0000
1000
0002
0000
0000
0000
,  // measure 13
0000
0000
0010
0000
0000
0010
0000
0000
0013
0001
0000
0010
0100
1000
0100
0010
,  // measure 14
0001
0010
0001
0100
0010
1000
0001
0010
0100
1000
0100
0010
0000
0000
0011
0000
,  // measure 15
0000
0110
0000
0000
1001
0000
0000
1100
0000
0000
0100
1000
0001
0000
0100
0000
,  // measure 16
0001
0010
0000
0010
0100
0000
0100
1000
0000
0100
1000
0010
0000
0000
0100
0000
,  // measure 17
0100
0010
0000
0010
1000
0000
1000
0001
0000
0001
0010
0100
0000
0000
0010
0000
,  // measure 18
0010
0001
0000
0001
0100
0000
0100
0010
0000
0010
0100
0001
0000
0000
0100
0000
,  // measure 19
0010
1000
0000
1000
0100
0000
0100
1000
0000
1000
0001
0100
0001
0000
0010
0000
,  // measure 20
0100
0010
0000
0010
0001
0000
0001
1000
0000
1000
0010
0100
0000
0000
0010
0000
,  // measure 21
0100
0001
0000
0001
1000
0000
1000
0100
0000
0100
1000
0010
0000
0000
0100
0000
,  // measure 22
0100
0010
0000
0010
1000
0000
1000
0001
0000
0001
0010
0100
0000
0000
0010
0000
,  // measure 23
0001
0010
0000
0010
0001
0000
0001
0100
0000
0100
0010
1000
0100
0010
0100
0000
,  // measure 24
0010
0000
0001
1000
0001
0000
0100
0000
0001
0000
0010
0000
0100
1000
0100
0000
,  // measure 25
1000
0000
0010
1000
0010
0000
0100
0000
0001
0000
1000
0000
0001
0010
0001
0000
,  // measure 26
0010
0000
0100
1000
0100
0000
1000
0000
0001
0000
0010
0000
0100
0010
0100
0000
,  // measure 27
0010
0000
0001
1000
0001
0000
0100
0000
0001
0000
0010
0000
0100
1000
0010
0000
,  // measure 28
0100
0000
0001
0010
0100
0000
0010
0000
0001
0000
1000
0000
0001
0100
0010
0000
,  // measure 29
0100
0000
0010
1000
0100
0010
0000
0100
0010
0000
0001
0000
0100
0010
0100
0010
,  // measure 30
0100
0001
1000
0001
1000
0001
0010
0100
0010
0001
1000
0010
0200
0000
0000
0000
,  // measure 31
2300
3200
0302
0203
0320
0030
2000
3020
0030
2000
3020
0030
0102
0000
0000
0003
,  // measure 32
0012
0000
0000
0003
0102
0000
0000
0003
0012
0000
0000
0003
2001
0000
0000
3000
,  // measure 33
0210
0000
0000
0300
1002
0000
0000
0003
0120
0000
0000
0030
2010
0000
0000
3000
,  // measure 34
2100
0000
0000
3000
2010
0000
0000
3000
2100
0000
0000
3000
1002
0000
0000
0003
,  // measure 35
0120
0000
0000
0030
2001
0000
0000
3000
0120
0000
0130
0000
0102
0000
0000
0003
,  // measure 36
0021
0000
0000
0030
0210
0000
0000
0300
2100
0000
0000
3000
1200
0000
0000
0300
,  // measure 37
0120
0000
0000
0030
0012
0000
0000
0003
0102
0000
0000
0003
0120
0000
0000
0030
,  // measure 38
1020
0000
0000
0030
0210
0000
0000
0300
0201
0000
0000
0300
0001
0010
0100
1000
,  // measure 39
0001
0000
0000
0010
0000
0000
0100
0000
0000
1000
0000
0000
0001
0000
0000
0000
0000
0000
1000
0000
0001
0000
1000
0000
0001
0000
0000
0000
0000
0000
1000
0000
0001
0000
1000
0000
0002
0000
0000
0000
0000
0000
0000
0000
0000
0000
0000
0000
,  // measure 40
0000
0000
0100
0000
0000
0100
0000
0103
0010
0000
1000
0100
0020
0000
0000
0000
,  // measure 41
0000
0000
0100
0000
0000
0100
0000
0130
0010
0000
0100
1000
0002
0000
0000
0000
,  // measure 42
0000
0000
1000
0000
0000
1000
0000
1003
0010
0000
0100
0001
0020
0000
0000
0000
,  // measure 43
0000
0000
0100
0000
0000
0100
0000
0130
0010
0000
0001
0010
0100
0000
0010
0000
,  // measure 44
0001
0000
0100
0000
0010
1000
0000
0001
0010
0100
0010
0001
1000
0000
0001
0000
,  // measure 45
0100
0000
0010
1000
0000
0001
0010
0000
0100
0010
0001
1000
0010
0100
0010
0100
,  // measure 46
0001
1000
0001
1000
0001
0100
0010
1000
0001
0100
0010
1000
0002
0000
0000
0000
,  // measure 47
0000
0000
0000
0000
0000
0000
0000
0000
0103
0001
0100
0001
0010
0000
0000
0110
,  // measure 48
0000
0000
0000
0000
1100
0000
0000
0000
0000
0000
0000
0000
0000
0000
0000
0000
0000
0000
1100
0000
0000
0011
0000
0000
0110
0000
0000
0000
0000
0000
1001
0000
,  // measure 49
0000
0000
0000
0000
1010
0000
0000
0000
0000
0000
0000
0000
0000
0000
0001
0100
0001
0000
0000
0101
0000
0000
0001
0000
0011
0000
0000
0000
0000
0000
0110
0000
,  // measure 50
0000
0000
0000
0000
1100
0000
0000
0000
0000
0000
0000
0000
0000
0000
0000
0000
0000
0000
1001
0000
0000
1010
0000
0000
1001
0000
0000
0000
0000
0000
0011
0000
,  // measure 51
0000
0000
0110
0000
1001
0000
0000
0000
0001
0000
1000
0000
0100
0010
0001
0010
,  // measure 52
0100
1000
0010
0100
0001
0000
1000
0000
1001
0000
0001
0000
0010
0001
0100
0010
,  // measure 53
1000
0100
0000
0100
1000
0000
0001
0000
0110
0000
0100
0000
0010
1000
0001
0010
,  // measure 54
0001
1000
0100
0010
0001
1000
0001
0000
0110
0000
0100
0000
0010
1000
0100
1000
,  // measure 55
0001
0100
0001
0010
0100
1000
0000
0000
1001
0000
0101
0000
0100
0001
0010
0100
,  // measure 56
0010
0000
0011
0000
1000
0100
1000
0010
0100
0000
0110
0000
0010
0001
0100
0010
,  // measure 57
1000
0000
1001
0000
1000
0100
0010
0001
1000
0001
0100
0001
0010
0100
0010
0001
,  // measure 58
0100
0010
1000
0001
0010
0100
1000
0001
1000
0000
0000
0000
0001
0000
1000
0000
,  // measure 59
0010
1000
0000
0010
0100
0000
0001
0010
0000
0100
0010
0001
0000
0000
1000
0000
,  // measure 60
0100
1000
0000
0010
0100
0000
0001
0010
0000
0100
0010
0001
0000
0000
0010
0000
,  // measure 61
0001
0100
0000
0001
1000
0000
0100
0010
0000
0100
1000
0010
0000
0000
0100
0000
,  // measure 62
0010
1000
0000
0010
0100
0000
0001
0010
0000
0100
0010
0001
0000
0000
0010
0000
,  // measure 63
0001
0100
0000
0001
1000
0000
0100
1000
0000
0100
0010
0001
0000
0000
0010
0000
,  // measure 64
0001
0100
0000
0010
1000
0000
0100
1000
0000
0100
1000
0010
0000
0000
0100
0000
,  // measure 65
0010
1000
0000
0010
0100
0000
0010
0100
0000
0001
1000
0100
0000
0000
0010
0000
,  // measure 66
0100
1000
0000
0100
0010
0000
0100
1000
0000
0100
0010
0001
0000
0000
1000
0000
,  // measure 67
0001
0200
0000
1300
0200
0000
0310
2000
0000
3010
0100
0001
0000
0000
0011
0000
,  // measure 68
0010
0002
0000
0103
0020
0000
1030
0200
0000
0301
0100
0010
0000
0000
0110
0000
,  // measure 69
0100
2000
0000
3010
0200
0000
0301
0020
0000
0130
0010
0001
0000
0000
1001
0000
,  // measure 70
1000
0020
0000
0130
0002
0000
0013
2000
0000
3010
0100
1000
0001
0000
0100
0000
,  // measure 71
0010
0000
1000
0000
0001
0000
0010
0000
0001
0000
1000
0100
0010
0000
0001
0000
,  // measure 72
0100
0000
0010
1000
0001
0100
0000
0001
0010
0100
0000
0010
0001
0010
0100
0010
,  // measure 73
0001
1000
0010
0100
0010
1000
0001
0010
0001
1000
0010
0100
0001
0000
0000
0000
,  // measure 74
2000
3002
2003
3002
2003
0000
3002
2003
0000
3002
2003
3000
0220
0000
0000
0000
,  // measure 75
0000
0000
0000
0000
,  // measure 76
0000
0000
0000
0000
,  // measure 77
0000
0000
0000
0330
;
