#TITLE:AIR RAID FROM THA UNDAGROUND (Alternative);
#SUBTITLE:;
#ARTIST:GUHROOVY;
#TITLETRANSLIT:;
#SUBTITLETRANSLIT:;
#ARTISTTRANSLIT:;
#GENRE:;
#CREDIT:;
#BANNER:AIR RAID FROM THA UNDAGROUND.png;
#BACKGROUND:AIR RAID FROM THA UNDAGROUND-bg.png;
#LYRICSPATH:;
#CDTITLE:;
#MUSIC:AIR RAID FROM THA UNDAGROUND.mp3;
#OFFSET:-0.360000;
#SAMPLESTART:96.340614;
#SAMPLELENGTH:10.666641;
#SELECTABLE:YES;
#BPMS:0.000000=180.000000
,60.000000=360.001007
,181.000000=180.000000
,335.000000=360.001007
,364.000000=180.001007
,366.000000=360.001007
,390.000000=180.001007
,394.000000=360.001007
,422.000000=180.001007
,424.000000=360.001007
,456.000000=180.000000
;
#STOPS:60.000000=1.167000,
181.000000=1.000000,
210.000000=1.000000,
335.000000=1.167000
;
#BGCHANGES:;
#KEYSOUNDS:;
#ATTACKS:;

//---------------dance-single - ----------------
#NOTES:
     dance-single:
     :
     Challenge:
     16:
     0.817590,1.105128,0.282126,0.298248,0.427220,710.000000,675.000000,35.000000,37.000000,0.000000,0.000000,0.817590,1.105128,0.282126,0.298248,0.427220,710.000000,675.000000,35.000000,37.000000,0.000000,0.000000:
// measure 0
0000
0000
0000
0000
,  // measure 1
0000
0000
0000
0000
,  // measure 2
0000
0000
0000
0000
,  // measure 3
0000
0000
0000
0000
,  // measure 4
0000
0000
0000
0000
,  // measure 5
0000
0000
0000
0000
,  // measure 6
0000
0000
0000
0000
,  // measure 7
0000
0000
0000
0000
,  // measure 8
1020
0000
0000
0000
0130
0000
0001
0010
0001
0000
1000
0000
0001
0000
0100
0000
,  // measure 9
0020
0000
0000
0000
1030
0000
0100
0010
0001
0000
1000
0000
0001
0000
0100
0000
,  // measure 10
0002
0000
0000
0000
0013
0000
0100
0010
0100
0000
0010
0000
0001
0000
1000
0000
,  // measure 11
0020
0000
0000
0000
1030
0000
0001
1000
0100
0000
0010
0000
0001
0000
1000
0000
,  // measure 12
0002
0000
0000
0000
0103
0000
0001
0010
0001
0000
0010
0000
0001
0000
1000
0000
,  // measure 13
0200
0000
0000
0000
0310
0000
0100
1000
0001
0000
0100
0000
0001
0000
0010
0000
,  // measure 14
0200
0000
0000
0000
0310
0000
0100
1000
0100
0000
1000
0000
0001
0000
0100
0000
,  // measure 15
0000
0010
1000
0101
,  // measure 16
0001
0010
0100
0000
0010
0000
0001
0000
,  // measure 17
1000
0001
0010
1100
,  // measure 18
0100
0010
0001
0000
0100
0000
1000
0000
,  // measure 19
0100
0001
0010
0110
,  // measure 20
0100
0010
0001
0000
0010
0000
0001
0000
,  // measure 21
0100
0010
1000
0101
,  // measure 22
0001
1000
0100
0000
0001
0000
0100
0000
,  // measure 23
0010
0001
1000
0110
,  // measure 24
1000
0001
1000
0000
0001
0000
0010
0000
,  // measure 25
0001
1000
0001
0101
,  // measure 26
0100
0010
0100
0000
0010
0000
1000
0000
,  // measure 27
0100
0000
0010
0001
0100
0000
0010
0000
,  // measure 28
1000
0000
0001
1000
0100
0000
0010
0000
,  // measure 29
0100
0000
1000
0000
1000
0000
1000
0001
,  // measure 30
1000
0020
0230
0002
,  // measure 31
0303
0010
1000
0011
,  // measure 32
0100
0010
0001
0000
1000
0000
0010
0000
,  // measure 33
1000
0100
0010
1100
,  // measure 34
0010
0100
1000
0000
0001
0000
0100
0000
,  // measure 35
0010
0100
0001
0011
,  // measure 36
0100
1000
0010
0000
0100
0000
0001
0000
,  // measure 37
1000
0001
0010
1100
,  // measure 38
0010
0001
0100
0000
0010
0000
1000
0000
,  // measure 39
0001
0010
0001
0110
,  // measure 40
0010
1000
0100
0000
0010
0000
0100
0000
,  // measure 41
1000
0001
1000
1010
,  // measure 42
0001
0100
0010
0000
0100
0000
0001
0000
,  // measure 43
0010
0000
0110
0000
0100
0000
0010
0001
,  // measure 44
0100
0000
0100
0010
0100
0010
1000
0001
,  // measure 45
0100
0000
0000
0010
0000
0000
1000
0000
0000
0000
0000
0000
1001
0000
0000
0000
0001
0000
0010
0000
0000
0000
0100
0000
,  // measure 46
0010
0001
0100
0010
0000
0100
0010
0000
1000
0010
0000
1000
,  // measure 47
0001
0010
0100
0010
0000
0001
1000
0000
0010
1000
0000
0001
,  // measure 48
0010
0100
0010
0001
0000
1000
0001
0000
0100
0010
0000
1000
,  // measure 49
0010
0100
0001
0010
0000
0100
0010
0000
0100
1000
0000
0100
,  // measure 50
1000
0010
1000
0100
0000
0010
0100
0000
1000
0010
0000
0100
,  // measure 51
0001
0010
0100
1000
0000
0001
1000
0000
0010
1000
0000
0001
,  // measure 52
0010
0000
0100
0000
0010
0000
0001
0000
0000
0000
0100
0000
1001
0000
0000
0000
0000
0000
0001
0000
0000
0001
0000
0000
,  // measure 53
1000
0001
0001
1000
0001
0001
0020
0000
,  // measure 54
0130
1001
0000
0010
1001
0000
1000
1000
,  // measure 55
0001
1000
1000
0001
1000
1000
0020
0000
,  // measure 56
0130
0010
0000
0010
0100
0000
0010
0010
,  // measure 57
1000
0010
0010
1000
0010
0010
0200
0000
,  // measure 58
0301
0110
0000
1000
0110
0000
0001
0001
,  // measure 59
0010
0001
0001
0010
0001
0001
2000
0000
,  // measure 60
3001
0000
0100
0000
0000
0000
0100
0000
0001
0000
0000
0000
1000
0001
0010
0001
,  // measure 61
1000
0001
0010
0001
1000
0001
0010
0001
1000
0001
0010
0001
2000
0000
0000
0000
,  // measure 62
3010
0000
0110
0000
0000
0000
0100
0000
0110
0000
0000
0000
0001
1000
0010
1000
,  // measure 63
0001
0010
0001
1000
0010
1000
0001
0010
0001
1000
0010
1000
0001
0000
0000
0000
,  // measure 64
1000
0000
0010
0000
0000
0000
0010
0000
1000
0000
0000
0000
0001
0010
0100
0010
,  // measure 65
0001
0010
0100
0010
0001
0010
0100
0010
0001
0010
0100
0010
0002
0000
0000
0000
,  // measure 66
0103
0000
1001
0000
0000
0000
0010
0000
1001
0000
0000
0000
1000
0010
0100
0010
,  // measure 67
1000
0010
0100
0010
1000
0010
0100
0010
1000
0010
0100
0010
1000
0000
0000
0000
,  // measure 68
0100
0010
0001
2000
,  // measure 69
3001
0010
0100
0010
0200
0000
0000
0000
1300
0000
0001
1000
0020
0000
0000
0000
,  // measure 70
0130
0001
0010
0001
2000
0000
0000
0000
3001
0000
0100
0000
0020
0000
0000
0000
,  // measure 71
1030
0100
0010
0100
2000
0000
0000
0000
3001
0000
0010
0100
0020
0000
0000
0000
,  // measure 72
0130
1000
0001
0100
0020
0000
1030
0000
0100
0010
0100
0010
0200
0000
0000
0000
,  // measure 73
1300
0001
0100
0001
0020
0000
0000
0000
0130
0000
0010
0001
2000
0000
0000
0000
,  // measure 74
3001
0100
0010
1000
0200
0000
0000
0000
0310
0000
0001
0000
2000
0000
0000
0000
,  // measure 75
3001
1000
0100
0010
0100
0000
0000
0000
0010
0000
0001
1000
0020
0000
0000
0000
,  // measure 76
0130
0001
0010
0001
2000
0000
0000
0000
3001
0000
0010
0000
1001
0000
1000
0000
,  // measure 77
0001
0010
0000
0010
0000
0010
0001
1000
,  // measure 78
0001
1000
0000
0001
0010
0110
1001
1000
,  // measure 79
0001
0100
0000
0100
0000
0100
0001
1000
,  // measure 80
0100
0010
0000
0100
1000
0010
1001
1000
,  // measure 81
0001
0010
0000
0010
0000
0001
1000
0001
,  // measure 82
0100
0010
0000
0100
0001
0010
1001
1000
,  // measure 83
0001
0100
0000
0100
0000
0010
1001
0000
,  // measure 84
1000
0000
0010
0100
0001
0000
0021
0000
,  // measure 85
0000
0130
0000
0010
,  // measure 86
0001
0000
1000
0100
0010
0000
0100
0000
,  // measure 87
0000
0010
0001
1000
,  // measure 88
0010
0000
1000
0001
0010
0000
2100
0000
,  // measure 89
0000
3001
0000
0100
,  // measure 90
0001
0000
1000
0001
0010
0000
0100
0000
,  // measure 91
0000
0000
0000
0000
0100
0010
0001
1000
0001
0000
0000
0000
0100
0000
0010
0000
,  // measure 92
1000
0021
0000
0130
,  // measure 93
0000
0000
0010
0000
0001
0000
1000
0001
,  // measure 94
0100
0001
0000
1000
,  // measure 95
0100
0000
0010
0000
0001
0000
0010
0001
,  // measure 96
0100
2010
0000
3001
,  // measure 97
0000
0000
0000
0000
0010
0000
0000
0000
0210
0000
0000
0000
1300
0100
1000
0100
,  // measure 98
1000
0100
0010
0001
1000
0100
0010
0001
1000
0000
0000
0000
0001
0000
0010
0000
,  // measure 99
0100
0010
0001
1000
,  // measure 100
0010
0000
0100
0001
1000
0000
0100
0000
,  // measure 101
0010
0000
0100
0000
1000
0001
1000
0000
,  // measure 102
0001
1000
0001
0000
0100
0000
0010
1000
,  // measure 103
0100
0000
0010
0100
1000
0100
0010
0000
,  // measure 104
0100
0010
0001
0000
0100
0010
0000
0010
,  // measure 105
0000
0000
0010
0000
0000
0000
0010
0000
1000
0000
0000
0000
0001
0010
0100
1000
,  // measure 106
0001
0000
1000
0000
0010
1000
0010
0000
,  // measure 107
1000
0010
1000
0000
0010
1000
0010
0000
,  // measure 108
1000
0000
0001
0000
0010
0100
0010
0000
,  // measure 109
0100
0010
0100
0000
0010
0100
0010
0000
,  // measure 110
0100
0010
0001
0010
0100
1000
0010
0100
,  // measure 111
0001
0010
0100
0010
0100
1000
0001
1000
,  // measure 112
0001
0100
1000
0100
0001
0010
1000
0010
,  // measure 113
0100
0010
0001
1000
0010
0100
0001
1000
,  // measure 114
0002
0003
0000
0000
;
