#VERSION:0.83;
#TITLE:5OUL ON D!SPLAY;
#SUBTITLE:-AIR SPECIAL-;
#ARTIST:daiki kasho;
#TITLETRANSLIT:;
#SUBTITLETRANSLIT:;
#ARTISTTRANSLIT:;
#GENRE:;
#ORIGIN:;
#CREDIT:;
#BANNER:5OUL ON D!SPLAY.png;
#BACKGROUND:5OUL ON D!SPLAY-bg.png;
#PREVIEWVID:;
#JACKET:5OUL ON D!SPLAY-jacket.png;
#CDIMAGE:;
#DISCIMAGE:;
#LYRICSPATH:;
#CDTITLE:cdtitle.png;
#MUSIC:5OUL ON D!SPLAY.mp3;
#OFFSET:-1.661000;
#SAMPLESTART:89.099998;
#SAMPLELENGTH:12.000000;
#SELECTABLE:YES;
#BPMS:0.000=168.000,
132.000=83.990,
136.000=167.980,
232.000=84.000,
236.000=168.000;
#STOPS:;
#DELAYS:;
#WARPS:;
#TIMESIGNATURES:0.000=4=4;
#TICKCOUNTS:0.000=4;
#COMBOS:0.000=1;
#SPEEDS:0.000=1.000=0.000=0;
#SCROLLS:0.000=1.000;
#FAKES:;
#LABELS:0.000=Song Start;
#BGCHANGES:;
#KEYSOUNDS:;
#ATTACKS:
;

//---------------dance-single - ----------------
#NOTEDATA:;
#CHARTNAME:;
#STEPSTYPE:dance-single;
#DESCRIPTION:;
#CHARTSTYLE:;
#DIFFICULTY:Challenge;
#METER:14;
#RADARVALUES:0.639318,0.745002,1.265870,0.104248,0.000000,601.000000,431.000000,170.000000,14.000000,0.000000,0.000000,0.000000,0.000000,0.000000,0.639318,0.745002,1.265870,0.104248,0.000000,601.000000,431.000000,170.000000,14.000000,0.000000,0.000000,0.000000,0.000000,0.000000;
#CREDIT:;
#NOTES:
// measure 0
0000
0000
0000
0000
,  // measure 1
0000
0000
0000
0000
,  // measure 2
0000
0000
0000
0000
,  // measure 3
1001
1000
0001
0011
0000
0001
1000
1010
,  // measure 4
0000
1000
0001
0011
0000
0001
1000
1010
,  // measure 5
0000
1000
0001
0101
0000
0001
1000
1100
,  // measure 6
0000
1000
0001
0101
0000
0001
1000
1100
,  // measure 7
0000
1000
0001
1001
0000
0001
1000
1001
,  // measure 8
0000
1000
0001
1001
0000
0001
1000
1001
,  // measure 9
0000
0100
0010
0110
0000
0010
0100
0110
,  // measure 10
0000
0100
0010
0210
0000
0320
0000
0000
,  // measure 11
1030
0001
0010
0110
0000
0100
1000
1010
,  // measure 12
0000
0010
0100
0101
0000
0001
1000
1001
,  // measure 13
0000
1000
0010
1010
0000
1000
0001
0011
,  // measure 14
0000
0010
0100
1100
0000
1000
0001
0101
,  // measure 15
0000
0001
1000
1010
0000
1000
0001
0011
,  // measure 16
0000
0010
0100
1100
0000
1000
0100
0110
,  // measure 17
0000
0010
0001
0101
0000
0100
0010
0110
,  // measure 18
0000
1010
0000
0120
0000
2030
0000
0000
,  // measure 19
3001
1000
1001
0001
,  // measure 20
0101
0100
0110
1010
,  // measure 21
0010
0110
1000
1001
,  // measure 22
0001
0010
0110
1100
,  // measure 23
0100
1100
0110
0011
,  // measure 24
0110
1100
0101
1010
,  // measure 25
0001
1000
0010
0100
,  // measure 26
0001
0000
1000
0000
0101
0001
1001
0000
,  // measure 27
1000
0001
0101
0000
0001
1000
0010
0000
,  // measure 28
1000
0100
0110
0000
0100
1000
0010
0000
,  // measure 29
0100
0010
1001
0000
0001
0010
0100
0000
,  // measure 30
0010
0001
0101
0000
0010
1000
0001
0000
,  // measure 31
1000
0100
0110
0000
0100
1000
0010
0000
,  // measure 32
0010
0100
0101
0000
1000
0001
1000
0001
,  // measure 33
1000
1000
0001
0001
0010
0100
1000
0001
,  // measure 34
1000
0010
1010
0000
0001
0100
0101
0000
,  // measure 35
0011
0110
1100
1001
,  // measure 36
0101
0001
1000
1100
0000
1000
0100
0110
,  // measure 37
0000
0010
0100
1100
0000
1000
0100
0110
,  // measure 38
0010
0001
0011
0000
0001
0100
0101
0000
,  // measure 39
0010
1000
1010
0000
1000
0001
1001
0000
,  // measure 40
0101
0001
0100
0110
0010
1000
1100
0100
,  // measure 41
0110
0010
0001
0011
0001
1000
1001
0000
,  // measure 42
0001
0010
0011
0000
0010
0100
0110
0000
,  // measure 43
1100
0110
0011
1001
,  // measure 44
0001
0100
0010
1010
0000
1000
0001
0011
,  // measure 45
0000
0010
0100
1100
0000
1000
1001
0000
,  // measure 46
0010
0100
0101
0000
0001
1000
1100
0000
,  // measure 47
0100
0010
0011
0000
0001
0100
0101
0000
,  // measure 48
0002
0000
0000
0203
0000
0000
2300
0000
,  // measure 49
0200
0000
0000
3300
,  // measure 50
1001
0001
0010
0001
,  // measure 51
0101
0001
1001
1000
,  // measure 52
1100
0100
1000
0010
,  // measure 53
0100
0110
1010
0110
,  // measure 54
0101
0001
0010
0100
,  // measure 55
0110
0010
0011
0001
,  // measure 56
1001
0001
0100
0010
,  // measure 57
1010
0010
0100
0001
,  // measure 58
1000
0100
0001
0010
1000
0001
1000
1001
,  // measure 59
0010
1000
1010
0000
0100
0001
0101
0000
,  // measure 60
0011
0110
0011
1001
,  // measure 61
1001
0001
0010
0110
0000
0100
1000
1010
,  // measure 62
0000
0010
0100
0101
0000
0001
1001
0000
,  // measure 63
1000
0010
0110
0000
0100
0001
0011
0000
,  // measure 64
0010
0001
0101
0000
0100
0010
0110
0000
,  // measure 65
1010
0010
0100
0101
0001
0010
0110
0100
,  // measure 66
1100
1000
0100
0110
0010
0001
0011
0000
,  // measure 67
0001
0100
0110
0000
0010
1000
1010
0000
,  // measure 68
1001
0011
1001
1100
,  // measure 69
1001
0001
0100
0110
0000
1000
0010
0110
,  // measure 70
0000
0100
0001
0011
0000
0010
0110
0000
,  // measure 71
1001
0101
1100
0101
,  // measure 72
0011
1010
0011
1001
,  // measure 73
0102
0000
0000
0023
0000
0000
0230
0000
,  // measure 74
0020
0000
0000
0000
0000
0000
0000
0330
,  // measure 75
0011
0001
0100
1000
,  // measure 76
0110
0010
1010
0001
,  // measure 77
1001
0101
0011
0110
,  // measure 78
1100
0110
0012
1003
,  // measure 79
0101
0001
0010
0100
,  // measure 80
1100
0010
0110
0010
,  // measure 81
0011
0001
0100
0010
,  // measure 82
1001
0001
1000
0010
,  // measure 83
0110
0010
1000
0001
,  // measure 84
0011
0010
0110
0100
,  // measure 85
1100
0110
0011
0110
,  // measure 86
1100
0110
0012
1003
,  // measure 87
0110
0000
0000
0000
;
