#TITLE:passionate fate;
#SUBTITLE:;
#ARTIST:Ryu*;
#TITLETRANSLIT:;
#SUBTITLETRANSLIT:;
#ARTISTTRANSLIT:;
#CREDIT:;
#BANNER:bn.png;
#BACKGROUND:bg.png;
#LYRICSPATH:;
#CDTITLE:;
#MUSIC:2.01. passionate fate.mp3;
#OFFSET:-0.312;
#SAMPLESTART:16.960;
#SAMPLELENGTH:12.000;
#SELECTABLE:YES;
#BPMS:0.000=149.000;
#STOPS:140.000=1.208
;
#BGCHANGES:;

//---------------dance-single - ----------------
#NOTES:
     dance-single:
     :
     Hard:
     8:
     0.490,0.636,0.391,0.425,0.153:
0000
0000
0000
0000
,
0000
0000
0000
0000
,
0000
0000
0000
0000
,
0000
0000
0000
0000
,
0000
0000
0000
0000
,
0000
0000
0000
0000
,
0001
0000
1100
0000
,
0001
0000
1010
0000
,
0010
0000
0100
0000
,
0010
1000
0001
0220
,
0330
0000
0000
0000
,
1001
0110
1001
0000
,
0101
1010
1100
0000
,
1100
0011
0101
1010
,
1001
0000
0001
0100
0020
0000
1000
0000
,
0130
0010
1000
0000
0001
0010
0001
0000
,
0100
1000
0010
0000
0100
0010
1000
0001
,
0010
0000
0000
0100
1000
0010
0200
0002
,
0000
0000
0000
0303
0000
0000
0020
0000
,
0130
0000
0000
0010
0000
0000
1000
0000
0100
0000
0000
0001
0000
0000
0100
0000
,
1000
0010
0000
0100
0010
1000
0001
0010
,
0200
0000
0000
0000
0300
0000
0010
0000
0001
0000
0000
0100
0000
0000
0020
0000
,
0000
0030
0000
0100
0010
1000
0001
0010
,
0100
0000
0000
0100
0000
0000
1000
0000
1000
0000
0000
1000
0000
0000
0001
0000
,
1100
0200
0000
1300
1001
0010
0100
0010
,
0011
0000
0000
0011
0000
0000
1100
0000
1001
0000
0000
0101
0000
0000
2020
0000
,
0000
3030
0000
0000
0000
0000
0000
0000
,
1000
0001
0010
0001
0000
0100
0000
0100
,
2002
3003
2002
3003
2002
3003
0100
0010
,
1000
0100
0001
0100
0000
0100
1000
0010
,
0200
0310
0200
0301
0200
1300
0200
0310
,
0010
1000
0001
0010
0000
0010
0000
0010
,
0220
0330
0220
0330
0220
0330
0100
1000
,
0010
0000
0100
0010
1000
0000
0001
0010
,
0200
1000
0001
1000
,
0300
0000
0000
0000
1001
0000
0000
0001
0000
0000
0100
0000
1000
0000
0000
0100
,
0000
0001
0010
0100
0000
0100
1000
0100
,
0010
0000
0001
0000
0100
0000
0000
0000
0000
0000
0010
0000
0010
0000
0000
1000
,
0000
0002
0000
0003
0000
0001
0100
0010
,
1000
0000
0010
0000
0100
0000
0000
0001
0000
0000
0100
0000
0001
0000
0000
0010
,
0000
0001
1000
0200
0000
1300
0001
0010
,
1000
0000
0010
0000
0011
0000
0000
0000
0000
0000
0000
0000
0101
0000
0000
1010
,
0000
1001
0000
1100
0000
0011
0000
0101
,
0101
0000
0000
0000
0002
0000
0000
1003
0000
0000
0100
0000
2000
0000
0000
3010
,
0000
0100
0010
1000
0100
0001
0100
1000
,
0010
0000
0100
0000
0020
0000
0000
1030
0000
0000
0010
0000
0200
0000
0000
0301
,
0000
0000
0100
0000
0010
0000
1000
0000
0100
0000
0010
0000
0001
0000
0000
0001
,
0000
0000
0001
0000
0200
0000
0000
0310
0000
0000
0010
0000
0020
0000
0000
0130
,
0000
0010
0100
0010
1000
0001
0010
0100
,
0010
0000
0100
0000
0020
0000
0000
0031
0000
0000
0001
0000
0200
0000
0000
0310
,
0000
0100
1001
1001
0000
0000
0000
0000
,
0000
1000
0000
0001
,
0000
0100
0000
0010
,
0010
0200
0300
0010
,
2000
0200
0000
0000
,
3300
0000
0000
0000
0001
0000
0000
0010
0000
0000
0100
0000
0010
0000
0000
0001
,
0000
0100
0010
2000
0000
3100
1000
0010
,
0100
0000
0010
0000
2000
0000
0000
0000
0000
0000
3001
0000
0001
0000
0000
0001
,
0000
0020
0100
0000
0100
0000
0100
0000
,
0100
0000
0030
0000
0100
0000
0000
0010
0000
0000
0001
0000
0100
0000
0000
0010
,
0000
1000
0001
0020
0000
0130
1000
0100
,
0001
0000
0100
0000
0020
0000
0000
0000
0031
0000
0001
0000
1000
0000
0000
0100
,
0000
0000
0000
2000
0000
0000
0000
0000
0000
3000
0000
0000
0000
0000
0000
0000
0000
0000
1000
0000
0001
0000
0010
0000
,
0100
0000
0000
0000
1000
0000
0000
1000
0000
0000
0001
0000
0010
0000
0000
0100
,
0000
0010
0001
0100
0000
0100
0010
1000
,
0001
0000
0010
0000
0200
0000
0000
0000
0300
0000
0010
0100
0010
0000
0000
0100
,
0000
0000
0010
0000
0011
0000
0000
1100
0000
0000
0101
0000
0000
1010
0000
0000
,
1001
0101
2020
0000
0000
0000
0000
0000
,
3030
0000
0000
0000
;

//---------------dance-single - ----------------
#NOTES:
     dance-single:
     :
     Medium:
     6:
     0.335,0.458,0.417,0.085,0.009:
0000
0000
0000
0000
,
0000
0000
0000
0000
,
0000
0000
0000
0000
,
0000
0000
0000
0000
,
0000
0000
0000
0000
,
0000
0000
0000
0000
,
0001
0000
1000
0000
,
0010
0000
0100
0000
,
0001
0000
1000
0000
,
0010
0010
0010
0202
,
0303
0000
0000
0000
,
0001
0001
1000
0000
,
0010
0010
0100
0000
,
0010
0010
1000
0001
,
0001
0001
1000
0000
,
1001
0010
1001
0100
,
1001
0000
0001
0100
,
1010
0000
0000
0000
0010
1000
0100
0010
,
0000
0000
0000
1100
,
1000
0001
0100
0001
,
0010
0100
0000
0100
1000
0010
0100
0001
,
1000
0001
0100
0100
,
0200
0300
0010
1000
,
1001
0000
0101
0000
,
1010
0000
0110
1001
,
0101
0000
0000
0000
0000
0000
0000
0000
0001
0000
0000
0001
0000
0000
0101
0000
,
0000
0000
0000
0000
,
0001
0100
1000
0100
,
0110
0000
0101
0000
1001
0000
1000
0100
,
0010
0100
1000
0001
,
0100
0001
0100
0000
0001
0100
0001
0000
,
0100
0100
0010
0010
,
0101
0101
1100
0101
,
1001
0010
1001
0100
,
0202
0000
0000
0000
,
0303
0101
0010
0101
,
0010
0000
0101
0000
0000
0000
0001
1000
,
0001
0000
1100
0000
0000
0000
1000
0010
,
0100
0001
0000
0000
0000
0000
1000
0000
,
1000
0110
0010
0110
,
0100
0110
0000
0010
,
1000
0000
2002
0000
3003
0000
0001
0100
,
0010
2000
0000
0100
0000
0100
0000
0100
,
3100
1000
0010
0100
,
0001
0000
1000
0001
0100
0001
0010
0000
,
0010
0100
1000
0010
,
0100
0000
0001
0100
0010
1000
0100
0000
,
0100
0100
1000
0010
,
0100
0000
0001
0100
0001
0100
0010
0100
,
0010
0100
0010
0000
1000
0000
0001
0000
,
0100
0000
0101
0101
0000
0000
0000
0000
,
0000
0001
0000
0001
,
0000
1000
0000
0001
,
0001
0100
0000
0010
,
0010
0010
0000
0000
,
0110
1001
0010
1001
,
0010
0000
1001
0000
0000
0000
0001
0100
,
0010
1000
0001
0000
0000
0000
1000
0001
,
0010
0200
0000
0000
0000
0000
0300
0000
,
0000
0110
0010
1001
,
0010
0000
0110
0000
0000
0000
0100
0010
,
1000
1001
0010
0101
,
1100
1001
0000
1001
,
0110
1001
0010
0101
,
0010
0000
0101
0000
0010
0000
1000
0010
,
0100
0000
0001
0000
1000
0000
0000
0000
0000
0000
0000
0000
1000
0000
0000
0001
,
0000
0200
0000
0000
0000
0000
0000
0000
,
0000
0300
0000
0000
;

//---------------dance-single - ----------------
#NOTES:
     dance-single:
     :
     Easy:
     3:
     0.215,0.376,0.111,0.102,0.000:
0000
0000
0000
0000
,
0000
0000
0000
0000
,
0000
0000
0000
0000
,
0000
0000
0000
0000
,
0000
0000
0000
0000
,
0000
0000
0000
0000
,
0001
0000
1000
0000
,
0001
0000
1000
0000
,
0010
0000
0100
0000
,
0001
0100
0001
0202
,
0303
0000
0000
0000
,
0010
0010
0010
0000
,
0100
0100
0100
0000
,
1000
0010
0100
0001
,
1000
0001
0000
0000
,
1000
0000
0001
0000
,
0010
0000
0100
0100
,
0010
0000
0010
0001
,
0200
0000
0300
0000
,
0010
0000
1000
0000
,
0001
0000
0001
0010
,
0001
0000
0100
0100
,
0100
0000
0010
1000
,
0100
0000
0100
0000
,
0100
0000
0100
1000
,
0010
0000
0100
0001
,
1000
0000
0000
0000
,
0010
0000
0000
0000
,
2002
0000
3003
0000
,
0100
0000
0000
0000
,
0110
0110
0110
0110
,
0000
0000
0000
0000
,
2002
0000
0000
3003
,
0001
0000
1000
0000
,
0220
0000
0000
0000
,
0330
0100
1000
0010
,
0100
0001
0000
0001
,
0001
1000
0000
1000
,
0010
0100
0000
0010
,
1000
0001
0000
1000
,
0000
0010
0000
0100
,
0100
0001
0000
1000
,
0010
0200
0000
0000
,
0300
0010
0000
1000
,
0000
0010
0100
0001
,
0010
0100
0000
0010
,
0000
0001
0001
1000
,
0000
0001
0000
0010
,
0000
0001
0001
1000
,
1000
0010
0000
0100
,
0000
0000
0010
0100
0000
0000
0000
0000
,
0000
0001
0000
0000
,
0000
0000
0000
0000
,
0000
1000
0000
0000
,
0000
0000
0000
0000
,
0000
0100
0100
1000
,
1000
0010
0100
0001
,
0010
0100
0000
0010
,
0001
1001
1001
1001
,
1001
0001
1000
0100
,
1000
0001
0100
0001
,
1000
0100
1000
0001
,
0100
0001
0000
0000
,
0000
0001
1000
0010
,
1000
0001
0010
0001
,
1000
0010
0100
0001
,
0010
0100
1000
0010
,
0100
0202
0000
0000
,
0303
0000
0000
0000
;

//---------------dance-single - ----------------
#NOTES:
     dance-single:
     :
     Beginner:
     1:
     0.089,0.200,0.017,0.009,0.000: // measure 1
0000
0000
0000
0000
,  // measure 2
0000
0000
0000
0000
,  // measure 3
0000
0000
0000
0000
,  // measure 4
0000
0000
0000
0000
,  // measure 5
0000
0000
0000
0000
,  // measure 6
0000
0000
0000
0000
,  // measure 7
0010
0000
0000
0000
,  // measure 8
1000
0000
0000
0000
,  // measure 9
0001
0000
0000
0000
,  // measure 10
1000
0000
0001
0000
,  // measure 11
0000
0000
0000
0000
,  // measure 12
0010
0000
0000
0000
,  // measure 13
0100
0000
0000
0000
,  // measure 14
0001
0000
0000
0000
,  // measure 15
1000
0000
0000
0000
,  // measure 16
0010
0000
0000
0000
,  // measure 17
1000
0000
0000
0000
,  // measure 18
0001
0000
0001
0000
,  // measure 19
0001
0000
0000
0000
,  // measure 20
1000
0000
0000
0000
,  // measure 21
0010
0000
0000
0000
,  // measure 22
0100
0000
0000
0000
,  // measure 23
0001
0000
0000
0000
,  // measure 24
1000
0000
0000
0000
,  // measure 25
1000
0000
0001
0000
,  // measure 26
0100
0000
0010
0010
,  // measure 27
0010
0000
0000
0000
,  // measure 28
0000
0000
0000
0000
,  // measure 29
0100
0100
0100
0000
,  // measure 30
0000
0000
0000
0000
,  // measure 31
1000
0000
0001
0000
,  // measure 32
0000
0000
0000
0000
,  // measure 33
0010
0010
0010
0010
,  // measure 34
0100
0000
0000
0000
,  // measure 35
1001
0000
0000
0000
,  // measure 36
0000
0010
0000
0000
,  // measure 37
0000
0000
0000
0000
,  // measure 38
0000
1000
0000
0000
,  // measure 39
0000
0000
0000
0001
,  // measure 40
0000
0001
0000
0000
,  // measure 41
0000
0100
0000
0000
,  // measure 42
0000
0010
0000
0010
,  // measure 43
0000
0010
0000
0000
,  // measure 44
0000
1000
0000
0000
,  // measure 45
0000
0001
0000
1000
,  // measure 46
0000
0010
0000
0000
,  // measure 47
0000
0100
0000
0000
,  // measure 48
0000
0100
0000
0000
,  // measure 49
0000
0010
0000
0000
,  // measure 50
0000
1000
0000
0000
,  // measure 51
0000
1001
0000
0000
,  // measure 52
0000
0001
0000
0000
,  // measure 53
0000
0000
0000
0000
,  // measure 54
0000
1000
0000
0000
,  // measure 55
0000
0000
0000
0000
,  // measure 56
0010
0100
0000
0000
,  // measure 57
0000
0010
0000
0000
,  // measure 58
0000
1000
0000
0001
,  // measure 59
0000
0100
0000
0000
,  // measure 60
0000
0010
0000
0000
,  // measure 61
0000
0100
0000
0000
,  // measure 62
0000
0001
0000
0000
,  // measure 63
0000
1000
0000
0000
,  // measure 64
0000
0001
0000
0000
,  // measure 65
0000
1000
0000
0000
,  // measure 66
0000
0010
0000
0100
,  // measure 67
0000
0020
0000
0000
,  // measure 68
0000
0030
0000
0000
;
