#TITLE:When the sun comes down;
#SUBTITLE:(Radio Mix);
#ARTIST:R.I.O.;
#TITLETRANSLIT:;
#SUBTITLETRANSLIT:;
#ARTISTTRANSLIT:;
#CREDIT:;
#BANNER:bn.png;
#BACKGROUND:bg.png;
#LYRICSPATH:;
#CDTITLE:;
#MUSIC:When the sun comes down (Radio Mix).mp3;
#OFFSET:0.068;
#SAMPLESTART:92.480;
#SAMPLELENGTH:12.000;
#SELECTABLE:YES;
#BPMS:0.000=128.000,131.000=64.000,147.000=128.000;
#STOPS:146.500=1.875
;
#BGCHANGES:;

//---------------dance-single - ----------------
#NOTES:
     dance-single:
     :
     Hard:
     6:
     0.292,0.341,0.195,0.097,0.206:
0000
0000
0000
0000
,
0000
0000
0000
0000
,
0000
0000
0000
0000
,
0000
0000
0000
0000
,
0000
0000
0000
0000
,
0000
0000
0000
0000
,
0000
0000
0000
0000
,
0000
0000
0000
0000
,
0000
0000
0000
1000
,
0001
0010
1000
0010
,
0001
0100
1000
0100
,
0001
0010
0100
1000
,
0001
0100
0010
1000
,
0100
0010
0100
1000
,
0001
0100
0010
0200
,
0000
0320
0000
2000
,
0000
0000
0000
0000
3030
0000
0000
0000
0000
0000
0000
0000
0101
0000
0000
0100
,
0000
0000
0010
0000
0000
0000
1000
0000
0000
0001
0000
0000
0100
0000
0000
0010
,
0000
0000
1000
0000
0000
0000
1000
0000
0000
0001
0000
0000
0100
0000
0000
0010
,
0000
0000
1000
0000
0000
0000
0001
0000
0000
0100
0000
0000
0010
0000
0000
1000
,
0000
0000
0100
0000
0000
0000
1000
0000
0000
0100
0000
0000
0010
0000
0000
0010
,
0000
0000
0100
0000
0000
0000
0010
0000
0000
0001
0000
0000
0100
0000
0000
0100
,
0000
0000
0001
0000
0000
0000
1000
0000
0000
0001
0000
0000
0100
0000
0000
0000
,
0000
0000
0000
0010
2000
0000
0000
3100
,
0000
0000
0000
0000
0000
0000
0010
0000
0000
0100
0000
0000
0110
0000
0000
0010
,
0000
0000
1000
0000
0000
0000
0010
0000
0000
0001
0000
0000
0100
0000
0000
0010
,
0000
0000
0110
0000
0000
0000
0010
0000
0000
1000
0000
0000
0001
0000
0000
0100
,
0000
0000
1010
0000
0000
0000
1000
0000
0000
0100
0000
0000
0010
0000
0000
0001
,
0000
0000
0011
0000
0000
0000
0001
0000
0000
0100
0000
0000
0110
0000
0000
0010
,
0000
0000
0110
0000
0000
0000
0010
0000
0000
1000
0000
0000
1001
0000
0000
0010
,
0000
0000
1001
0000
0000
0000
0001
0000
0000
0100
0000
0000
0010
0000
0000
0000
,
0000
0000
0000
0010
2000
0000
0000
0000
,
0000
0002
0000
0000
3003
0000
1001
0000
,
0010
0000
0100
0010
1000
0000
0001
0000
,
0001
0000
0001
0100
0001
1000
0100
0000
,
0100
0000
0100
1000
0010
0100
0001
0010
,
0000
0010
0000
0000
0000
0000
0100
0000
0000
0000
0100
0000
1001
0000
0000
0000
,
1000
0001
0100
0001
,
1000
0100
0100
1000
,
0010
0100
0100
0100
,
0010
1000
0001
0010
,
0001
0100
0100
0100
,
0010
1000
1000
1000
,
0010
1000
0001
0200
,
0000
0000
0000
0000
0300
0000
0010
0000
0000
1000
0000
0000
1001
0000
0000
1000
,
0000
0000
1000
0000
0000
0000
0001
0000
0000
0100
0000
0000
0010
0000
0000
0010
,
0000
0000
0010
0000
0000
0000
0100
0000
0000
0010
0000
0000
1000
0000
0000
1000
,
0000
0000
1000
0000
0000
0000
0001
0000
0000
0010
0000
0000
0100
0000
0000
0100
,
0000
0000
0100
0000
0000
0000
0100
0000
0000
1000
0000
0000
0010
0000
0000
0010
,
0000
0000
0010
0000
0000
0000
1000
0000
0000
0001
0000
0000
0010
0000
0000
0010
,
0000
0000
0010
0000
0000
0000
0010
0000
0000
0001
0000
0000
0100
0000
0000
0000
,
0000
0000
0000
0010
2000
0000
0000
0200
,
0000
0000
3300
0000
0000
0000
1000
0000
0000
0001
0000
0000
0101
0000
0000
0100
,
0000
0000
0101
0000
0000
0000
0001
0000
0000
0100
0000
0000
1010
0000
0000
0010
,
0000
0000
1010
0000
0000
0000
1000
0000
0000
0001
0000
0000
0101
0000
0000
0100
,
0000
0000
1010
0000
0000
0000
1000
0000
0000
0001
0000
0000
0101
0000
0000
0100
,
0000
0000
1100
0000
0000
0000
0100
0000
0000
0010
0000
0000
1010
0000
0000
0001
,
0000
0000
0101
0000
0000
0000
0001
0000
0000
1000
0000
0000
1100
0000
0000
0100
,
0000
0000
0110
0000
0000
0000
0010
0000
0000
0001
0000
0000
0010
0000
0000
0000
,
0000
0000
0000
0010
0200
0000
0000
0000
,
0000
0020
0000
0000
0330
0000
0011
0000
,
0000
0000
0000
0000
1000
0000
0000
1000
0000
0000
0001
0000
0100
0000
0000
0000
,
0000
0000
0000
0000
0010
0000
0000
1000
0000
0000
0001
0000
0100
0000
0000
0000
,
0000
0000
0000
0000
0010
0000
0000
1000
0000
0000
0100
0000
1000
0000
0000
0000
,
0000
0000
0000
0022
,
0033
0000
0000
0000
;

//---------------dance-single - ----------------
#NOTES:
     dance-single:
     :
     Medium:
     5:
     0.259,0.316,0.127,0.105,0.097:
0000
0000
0000
0000
,
0000
0000
0000
0000
,
0000
0000
0000
0000
,
0000
0000
0000
0000
,
0000
0000
0000
0000
,
0000
0000
0000
0000
,
0000
0000
0000
0000
,
0000
0000
0000
0000
,
0000
0000
0000
0001
,
1000
0100
0100
1000
,
0010
0100
0100
0010
,
1000
0001
0001
0010
,
0100
0010
0010
0002
,
0000
0103
0000
0000
0020
0000
0000
0130
,
0000
0000
0000
0020
,
0000
0032
0000
2000
,
0000
3003
0000
0110
,
0010
0010
0100
1001
,
1000
1000
0001
0101
,
0001
0010
0100
1000
,
0001
0100
0001
0011
,
0010
0100
1000
1100
,
1000
0001
0100
0101
,
0001
0000
0010
0000
0200
0000
0000
0020
,
0000
0000
0330
0011
,
0000
0000
0000
0000
0001
0000
0000
1000
0000
0000
0100
0000
0010
0000
0000
0000
,
0000
0000
0000
0000
0100
0000
0000
1000
0000
0000
0010
0000
0100
0000
0000
0000
,
0000
0000
0000
0000
0010
0000
0000
1000
0000
0000
0001
0000
0010
0000
0000
0000
,
0100
1000
0010
0100
,
0000
0000
0000
0000
0010
0000
0000
1000
0000
0000
0001
0000
0010
0000
0000
0000
,
0000
0000
0000
0000
0001
0000
0000
0010
0000
0000
0100
0000
0010
0000
0000
0000
,
0000
0000
0000
0001
0200
0000
0000
0000
,
0000
0020
0000
0330
0000
0000
1001
0000
,
0010
0000
0100
0010
1000
0000
0001
0000
,
0001
0000
0001
0100
0001
1000
0100
0000
,
0100
0000
0100
1000
0010
0100
0001
0010
,
0000
0010
0000
0000
0000
0000
0100
0000
0000
0000
0100
0000
0000
0000
0000
0000
,
0000
0000
0000
0000
0010
0000
0000
0001
0000
0000
0100
0000
0100
0000
0000
0000
,
0000
0000
0000
0000
0010
0000
0000
1000
0000
0000
0010
0000
0010
0000
0000
0000
,
0000
0000
0000
0000
0100
0000
0000
0001
0000
0000
1000
0000
1000
0000
0000
0000
,
0000
0000
0000
0000
,
0000
0000
0000
0000
0010
0000
0000
1000
0000
0000
0100
0000
0100
0000
0000
0000
,
0000
0000
0000
0000
1000
0000
0000
0010
0000
0000
0100
0000
0100
0000
0000
0000
,
0000
0000
0000
0000
0010
0000
0000
1000
0000
0000
0001
0000
0001
0000
0000
0000
,
0000
0000
0000
1001
,
0110
0000
0000
0000
0010
0000
0000
1000
0000
0000
0010
0000
0100
0000
0000
0000
,
0010
0000
0000
0000
1000
0000
0000
0010
0000
0000
0100
0000
0001
0000
0000
0000
,
0010
0000
0000
0000
0100
0000
0000
1000
0000
0000
0010
0000
0100
0000
0000
0000
,
0100
0100
0100
0110
,
0010
0000
0000
0000
0100
0000
0000
0010
0000
0000
1000
0000
0001
0000
0000
0000
,
0010
0000
0000
0000
0100
0000
0000
1000
0000
0000
0010
0000
0100
0000
0000
0000
,
0010
0000
0000
0000
1000
0000
0000
0001
0000
0000
0100
0000
0020
0000
0000
0000
,
0000
0030
0000
0110
,
0110
0000
0000
0000
0010
0000
0000
1000
0000
0000
0001
0000
0010
0000
0000
0000
,
0011
0000
0000
0000
0001
0000
0000
0010
0000
0000
0100
0000
1000
0000
0000
0000
,
1100
0000
0000
0000
1000
0000
0000
0100
0000
0000
0010
0000
0100
0000
0000
0000
,
0100
0100
0100
0100
,
0110
0000
0000
0000
0010
0000
0000
0001
0000
0000
0100
0000
0010
0000
0000
0000
,
1000
0000
0000
0000
0010
0000
0000
1000
0000
0000
0010
0000
1000
0000
0000
0000
,
0100
1000
0020
0000
,
0000
0200
0000
0000
0330
0000
0000
0000
,
0000
0000
0000
0000
0010
0000
0000
0010
0000
0000
0010
0000
0010
0000
0000
0000
,
0000
0000
0000
0000
0100
0000
0000
0100
0000
0000
0100
0000
0100
0000
0000
0000
,
0000
0000
0000
0000
0001
0000
0000
0001
0000
0000
0001
0000
0001
0000
0000
0000
,
0000
0000
1000
0001
0100
0000
0022
0000
,
0033
0000
0000
0000
;

//---------------dance-single - ----------------
#NOTES:
     dance-single:
     :
     Easy:
     3:
     0.184,0.219,0.037,0.097,0.000:
0000
0000
0000
0000
,
0000
0000
0000
0000
,
0000
0000
0000
0000
,
0000
0000
0000
0000
,
0000
0000
0000
0000
,
0000
0000
0000
0000
,
0000
0000
0000
0000
,
0000
0000
0000
0000
,
0000
0000
0000
0100
,
0100
0010
0000
0010
,
1000
0010
0000
0100
,
0001
1000
0000
1000
,
0010
0100
0000
0020
,
0000
0030
0000
0000
0200
0000
0000
0300
,
0000
0000
0000
0020
,
0000
2030
0000
0002
,
0000
3003
0000
0000
0000
0000
0101
0000
,
0000
0001
0100
0010
,
0000
0100
0100
0010
,
0000
1000
1000
0001
,
0000
0000
0000
0110
,
0000
0100
0100
0001
,
0000
1000
1000
0010
,
0000
0000
0000
0000
0200
0000
0000
0020
,
0000
0330
0000
0010
,
0010
1000
0000
1000
,
0001
0100
0000
0001
,
0001
0010
0000
0010
,
0010
0100
0000
0100
,
1000
0001
0000
1000
,
0010
0100
0000
0001
,
0100
1000
0100
0001
,
0010
0001
0100
0010
,
0000
0000
0000
1000
,
0000
0001
0001
0100
,
0000
0010
0000
1000
,
0000
0001
0000
0000
,
0000
0010
0010
0010
,
0000
0010
0010
0010
,
0000
0010
0010
0010
,
0000
0000
0000
0000
,
0000
0100
0100
0100
,
0000
0100
0100
0100
,
0000
0100
0100
0100
,
0000
0000
0010
1001
,
1000
1000
0001
0100
,
0001
0010
0001
0100
,
0100
0100
0010
1000
,
1000
1000
0010
0100
,
0100
0100
0010
1000
,
1000
1000
0001
0100
,
0000
0000
0000
0000
0020
0000
0000
0200
,
0000
0330
0000
0010
,
1000
0001
0010
1000
,
0010
0001
0100
0010
,
0010
0010
0100
0010
,
0010
0010
0100
0001
,
1000
0100
0001
0100
,
1000
0010
0100
0001
,
0000
0000
2000
0000
,
0000
0020
0000
0000
3030
0000
0110
0000
,
0000
0010
0010
1000
,
0000
0001
0001
0100
,
0000
0010
0010
0100
,
0000
0000
0000
2002
,
3003
0000
0000
0000
;

//---------------dance-single - ----------------
#NOTES:
     dance-single:
     :
     Beginner:
     1:
     0.066,0.073,0.015,0.030,0.000: // measure 1
0000
0000
0000
0000
,  // measure 2
0000
0000
0000
0000
,  // measure 3
0000
0000
0000
0000
,  // measure 4
0000
0000
0000
0000
,  // measure 5
0000
0000
0000
0000
,  // measure 6
0000
0000
0000
0000
,  // measure 7
0000
0000
0000
0000
,  // measure 8
0000
0000
0000
0000
,  // measure 9
0000
0000
0000
0010
,  // measure 10
0000
0000
0000
1000
,  // measure 11
0000
0000
0000
0001
,  // measure 12
0000
0000
0000
0010
,  // measure 13
0000
0000
0000
0100
,  // measure 14
0000
0000
1000
0000
,  // measure 15
0000
0000
0000
0010
,  // measure 16
0000
0100
0000
0001
,  // measure 17
0000
0000
0000
1000
,  // measure 18
0000
0000
0000
0001
,  // measure 19
0000
0000
0000
0100
,  // measure 20
0000
0000
0000
0010
,  // measure 21
0000
0000
0000
1000
,  // measure 22
0000
0000
0000
0010
,  // measure 23
0000
0000
0000
0001
,  // measure 24
0000
0000
0200
0000
,  // measure 25
0300
0000
0000
0010
,  // measure 26
0000
0000
0000
1000
,  // measure 27
0000
0000
0000
0001
,  // measure 28
0000
0000
0000
0010
,  // measure 29
0000
0000
0000
0100
,  // measure 30
0000
0000
0000
0010
,  // measure 31
0000
0000
0000
0001
,  // measure 32
0000
0000
2000
0000
,  // measure 33
3000
0000
0000
1000
,  // measure 34
0000
0000
0000
0010
,  // measure 35
0000
0000
0000
0100
,  // measure 36
0000
0000
0000
0001
,  // measure 37
0000
0000
0000
1000
,  // measure 38
0000
0000
0000
0000
,  // measure 39
0000
1000
0000
0000
,  // measure 40
0000
0001
0000
0000
,  // measure 41
0000
0000
0000
0100
,  // measure 42
0000
0010
0000
0000
,  // measure 43
0000
0010
0000
0000
,  // measure 44
0000
0010
0000
0000
,  // measure 45
0000
0000
0000
1001
,  // measure 46
0000
0000
0000
0010
,  // measure 47
0000
0000
0000
0100
,  // measure 48
0000
0000
0000
0001
,  // measure 49
0000
0000
0000
1000
,  // measure 50
0000
0000
0000
0010
,  // measure 51
0000
0000
0000
0100
,  // measure 52
0000
0000
0002
0000
,  // measure 53
0003
0000
0000
1000
,  // measure 54
0000
0000
0000
0010
,  // measure 55
0000
0000
0000
0100
,  // measure 56
0000
0000
0000
0001
,  // measure 57
0000
0000
0000
0010
,  // measure 58
0000
0000
0000
0100
,  // measure 59
0000
0000
0000
1000
,  // measure 60
0000
0000
0020
0000
,  // measure 61
0030
0000
0000
0000
,  // measure 62
0000
0100
0000
0000
,  // measure 63
0000
0100
0000
0000
,  // measure 64
0000
0100
0000
0000
,  // measure 65
0000
0000
0000
1001
;
