#TITLE:Venus;
#SUBTITLE:;
#ARTIST:Darren Tate;
#TITLETRANSLIT:;
#SUBTITLETRANSLIT:;
#ARTISTTRANSLIT:;
#CREDIT:;
#BANNER:bn.png;
#BACKGROUND:bg.png;
#LYRICSPATH:;
#CDTITLE:;
#MUSIC:Venus.ogg;
#OFFSET:-0.043;
#SAMPLESTART:53.780;
#SAMPLELENGTH:12.000;
#SELECTABLE:YES;
#BPMS:0.000=138.250;
#STOPS:123.500=1.736
;
#BGCHANGES:;

//---------------dance-single - ----------------
#NOTES:
     dance-single:
     :
     Hard:
     5:
     0.242,0.358,0.127,0.068,0.000:
0000
0000
0000
0000
,
0000
0000
0000
0000
,
0000
0000
0000
0000
,
0000
0000
0000
0000
,
0000
0000
0000
0000
,
0000
0000
0000
0000
,
0000
0000
0000
0000
,
0000
0000
0000
0000
,
0000
0001
0000
0001
0000
0001
0000
0001
,
0000
0001
0000
0001
0000
0001
0000
0001
,
0000
0000
0000
0000
,
0000
0000
0000
0000
0000
0100
0010
1000
,
0000
0100
0000
0100
0000
0100
0000
0100
,
0000
0100
0000
0100
0000
0100
0000
0100
,
0000
0010
0000
0010
0000
0010
0000
0010
,
0000
0010
0000
0010
0000
0010
0000
0010
,
0002
0000
0000
0000
,
0000
0000
0000
0000
,
2003
0000
0000
0000
,
0000
0000
0000
0000
,
3020
0000
0000
0000
,
0000
0000
0000
0000
,
0230
0000
0000
0000
,
0000
0000
0000
0000
,
0300
0020
0000
0000
0000
0000
0000
0000
,
0000
0000
0000
0000
,
0030
2000
0000
0000
0000
0000
0000
0000
,
0000
0000
0000
0000
,
3000
0200
0000
0000
0000
0000
0000
0000
,
0000
0000
0000
0000
,
0300
0000
0000
0000
,
1001
0010
0000
0010
0000
0010
0000
0010
,
0000
0010
0000
0010
0000
0010
0000
0010
,
0000
1000
0000
1000
0000
1000
0000
1000
,
0000
1000
0000
1000
0000
1000
0000
1000
,
0000
0001
0000
0001
0000
0001
0000
0001
,
0000
0001
0000
0001
0000
0001
0000
0001
,
0000
0100
0000
0100
0000
0100
0000
0100
,
0000
0100
0000
0100
0000
0100
0000
0100
,
0010
1000
0010
0100
,
0001
0000
0010
0000
0001
0000
0100
0010
,
1000
0001
1000
0100
,
1000
0000
0010
0000
0100
0000
0001
0010
,
0100
1000
0010
0100
,
0001
0000
1000
0000
0100
0000
1000
0100
,
1000
0010
0100
0001
,
0010
0000
0100
0000
0010
0001
0010
0100
,
0010
0001
0000
1000
0000
0100
0000
1000
,
0000
0010
0000
0100
0000
0001
0000
0010
,
0000
0011
0000
0011
0000
0011
0000
0011
,
0000
1100
0000
1100
0000
1100
0000
1100
,
0000
1001
0000
0001
0000
0100
0000
0001
,
0000
0011
0000
0001
0000
0100
0000
0010
,
0000
1010
0000
0010
0000
1000
0000
0001
,
0000
0010
0000
0100
0000
1000
0000
0100
,
1000
0010
1000
0000
0010
0100
0010
0000
,
0100
0010
1000
0000
0001
0000
1001
0000
,
0001
1000
0100
0000
1000
0100
0010
0000
,
0010
0001
0100
0000
0101
0000
1010
0000
,
0010
1000
0000
0100
0000
0010
0000
0001
,
0000
0010
0000
0100
0000
1000
0000
0001
,
0000
1000
0000
1000
0000
0001
0000
0001
,
0000
1000
0000
0001
0000
0010
0000
0100
,
0020
0000
0000
0000
,
0000
0000
0000
0000
,
0030
0000
0000
0000
;

//---------------dance-single - ----------------
#NOTES:
     dance-single:
     :
     Challenge:
     8:
     0.459,0.661,0.008,0.644,0.000:
0000
0000
0000
0000
,
0000
0000
0000
0000
,
0000
0000
0000
0000
,
0000
0000
0000
0000
,
0000
0000
0000
0000
,
0000
0000
0000
0000
,
0000
0000
0000
0000
,
0000
0000
0000
0000
,
0001
1000
0001
1000
0001
1000
0001
1000
,
0001
1000
0001
1000
0001
1000
0001
1000
,
0000
0000
0000
0000
,
0000
0000
0000
0000
,
0100
0010
0100
0010
0100
0010
0100
0010
,
0100
0010
0100
0010
0100
0010
0100
0010
,
0000
0010
0000
0010
0000
0100
0000
0100
,
0000
0001
0000
0010
0000
0100
0000
1000
,
0002
0100
0000
0100
0000
0100
0000
0100
,
0000
0100
0000
0100
0000
0100
0000
0100
,
0000
0010
0000
0010
0000
0010
0000
0010
,
0000
0010
0000
0010
0000
0010
0000
0010
,
0000
1000
0000
1000
0000
1000
0000
1000
,
0000
1000
0000
1000
0000
1000
0000
1000
,
0000
0100
0000
0100
0000
0100
0000
0100
,
0000
0100
0000
0100
0000
0100
0000
0103
,
0200
1000
0000
1000
0000
1000
0000
1000
,
0000
1000
0000
1000
0000
1000
0000
1000
,
0000
0010
0000
0010
0000
0010
0000
0010
,
0000
0010
0000
0010
0000
0010
0000
0010
,
0000
0002
0000
0000
0000
0000
0000
0000
,
0000
0000
0000
0000
,
0000
0000
0000
0000
0000
0000
0000
0000
0000
0000
0000
0000
0000
0000
0000
0000
0000
0000
0000
0000
0000
0000
0000
0000
0000
0000
0000
0000
0000
0000
0000
0000
0000
0000
0000
0000
0000
0000
0000
0000
0000
0000
0000
0000
0000
0000
0000
0000
0000
0000
0000
0000
0000
0000
0000
0000
0000
0303
0000
0000
0000
0000
0000
0000
,
0101
0000
0020
0000
0000
0030
0020
0000
0000
0030
0020
0000
0000
0030
0020
0000
,
0000
0030
0020
0000
0000
0030
0020
0000
0000
0030
0020
0000
0000
0030
0020
0000
,
0000
0030
2000
0000
0000
3000
2000
0000
0000
3000
2000
0000
0000
3000
2000
0000
,
0000
3000
2000
0000
0000
3000
2000
0000
0000
3000
2000
0000
0000
3000
2000
0000
,
0000
3000
0002
0000
0000
0003
0002
0000
0000
0003
0002
0000
0000
0003
0002
0000
,
0000
0003
0002
0000
0000
0003
0002
0000
0000
0003
0002
0000
0000
0003
0002
0000
,
0000
0003
2000
0000
0000
3000
2000
0000
0000
3000
2000
0000
0000
3000
2000
0000
,
0000
3000
2000
0000
0000
3000
2000
0000
0000
3000
2000
0000
0000
3000
2000
0000
,
3010
0000
0200
0000
0010
0300
0200
0000
0010
0300
0200
0000
0010
0300
0200
0000
,
0010
0300
0200
0000
0010
0300
0200
0000
0010
0300
0200
0000
0010
0300
0200
0000
,
0301
0000
2000
0000
0001
3000
2000
0000
0001
3000
2000
0000
0001
3000
2000
0000
,
0001
3000
2000
0000
0001
3000
2000
0000
0001
3000
2000
0000
0001
3000
2000
0000
,
3100
0000
0020
0000
0100
0030
0020
0000
0100
0030
0020
0000
0100
0030
0020
0000
,
0100
0030
0020
0000
0100
0030
0020
0000
0100
0030
0020
0000
0100
0030
0020
0000
,
1030
0010
0100
0001
1000
0010
0100
0001
,
1000
0010
0100
0001
1000
0010
0010
0010
,
0100
0001
0010
0001
0100
0001
0010
0001
,
0100
0001
0010
0001
0100
0001
0010
0001
,
0100
0010
1000
0100
1000
0010
0100
0010
,
1000
0100
1000
0010
0100
1000
0010
0100
,
0010
1000
0001
0100
0010
1000
0100
0010
,
0100
1000
0001
0100
0010
0100
0001
0100
,
0010
1000
0001
0100
0010
1000
0001
0100
,
0010
1000
0100
0010
0100
1000
0010
0100
,
0001
0100
0010
0001
0010
0001
0010
0001
,
0010
0100
0010
0100
0010
0100
1000
0100
,
1000
0010
0100
0001
1000
0010
0100
1000
,
0100
0010
0100
1000
0001
0100
0010
1000
,
0001
0000
0000
2000
0000
0000
0000
0000
3000
2000
0000
0000
0000
0000
3000
2000
0000
0000
0000
0000
3000
2000
0000
0000
,
0000
0000
3000
2000
0000
0000
0000
0000
3000
2000
0000
0000
0000
0000
3000
2000
0000
0000
0000
0000
3000
2000
0000
0000
,
0000
0000
0002
0000
0000
0003
0002
0000
0000
0003
0002
0000
0000
0003
0002
0000
,
0000
0003
0002
0000
0000
0003
0002
0000
0000
0003
0002
0000
0000
0003
3002
0000
,
2000
0000
0000
0000
,
0000
0000
0000
0000
,
3003
0000
0000
0000
;

//---------------dance-single - ----------------
#NOTES:
     dance-single:
     :
     Medium:
     3:
     0.151,0.267,0.000,0.356,0.000:
0000
0000
0000
0000
,
0000
0000
0000
0000
,
0000
0000
0000
0000
,
0000
0000
0000
0000
,
0000
0000
0000
0000
,
0000
0000
0000
0000
,
0000
0000
0000
0000
,
0000
0000
0000
0000
,
0000
0010
0000
0100
0000
0010
0000
0100
,
0000
0010
0000
0100
0000
0010
0000
0100
,
0000
0000
0000
0000
,
0000
0000
0000
0000
,
0000
0001
0000
1000
0000
0001
0000
1000
,
0000
0001
0000
1000
0000
0001
0000
2000
,
0000
0002
0000
0000
0000
0000
0000
0000
,
0000
0000
0000
3003
,
0020
0000
0000
0000
,
0000
0000
0000
0000
0000
0000
0000
0030
,
0000
0200
0000
0000
0000
0000
0000
0000
,
0000
0000
0000
0000
0000
0000
0000
0300
,
0000
2000
0000
0000
0000
0000
0000
0000
,
0000
0000
0000
0000
0000
0000
0000
3000
,
0000
0002
0000
0000
0000
0000
0000
0000
,
0000
0000
0000
0000
0000
0000
0000
0003
,
0000
0200
0000
0000
0000
0000
0000
0000
,
0000
0000
0000
0000
0000
0000
0000
0300
,
0000
0020
0000
0000
0000
0000
0000
0000
,
0000
0000
0000
0000
0000
0000
0000
0030
,
0000
2000
0000
0000
0000
0000
0000
0000
,
0000
0000
0000
0000
0000
0000
0000
3000
,
0000
0000
0000
0000
,
0010
0200
0000
0000
0000
0000
0000
0000
,
0000
0000
0000
0000
,
0000
0020
0000
0000
0000
0000
0000
0000
,
0000
0000
0000
0000
0000
0000
0000
0300
,
0000
2000
0000
0000
0000
0000
0000
0000
,
0000
0000
0000
0000
0000
0000
0000
0030
,
0000
0200
0000
0000
0000
0000
0000
0000
,
0000
0000
0000
0000
0000
0000
0000
3300
,
1000
1000
0001
0001
,
1000
0001
1000
0001
,
0100
0100
0010
0010
,
0100
0000
0010
0000
0100
0000
0010
0100
,
0001
0001
0001
0001
,
1000
1000
1000
1000
,
0002
0000
2003
0000
,
0200
0000
0000
3300
,
2000
0000
3020
0000
,
2030
0000
3020
0000
,
0230
0000
0320
0000
,
0230
0000
0320
0000
,
0230
0000
0302
0000
,
0203
0000
0302
0000
,
0023
0000
0032
0000
,
0023
0000
0032
0000
,
0023
0000
0032
0000
,
0203
0000
0320
0000
,
2030
0000
3200
0000
,
0320
0000
0230
0000
,
2300
0000
0000
0000
,
0000
0000
0000
0000
,
0002
0000
0000
0000
,
0000
0000
0000
0000
,
3003
0000
0000
0000
;

//---------------dance-single - ----------------
#NOTES:
     dance-single:
     :
     Easy:
     1:
     0.091,0.187,0.017,0.093,0.000:
0000
0000
0000
0000
,
0000
0000
0000
0000
,
0000
0000
0000
0000
,
0000
0000
0000
0000
,
0000
0000
0000
0000
,
0000
0000
0000
0000
,
0000
0000
0000
0000
,
0000
0000
0000
0000
,
0000
0200
0000
0000
0000
0000
0000
0000
,
0000
0000
0000
0000
0000
0000
0000
0300
,
0000
0000
0000
0000
,
0000
0000
0000
0000
,
0000
0020
0000
0000
0000
0000
0000
0000
,
0000
0000
0000
0000
,
0000
2000
0000
0000
0000
0000
0000
0000
,
0000
0000
0000
3030
,
2002
0000
0000
0000
,
0000
0000
0000
0000
,
0000
0000
0000
0000
,
0000
0000
0000
3003
,
0000
0100
0000
0000
0000
0000
0000
0000
,
0000
0000
0000
0000
,
0000
0010
0000
0000
0000
0000
0000
0000
,
0000
0000
0000
0000
,
0000
0100
0000
0000
0000
0000
0000
0000
,
0000
0000
0000
0000
,
0000
0010
0000
0000
0000
0000
0000
0000
,
0000
0000
0000
0000
,
0000
0001
0000
0000
0000
0000
0000
0000
,
0000
0000
0000
0000
,
0000
0000
0000
0000
,
0000
2000
0000
0000
0000
0000
0000
0000
,
0000
0000
0000
0000
0000
0000
0000
3000
,
0000
0002
0000
0000
0000
0000
0000
0000
,
0000
0000
0000
0000
0000
0000
0000
0003
,
0000
0020
0000
0000
0000
0000
0000
0000
,
0000
0000
0000
0000
0000
0000
0000
0030
,
0000
0200
0000
0000
0000
0000
0000
0000
,
0000
0000
0000
0000
0000
0000
0000
0300
,
1000
0000
1000
0000
,
0001
0000
0001
0100
,
0010
0000
0100
0000
,
0010
0000
1000
0001
,
0100
0000
0001
0000
,
0010
0000
0100
1000
,
0010
0000
1000
0000
,
0001
0000
0100
0100
,
0110
0000
0010
0000
,
1000
0000
0001
0001
,
1000
0000
0100
0000
,
1000
0000
0010
0010
,
0100
0000
0001
0000
,
1000
0000
0010
0000
,
0100
0000
0001
0000
,
1000
0000
0010
0010
,
0100
0000
0010
0000
,
1000
0000
0001
0000
,
0010
0000
0100
0000
,
1000
0000
0001
0000
,
0200
0000
0000
0000
,
0000
0000
0000
0000
,
0020
0000
0000
0000
,
0000
0000
0000
0000
,
0330
0000
0000
0000
;

//---------------dance-single - ----------------
#NOTES:
     dance-single:
     :
     Beginner:
     1:
     0.054,0.133,0.000,0.034,0.000: // measure 1
0000
0000
0000
0000
,  // measure 2
0000
0000
0000
0000
,  // measure 3
0000
0000
0000
0000
,  // measure 4
0000
0000
0000
0000
,  // measure 5
0000
0000
0000
0000
,  // measure 6
0000
0000
0000
0000
,  // measure 7
0000
0000
0000
0000
,  // measure 8
0000
0000
0000
0000
,  // measure 9
1000
0000
0000
0000
,  // measure 10
0000
0000
0000
0000
,  // measure 11
0000
0000
0000
0000
,  // measure 12
0000
0000
0000
0000
,  // measure 13
0010
0000
0000
0000
,  // measure 14
0000
0000
0000
0000
,  // measure 15
0100
0000
0000
0000
,  // measure 16
0000
0000
0000
0000
,  // measure 17
0002
0000
0000
0000
,  // measure 18
0003
0000
0000
0000
,  // measure 19
2000
0000
0000
0000
,  // measure 20
3000
0000
0000
0000
,  // measure 21
0000
0000
0000
0000
,  // measure 22
0000
0000
0000
0000
,  // measure 23
0000
0000
0000
0000
,  // measure 24
0000
0000
0000
0000
,  // measure 25
0100
0000
0000
0000
,  // measure 26
0000
0000
0000
0000
,  // measure 27
0010
0000
0000
0000
,  // measure 28
0000
0000
0000
0000
,  // measure 29
1000
0000
0000
0000
,  // measure 30
0000
0000
0000
0000
,  // measure 31
0001
0000
0000
0000
,  // measure 32
1000
0000
0000
0000
,  // measure 33
0000
0000
0000
0000
,  // measure 34
0001
0000
0000
0000
,  // measure 35
0000
0000
0000
0000
,  // measure 36
0010
0000
0000
0000
,  // measure 37
0000
0000
0000
0000
,  // measure 38
0100
0000
0000
0000
,  // measure 39
0000
0000
0000
0000
,  // measure 40
1000
0000
0000
0000
,  // measure 41
0001
0000
0000
0000
,  // measure 42
1000
0000
0000
0000
,  // measure 43
0010
0000
0000
0000
,  // measure 44
0100
0000
0000
0000
,  // measure 45
0000
0000
0000
0000
,  // measure 46
0010
0000
0010
0000
,  // measure 47
0010
0000
1000
1000
,  // measure 48
1000
0000
0000
0000
,  // measure 49
0001
0000
0000
0000
,  // measure 50
0010
0000
0000
0000
,  // measure 51
0100
0000
0000
0000
,  // measure 52
1000
0000
0000
0000
,  // measure 53
0010
0000
0000
0000
,  // measure 54
0100
0000
0000
0000
,  // measure 55
0001
0000
0000
0000
,  // measure 56
1000
0000
1000
0000
,  // measure 57
1000
0000
1000
0000
,  // measure 58
0001
0000
0001
0000
,  // measure 59
0001
0000
0001
0000
,  // measure 60
0020
0000
0000
0000
,  // measure 61
0000
0000
0000
0000
0000
0000
0000
0030
,  // measure 62
0000
0200
0000
0000
0000
0000
0000
0000
,  // measure 63
0000
0000
0000
0000
,  // measure 64
0300
0000
0000
0000
;
