#TITLE:Tides of Time;
#SUBTITLE:-Remix-;
#ARTIST:Ocean X;
#TITLETRANSLIT:;
#SUBTITLETRANSLIT:;
#ARTISTTRANSLIT:;
#CREDIT:;
#BANNER:bn.png;
#BACKGROUND:bg.png;
#LYRICSPATH:;
#CDTITLE:;
#MUSIC:Tides of Time -Remix-.mp3;
#OFFSET:-0.240;
#SAMPLESTART:25.800;
#SAMPLELENGTH:12.000;
#SELECTABLE:YES;
#BPMS:0.000=75.000;
#STOPS:;
#BGCHANGES:;

//---------------dance-single - ----------------
#NOTES:
     dance-single:
     :
     Hard:
     7:
     0.315,0.427,0.009,0.351,0.224:
0000
0000
0000
0000
,
0000
0000
0000
0000
,
0000
0000
0000
0000
,
0000
0000
0000
0000
,
1000
0001
0010
0010
0001
0010
0100
0010
,
0001
0100
0010
1000
0100
0010
0100
1000
,
0001
1000
0100
1000
0001
0010
0001
0100
,
0010
1000
0001
0010
0100
0010
0001
0100
,
0020
0000
1000
0000
1000
0000
1030
0001
0020
0000
0031
0100
0020
0000
0130
0010
,
2000
0000
0100
0000
0100
0000
3100
1000
0200
0000
0010
0000
0320
0000
0031
0010
,
0200
0000
0010
0000
0310
0000
0010
0001
0000
0001
0100
0000
0010
1000
0001
0010
,
0200
0000
1000
0000
1300
0000
0100
1000
0100
0000
0100
1000
0010
0100
0001
0010
,
0200
0000
1000
0000
1300
0000
1000
0001
0020
0000
0100
0000
0130
0000
0010
0001
,
0200
0000
0001
0000
0301
0000
1000
0001
0000
0001
0010
0000
0001
0010
0100
0010
,
0002
0000
0100
0000
0103
0000
0001
0100
0020
0000
0100
0000
0130
0000
0100
0010
,
2000
0000
0100
0000
3100
0000
0100
1000
0020
0000
0100
0000
0130
0000
0010
1000
,
0100
0000
0100
0010
0001
0000
0001
0010
0100
0010
0001
0010
0000
0010
0100
1000
,
0010
0000
0100
0001
1000
0000
1000
0001
0010
0100
0010
0001
0000
0001
0100
0010
,
0100
0000
0010
1000
0100
0000
1000
0010
0100
0001
0010
0100
0000
0100
1000
0010
,
0200
0000
0010
0000
0010
0000
0010
0000
0310
0100
0010
1000
0001
0010
0100
0010
,
0001
0000
0001
1000
0100
1000
0010
0000
1000
0001
0010
0001
0100
0001
0010
0001
,
1000
0000
0000
0000
,
0202
0000
0000
0000
0303
0000
0000
0000
0002
0000
0000
0000
0020
0000
0000
0003
,
2000
0000
0000
0000
0000
0030
3020
0000
,
0002
0000
0000
0000
0030
0000
0200
0003
,
2000
0000
0000
0000
0000
0000
0300
0000
3200
0000
0000
0000
0002
0000
0000
0300
,
2000
0000
0000
0000
0000
0000
0003
0000
0200
0000
0000
3000
0020
0000
0000
0300
,
0002
0000
0000
0000
0000
0000
0000
0030
0200
0000
0000
0000
0000
0000
0000
0003
,
0020
0000
0000
0300
2000
0000
0000
0030
,
0200
0000
0000
0000
0000
0000
0000
0000
0000
0000
0000
0000
0000
0000
0000
0000
0000
0000
0000
0000
0000
0000
0000
0000
0000
0000
0000
0000
0000
0000
0000
0000
0000
0000
0000
0000
0000
0000
0000
0000
0000
0000
0000
0000
0000
0000
0000
0000
0000
0000
0000
0000
0000
0000
0000
0000
0000
0000
0000
0000
0000
0000
0000
0000
0000
0000
0000
0000
0000
0000
0000
0000
3000
0000
0000
0000
0000
0000
0000
0000
0000
0000
0000
0000
0000
0000
0000
0000
0000
0000
0000
0000
0000
0000
0000
0000
0002
0000
0000
0000
0000
0000
0000
0000
0000
0000
0000
0000
0000
0000
0000
0000
0000
0000
0000
0000
0000
0000
0000
0000
0000
0300
0000
0000
0000
0000
0000
0000
0000
0000
0000
0000
0000
0000
0000
0000
0000
0000
0000
0000
0000
0000
0000
0000
0000
0000
0000
0000
0000
0000
0000
0000
0000
0000
0000
0000
0000
0000
0000
0000
0000
0000
0000
0000
0000
0000
0000
0000
0000
0000
0000
0000
0000
0000
0000
0000
0000
0000
0000
0000
0000
0000
0000
0000
0000
0000
0000
0000
0000
0000
0000
0000
,
0200
0000
0303
0000
,
0200
0000
0300
0000
,
0200
0000
0300
0000
,
2000
0000
3000
0000
,
1000
0010
0001
0100
;

//---------------dance-single - ----------------
#NOTES:
     dance-single:
     :
     Challenge:
     9:
     0.599,0.829,0.281,0.387,0.729:
0000
0000
0000
0000
,
0000
0000
0000
0000
,
0000
0000
0000
0000
,
0000
0000
0000
0000
,
0020
0000
1000
0000
0001
0000
1030
0100
0010
0100
1000
0001
0100
0000
0010
1000
,
0100
1000
0001
0100
0010
0000
0100
0001
0010
0100
0010
0001
0100
0000
0010
0100
,
0010
1000
0100
0010
0100
0000
1000
0100
1000
0010
0100
0001
1000
0000
0001
1000
,
0001
0010
0001
0100
0010
0000
0010
0100
0010
1000
0001
0010
0100
0000
0100
1000
,
1010
0000
0010
1000
1100
0000
1000
0001
0010
0100
0010
0001
0010
1000
0010
0001
,
0100
0010
1000
0001
0011
0000
0001
0100
0000
0100
0100
0000
0100
0010
1000
0001
,
0011
0000
0001
0100
0110
0000
0010
1000
0100
0001
0100
1000
0010
0100
0001
1000
,
0100
0000
0000
0000
0100
0000
1000
0000
0010
0000
0000
0000
0100
0000
0010
0000
1000
0000
0001
0000
0010
0000
0010
0000
0001
0000
0001
0000
0100
0000
0001
1000
,
0001
0100
0010
1000
0010
0000
0010
0100
0001
0100
0010
0000
0100
0001
1000
0000
,
0010
0001
1000
0100
0010
0000
0010
0100
1000
0001
0010
0000
0001
0001
1000
0000
,
0120
1000
0001
1030
0210
1000
0001
1300
,
0102
0100
0010
0103
2001
0100
0010
3100
,
0001
0001
0010
1000
0010
0001
0100
1000
0100
0001
0010
0100
0010
0001
0100
0010
,
2001
0000
0000
0000
0000
0000
0000
3000
1002
0000
0000
0000
0000
0000
0000
0003
2001
0000
0000
0000
0000
0000
0000
3000
1002
0000
0000
0000
0000
0000
0000
0003
2001
0000
0000
0000
0000
0000
0000
3000
1002
0000
0000
0000
0000
0000
0000
0003
2001
0000
0000
0000
0000
0000
0000
3000
1002
0000
0000
0000
0000
0000
0000
0003
,
1002
0000
0000
0000
0000
0000
0000
0003
2001
0000
0000
0000
0000
0000
0000
3000
1002
0000
0000
0000
0000
0000
0000
0003
2001
0000
0000
0000
0000
0000
0000
3000
1002
0000
0000
0000
0000
0000
0000
0003
2001
0000
0000
0000
0000
0000
0000
3000
1002
0000
0000
0000
0000
0000
0000
0003
2001
0000
0000
0000
0000
0000
0000
3000
,
0001
0000
1000
0000
0100
0000
0010
0000
0100
0000
1000
0000
0010
0000
0100
0000
0010
0000
0100
0010
1000
0000
1001
0000
0001
0000
0001
0000
0001
1000
0001
1000
,
0001
0010
0100
1000
0001
1000
0100
0010
0001
1000
0100
0010
0001
0100
0001
0100
,
0020
0000
0000
0000
0100
0100
0100
0230
0000
0000
0000
0000
0000
0000
0000
0300
,
0002
0203
0302
0203
0302
0203
0302
0203
0302
0203
0302
0203
0302
0003
0000
0100
0000
0000
0010
0000
0000
1000
0000
0000
0100
0000
0000
0001
0000
0000
0100
0000
0000
1000
0000
0000
0010
0000
0000
0010
0000
0000
0100
0000
0000
0010
0000
0000
,
1000
0001
0010
1000
0010
0001
0100
0001
0010
1000
0010
0001
0100
0010
1000
0100
,
0010
0100
1000
0100
0010
0100
1000
0001
0010
0001
0100
1000
0100
0001
0010
0001
,
0100
0010
1000
0100
0010
0100
1000
0001
0100
0001
0010
0100
0010
0001
0100
0010
,
1000
1000
0001
0010
0100
0010
0001
0100
0010
0010
0100
0010
1000
0001
0010
0100
,
1000
1000
0001
0010
0001
0100
0010
1000
0010
0010
1000
0001
0010
0001
0100
0010
,
2000
0100
3100
1000
0010
0100
0001
0010
0200
0010
0310
0100
0010
0001
0100
0010
,
2000
0100
3100
1000
0010
0100
0001
0010
0200
0010
0310
0100
0010
0001
0100
0001
,
2000
0100
0100
0010
0010
0001
0001
3010
,
0120
1000
0001
1000
0001
1000
0001
1030
,
0210
1000
0001
1000
0001
1000
0001
1000
,
0002
0000
0303
0000
,
0011
0010
0100
0010
0011
0010
0100
0010
0011
0010
0100
1000
0011
0010
0001
1000
;

//---------------dance-single - ----------------
#NOTES:
     dance-single:
     :
     Medium:
     5:
     0.245,0.336,0.000,0.369,0.031:
0000
0000
0000
0000
,
0000
0000
0000
0000
,
0000
0000
0000
0000
,
0000
0000
0000
0000
,
0001
0100
0010
1000
0001
0100
0010
1000
,
0100
1000
0010
0100
0001
0100
0010
1000
,
0001
1000
0100
1000
0001
0100
0001
0010
,
0100
1000
0100
0010
0100
1000
0001
0100
,
0002
0100
0100
0100
0203
0010
0320
1000
,
2030
0100
0100
0100
0100
0100
0100
0100
,
3200
0010
0010
0010
0310
0010
0001
0010
,
0200
0000
0010
0000
0010
0000
0310
0000
1000
0000
0001
0000
1000
0001
0100
0001
,
0020
0100
0100
0100
0230
1000
2300
0010
,
3020
0000
0100
0000
0100
0000
0100
0000
0130
0000
0010
0000
1000
0000
0001
0010
,
0200
0010
0010
0010
0320
0100
0100
0100
,
0230
1000
1000
1000
2300
0001
0001
0001
,
3002
0100
0100
0100
0100
0100
0100
0000
,
0023
0000
0000
0000
0000
0000
0000
0000
0130
0000
0000
1000
0000
0000
0010
0000
,
0200
0000
0000
0000
0000
0000
0000
0000
0310
0000
0000
1000
0000
0000
0001
0000
,
0020
0000
0000
0000
0000
0000
0000
0030
0100
0000
1000
0000
0100
1000
0010
0010
,
0010
0100
0001
1000
,
0002
0000
0000
0000
0000
0000
0000
0003
0000
0000
0000
0000
0000
0000
0000
0000
,
0200
0000
0320
2030
,
3200
0000
0000
2300
,
3020
0000
0000
0230
,
0302
0000
0023
0230
,
2300
0000
3002
2003
,
3020
0000
0230
0000
,
0302
0000
0023
0000
,
0032
0000
0203
0000
,
0320
0000
0000
0000
0000
0000
0000
0000
0000
0000
0000
0000
0000
0000
0000
0000
0000
0000
0000
0000
0000
0000
0000
0000
0000
0000
0000
0000
0000
0000
0000
0000
0000
0000
0000
0000
0000
0000
0000
0000
0000
0000
0000
0000
0000
0000
0000
0000
0000
0000
0000
0000
0000
0000
0000
0000
0000
0000
0000
0000
0000
0000
0000
0000
0000
0000
0000
0000
0000
0000
0000
0000
0000
0000
0000
0000
0000
0000
0000
0000
0000
0000
0000
0000
0000
0000
0000
0000
0000
0000
0000
0000
0000
0000
0000
0000
0000
0000
0000
0000
0000
0000
0000
0000
0000
0000
0000
0000
0000
0000
0000
0000
0000
0000
0000
0000
0000
0000
0000
0000
0000
0000
0000
0000
0000
0000
0000
0000
0000
0000
0000
0000
0000
0000
0000
0000
0000
0000
0000
0000
0000
0000
0000
0000
0000
0000
0000
0000
0000
0000
0000
0000
0000
0000
0000
0000
0000
0000
0000
0000
0000
0000
0000
0000
0000
0000
0000
0000
0000
0030
0000
0000
0000
0000
0000
0000
0000
0000
0000
0000
0000
0000
0000
0000
0000
0000
0000
0000
0000
0000
0000
0000
,
2000
0000
3000
0000
,
0002
0000
0003
0000
,
0200
0000
0300
0000
,
0010
0001
0100
1000
;

//---------------dance-single - ----------------
#NOTES:
     dance-single:
     :
     Easy:
     2:
     0.147,0.168,0.044,0.369,0.000:
0000
0000
0000
0000
,
0000
0000
0000
0000
,
0000
0000
0000
0000
,
0000
0000
0000
0000
,
0202
0000
0000
0303
,
0100
0000
0010
0000
1000
1000
1000
0000
,
0001
0000
1000
0000
0100
0100
0010
0000
,
0010
0000
0001
0000
0100
0100
0100
0000
,
0020
0000
0000
0030
2000
3000
0002
0003
,
0020
0000
0030
0000
,
0200
0000
0300
0000
,
2000
0000
3000
0002
,
2003
0000
0000
3000
0020
0030
0200
0300
,
0020
0000
0030
2000
,
0002
0000
0000
3003
0002
0000
0000
0003
,
0020
0000
0000
0030
0200
0000
0000
0300
,
2000
0000
0000
0000
0000
3000
0000
0000
,
0020
0000
0030
0000
,
0020
0000
0030
0000
,
0200
0000
0000
0000
0300
0000
0010
0010
,
1000
1000
0001
0001
,
0200
0000
0300
0000
,
2002
3000
1000
1000
,
2000
0000
0000
0000
0000
3000
1000
0000
,
2000
0000
3000
1000
,
2000
0000
0000
3000
1000
0000
1000
0000
,
2003
0000
0001
0001
,
0002
0003
0002
0003
,
0002
0003
0002
0003
,
0002
0003
0002
0003
,
3002
0000
0003
0000
,
0022
0000
0033
0000
,
2002
0000
3003
0000
,
0202
0000
0303
0000
,
0001
1000
0100
0010
;

//---------------dance-single - ----------------
#NOTES:
     dance-single:
     :
     Beginner:
     1:
     0.062,0.092,0.009,0.009,0.000: // measure 1
0000
0000
0000
0000
,  // measure 2
0000
0000
0000
0000
,  // measure 3
0000
0000
0000
0000
,  // measure 4
0000
0000
0000
0000
,  // measure 5
0010
0000
0000
0000
,  // measure 6
1000
0000
0000
0000
,  // measure 7
0001
0000
0000
0000
,  // measure 8
0010
0000
0000
0000
,  // measure 9
0100
0000
1000
1000
,  // measure 10
1000
0000
0000
0000
,  // measure 11
0010
0000
0000
0000
,  // measure 12
0100
0000
0000
0001
,  // measure 13
0001
0000
1000
1000
,  // measure 14
1000
0000
0000
0000
,  // measure 15
0010
0000
0100
0000
,  // measure 16
0001
0000
1000
0000
,  // measure 17
0100
0000
0000
0000
,  // measure 18
1000
0000
0000
0000
,  // measure 19
1000
0000
0000
0000
,  // measure 20
0100
0000
0000
0000
,  // measure 21
0110
0000
0000
0000
,  // measure 22
0000
0000
0000
0000
,  // measure 23
0002
0003
1000
0000
,  // measure 24
0001
0000
0000
0100
,  // measure 25
0100
0000
0000
0010
,  // measure 26
0010
0000
0000
0000
,  // measure 27
1000
0000
1000
0000
,  // measure 28
0001
0000
0010
0000
,  // measure 29
0100
0000
0010
0000
,  // measure 30
0001
0000
1000
0000
,  // measure 31
0100
0000
0000
0000
,  // measure 32
0100
0000
0000
0000
,  // measure 33
0100
0000
0000
0000
,  // measure 34
1000
0000
0000
0000
,  // measure 35
0001
0010
0100
1000
;
