#TITLE:Taking Drugs;
#SUBTITLE:;
#ARTIST:Scott Brown;
#TITLETRANSLIT:;
#SUBTITLETRANSLIT:;
#ARTISTTRANSLIT:;
#CREDIT:;
#BANNER:bn.png;
#BACKGROUND:bg.png;
#LYRICSPATH:;
#CDTITLE:;
#MUSIC:Taking Drugs.mp3;
#OFFSET:-0.216;
#SAMPLESTART:76.760;
#SAMPLELENGTH:12.000;
#SELECTABLE:YES;
#BPMS:0.000=175.480;
#STOPS:;
#BGCHANGES:;

//---------------dance-single - ----------------
#NOTES:
     dance-single:
     :
     Hard:
     8:
     0.485,0.653,0.566,0.146,0.000:
0000
0000
0000
0000
,
0000
0000
0000
0000
,
0000
0000
0000
0000
,
0000
0000
0000
0000
,
0000
0000
0000
0000
,
0000
0000
0000
0000
,
0000
0000
0000
0000
,
0000
0000
0000
0000
,
1000
0000
0001
0000
0100
0001
0100
0000
,
0010
0000
1000
0000
0100
1000
0100
0000
,
1000
0000
0001
0000
0100
0001
0100
0000
,
1001
0010
1001
0000
,
0001
0000
0100
0000
0010
1000
0010
0000
,
1000
0000
0100
0000
0010
0100
0010
0000
,
0100
0000
0010
0000
0001
0100
0001
0000
,
2002
0000
0000
3003
,
1000
0000
0001
0100
1010
0000
0011
0000
,
1010
0011
1010
0011
,
1010
0000
1000
0100
0011
0000
1010
0000
,
0011
1010
0011
1010
,
1001
0000
0001
0100
0101
0000
1100
0000
,
0101
1100
0101
1100
,
1001
0000
0010
0100
0110
0000
0101
0000
,
0110
1010
0110
0101
,
1001
0000
0010
1000
1010
0000
0101
0000
,
1010
0000
0101
0000
1010
0000
0101
0001
,
0100
0000
0010
1000
1100
0000
0011
0000
,
1100
0000
0011
0000
1100
0000
0011
0010
,
0100
0000
0100
0010
0011
0000
0110
0000
,
1100
0000
0110
0000
0011
0000
0110
0100
,
1000
0000
1000
0001
0101
0000
0110
0000
,
2002
0000
0000
3003
,
1000
0000
0000
0001
0000
0010
0000
0000
,
0100
0000
0000
0010
0000
0000
0001
0000
,
1000
0000
0000
0001
0000
0001
0000
0000
,
0100
0000
0000
0010
0000
0000
1000
0000
,
0100
0000
0000
0010
0000
0100
0000
0000
,
1000
0000
0000
0001
0000
0000
0100
0000
,
0010
0000
0000
1000
0000
0001
0000
0000
,
0010
0000
0000
0100
0000
0000
1000
0000
,
0002
0000
0000
0100
0000
0000
0103
0000
,
0020
0000
0000
0100
0000
0000
0130
0000
,
2000
0000
0000
0010
0000
0000
3010
0000
,
0200
0000
0000
0001
0000
0000
0301
0000
,
0020
0000
0000
0100
0000
0000
0130
0000
,
2000
0000
0000
0001
0000
0000
3001
0000
,
0200
0000
0000
0010
0000
0000
0310
0000
,
2000
0000
0000
0100
0000
0000
3100
0000
,
1000
0000
0001
0100
0010
0000
0010
0000
,
0010
0010
0010
0010
,
0110
0000
0010
1000
0100
0000
0100
0000
,
0100
0100
0100
0100
,
1100
0000
0010
0100
0010
0000
0010
0000
,
0011
0000
0010
0001
0010
0000
0011
0000
,
1001
0000
0010
1000
0001
0000
0010
1000
,
0002
0000
0000
0003
,
1100
0000
1000
0100
0000
1000
0000
0010
,
0000
0100
0001
0000
1001
0000
0001
0100
,
1000
0000
1000
0100
0000
0010
0000
1000
,
0000
1000
0100
0000
0010
0000
0001
0010
,
0100
0000
0010
0100
0000
1000
0000
0010
,
0000
0100
0001
0000
0010
0000
0010
0100
,
1000
0000
0001
0100
0000
0010
0000
1000
,
0010
0000
0100
0001
1001
0000
1001
0000
,
0110
0000
0001
0100
0000
0010
0000
1000
,
0000
0100
1000
0000
0010
0000
0100
0010
,
1000
0000
0001
0010
0000
0100
0000
0010
,
0000
0001
0100
0000
0010
0000
0100
0010
,
1000
0000
0001
0010
0000
0100
0000
0010
,
0000
0001
0100
0000
0010
0000
0100
0010
,
1000
0000
0001
0010
0000
0100
0000
0100
,
0020
0000
0000
0030
,
0001
0100
0010
1000
,
0010
0000
0100
0000
0001
0000
1000
0001
,
1000
0100
1000
0010
,
0100
0000
0001
0000
0010
0001
0010
0100
,
0010
0001
0100
0010
,
1000
0000
0001
0000
0010
0000
0100
2000
,
0020
0000
0000
0000
,
0000
3000
0030
0000
;

//---------------dance-single - ----------------
#NOTES:
     dance-single:
     :
     Medium:
     6:
     0.404,0.544,0.402,0.091,0.000:
0000
0000
0000
0000
,
0000
0000
0000
0000
,
0000
0000
0000
0000
,
0000
0000
0000
0000
,
0000
0000
0000
0000
,
0000
0000
0000
0000
,
0000
0000
0000
0000
,
0000
0000
0000
0000
,
0100
0010
0010
0010
,
0100
0010
0010
0010
,
0100
0010
0010
0010
,
0100
0000
0010
1000
0001
0000
0000
0000
,
1000
1000
1000
1000
,
0001
0001
0001
0001
,
0100
0010
1000
0010
,
0202
0000
0000
0303
,
0001
0100
0110
0110
,
0110
0110
0110
0110
,
0010
1000
1010
1010
,
1010
1010
1010
1010
,
0010
1000
1100
1100
,
1100
1100
1100
1100
,
1000
0010
0101
0101
,
0101
0101
0101
0101
,
0001
0000
0100
0010
0100
0000
0100
0000
,
0100
0100
0100
0100
,
0010
0000
1000
0010
1000
0000
1000
0000
,
1000
1000
1000
1000
,
1001
0000
0001
1000
0001
0000
0001
0000
,
0001
0001
0001
0001
,
0101
0000
0100
0001
0100
0000
0100
0000
,
0220
0000
0000
0330
,
0010
0000
0000
0010
0000
0010
0000
0000
,
1000
0000
0000
0001
0000
0000
1000
0000
,
0100
0000
0000
1000
0000
1000
0000
0000
,
0100
0000
0000
1000
0000
0000
0010
0000
,
0100
0000
0000
0010
0000
0010
0000
0000
,
0100
0000
0000
0001
0000
0000
1000
0000
,
0001
0000
0000
0100
0000
0100
0000
0000
,
0010
0000
0000
1000
0000
0000
0000
0000
,
0001
0000
0000
0001
0000
0000
0001
0000
,
1000
0000
0000
1000
0000
0000
1000
0000
,
0010
0000
0000
0100
0000
0000
0010
0000
,
1000
0000
0001
1000
0001
0000
0000
0000
,
1000
0000
0001
0000
,
0100
0100
0100
0000
,
0010
0000
1000
0000
,
0010
0000
1000
0010
1000
0000
0000
0000
,
0010
0100
0101
0100
,
0101
0001
0101
0100
,
0110
0000
0010
1000
0001
0000
1001
0000
,
1000
1001
0001
1001
,
1001
0000
0001
0100
0010
0000
0010
0000
,
0110
0000
0010
1000
0100
0000
0100
0000
,
1100
0100
0110
0010
,
0022
0000
0000
0033
,
0001
1000
0001
0100
,
0010
1000
1000
1000
,
0010
0100
0001
0010
,
0100
0000
1000
0000
1000
0000
1000
0100
,
0010
0010
0001
0100
,
0010
0100
0100
0100
,
0010
1000
0001
0100
,
0110
0000
0010
1000
0001
0000
0001
0000
,
1001
0001
0100
0010
,
1000
0100
0100
0100
,
1000
0010
0100
0001
,
0010
0000
0100
0000
1000
0000
0100
1000
,
0010
0010
0100
0010
,
1000
0001
0010
0010
,
0100
1000
0010
0100
,
0202
0000
0000
0303
,
0001
0000
0000
1000
0000
1000
0000
0000
,
0010
0000
0000
0100
0000
0000
0010
0000
,
1000
0000
0000
0001
0000
0001
0000
0000
,
0010
0000
0000
0100
0000
0000
1000
0000
,
0100
0000
0000
1000
0000
1000
0000
0000
,
0010
0000
0000
0100
0000
0000
0001
0000
,
2002
0000
0000
0000
,
0000
0000
3003
0000
;

//---------------dance-single - ----------------
#NOTES:
     dance-single:
     :
     Easy:
     4:
     0.318,0.463,0.310,0.055,0.000:
0000
0000
0000
0000
,
0000
0000
0000
0000
,
0000
0000
0000
0000
,
0000
0000
0000
0000
,
0000
0000
0000
0000
,
0000
0000
0000
0000
,
0000
0000
0000
0000
,
0000
0000
0000
0000
,
0001
0000
1000
0000
,
0010
0010
0100
0100
,
0010
0000
1000
0000
,
0001
0000
1000
0001
1000
0000
0000
0000
,
0001
0000
0100
0000
,
0010
0000
0100
0000
,
0001
0000
1000
0000
,
0202
0000
0000
0000
0000
0303
0000
0000
,
0001
0100
0010
0010
,
0010
0010
0010
0010
,
0100
0010
1000
1000
,
1000
1000
1000
1000
,
0001
0100
0001
0001
,
0001
0001
0001
0001
,
1000
0010
0100
0100
,
0100
0100
0100
0100
,
0110
0010
1000
1000
,
1000
1000
1000
1000
,
0001
0010
0100
0100
,
0100
0100
0100
0100
,
0010
0001
1000
1000
,
1000
1000
1000
1000
,
0001
0100
0010
0010
,
0220
0000
0000
0330
,
0010
0000
0000
0000
,
1000
0000
0000
0000
,
0100
0000
0000
0000
,
1000
0000
0001
0000
,
0100
0000
0000
0000
,
0010
0000
0000
0000
,
1000
0000
0000
0000
,
0001
0000
0000
0000
,
1001
0000
0000
0000
,
0010
0000
0000
0000
,
0100
0000
0000
0000
,
0010
0000
0100
0010
0100
0000
0000
0000
,
0010
0000
0000
0000
,
1000
0000
0000
0000
,
0001
0000
0000
0000
,
0010
0000
0010
0100
0010
0000
0000
0000
,
0010
0001
0100
0100
,
0100
0100
0100
0100
,
0110
0010
1000
1000
,
1000
1000
1000
1000
,
1010
0010
0100
0100
,
0110
0100
0001
0001
,
1001
0010
1001
0010
,
2002
0000
0000
3003
,
0001
0100
0010
1000
,
0100
0110
0110
0110
,
0010
0001
0100
0010
,
1000
1001
1001
0101
,
1001
0001
0100
0010
,
1000
1100
1100
1100
,
1000
0010
0100
0001
,
1000
0000
0001
1000
0001
0000
0001
0000
,
1001
0001
0100
0010
,
1000
0100
0110
0110
,
0010
0001
0100
0010
,
1000
1010
1010
0101
,
1010
0010
0100
0010
,
1000
1001
1001
1001
,
0001
0100
0010
1000
,
1100
1100
1100
0100
,
1000
0000
0000
0000
,
0010
0000
0000
0000
,
0100
0000
0000
0000
,
0001
0000
0000
0000
,
1000
0000
0000
0000
,
0010
0000
0000
0000
,
0110
0000
0000
0000
;

//---------------dance-single - ----------------
#NOTES:
     dance-single:
     :
     Beginner:
     1:
     0.129,0.249,0.046,0.018,0.000: // measure 1
0000
0000
0000
0000
,  // measure 2
0000
0000
0000
0000
,  // measure 3
0000
0000
0000
0000
,  // measure 4
0000
0000
0000
0000
,  // measure 5
0000
0000
0000
0000
,  // measure 6
0000
0000
0000
0000
,  // measure 7
0000
0000
0000
0000
,  // measure 8
0000
0000
0000
0000
,  // measure 9
0010
0000
0000
0000
,  // measure 10
1000
0000
0000
0000
,  // measure 11
0001
0000
0000
0000
,  // measure 12
0100
0100
0100
0000
,  // measure 13
0010
0000
0000
0000
,  // measure 14
1000
0000
0000
0000
,  // measure 15
0001
0000
0000
0000
,  // measure 16
0110
0000
0000
0000
,  // measure 17
0001
0000
0001
0000
,  // measure 18
0001
0000
0001
0000
,  // measure 19
1000
0000
1000
0000
,  // measure 20
1000
0000
1000
0000
,  // measure 21
0010
0000
0010
0000
,  // measure 22
0010
0000
0010
0000
,  // measure 23
0100
0000
0100
0000
,  // measure 24
0100
0000
0100
0000
,  // measure 25
0110
0000
0010
0000
,  // measure 26
0010
0000
0010
0000
,  // measure 27
1000
0000
1000
0000
,  // measure 28
1000
0000
1000
0000
,  // measure 29
0001
0000
0001
0000
,  // measure 30
0001
0000
0001
0000
,  // measure 31
0100
0000
0010
0000
,  // measure 32
1001
0000
0000
0000
,  // measure 33
1000
0000
0000
0000
,  // measure 34
0000
0000
0000
0000
,  // measure 35
0001
0000
0000
0000
,  // measure 36
0000
0000
0000
0000
,  // measure 37
0100
0000
0000
0000
,  // measure 38
0000
0000
0000
0000
,  // measure 39
0100
0000
0000
0000
,  // measure 40
0001
0000
0000
0000
,  // measure 41
1000
0000
0000
0000
,  // measure 42
0000
0000
0000
0000
,  // measure 43
0010
0000
0000
0000
,  // measure 44
0100
0100
0100
0000
,  // measure 45
0010
0000
0000
0000
,  // measure 46
0000
0000
0000
0000
,  // measure 47
1000
0000
0000
0000
,  // measure 48
0001
0001
0001
0000
,  // measure 49
1000
0000
0000
0000
,  // measure 50
0000
0000
0000
0000
,  // measure 51
0001
0000
0000
0000
,  // measure 52
0000
0000
0000
0000
,  // measure 53
1000
0000
0000
0000
,  // measure 54
0001
0000
0000
0000
,  // measure 55
1000
0000
0001
0000
,  // measure 56
2002
0000
0000
3003
,  // measure 57
0010
0000
0000
0000
,  // measure 58
0100
0000
0000
0000
,  // measure 59
0010
0000
0000
0000
,  // measure 60
1000
0000
0001
0000
,  // measure 61
0010
0000
0000
0000
,  // measure 62
0100
0000
0000
0000
,  // measure 63
1000
0000
0000
0000
,  // measure 64
0010
0010
0010
0000
,  // measure 65
0100
0000
0000
0000
,  // measure 66
0001
0000
0000
0000
,  // measure 67
1000
0000
0000
0000
,  // measure 68
0100
0000
0010
0000
,  // measure 69
0001
0000
0000
0000
,  // measure 70
1000
0000
0000
0000
,  // measure 71
0010
0000
0000
0000
,  // measure 72
0100
0100
0010
0000
,  // measure 73
1000
0000
0000
0000
,  // measure 74
0001
0000
0000
0000
,  // measure 75
0010
0000
0000
0000
,  // measure 76
0100
0000
0000
0000
,  // measure 77
1000
0000
0000
0000
,  // measure 78
0010
0000
0000
0000
,  // measure 79
0110
0000
0000
0000
;
