#TITLE:THE FALLEN;
#SUBTITLE:;
#ARTIST:L.E.D.-G;
#TITLETRANSLIT:;
#SUBTITLETRANSLIT:;
#ARTISTTRANSLIT:;
#CREDIT:;
#BANNER:bn.png;
#BACKGROUND:bg.png;
#LYRICSPATH:;
#CDTITLE:;
#MUSIC:23 THE FALLEN.mp3;
#OFFSET:-0.364;
#SAMPLESTART:13.300;
#SAMPLELENGTH:12.000;
#SELECTABLE:YES;
#BPMS:0.000=167.000;
#STOPS:36.000=2.515
;
#BGCHANGES:;

//---------------dance-single - ----------------
#NOTES:
     dance-single:
     :
     Hard:
     10:
     0.663,0.823,0.397,0.135,0.892:
0000
0000
0000
0000
,
0000
0000
0000
0000
,
0000
0000
0000
0000
,
0000
0000
0000
0000
,
0000
0000
0000
0000
,
1000
0001
0010
1000
,
0010
0001
0100
0001
,
0010
0000
0010
0100
0000
0100
1000
0000
1000
0001
0000
0001
,
0100
0010
1000
0100
0010
0100
1000
0001
0100
0010
1000
0100
,
0120
0030
0000
1001
0000
0000
0001
0000
0000
0100
0000
0000
,
0010
0000
1000
0010
0000
0000
0100
0000
0000
0001
0000
0000
,
1000
0000
0100
0010
0000
0000
0010
0000
0100
0010
0000
0010
,
0001
0010
0100
1000
0000
0000
1000
0000
0001
0010
0000
0000
,
0100
0000
0010
0001
0000
0001
0100
0000
0100
0010
0000
0010
,
1000
0000
1000
0001
0000
0000
1000
0000
0000
0100
0000
0000
,
0010
0000
0001
0010
0000
0100
1000
0000
1000
0010
0000
0100
,
0001
0000
1000
1010
0000
0000
1010
0000
0000
0101
0000
0000
,
0001
0010
0100
1000
0000
0000
0001
0000
0000
0010
0000
0000
,
0001
0000
0100
0010
0000
0000
1000
0000
0000
0001
0000
0000
,
1000
0000
1000
0100
0000
0000
1000
0000
0000
0010
0000
0100
,
0010
1000
0001
0010
0000
0000
0100
0000
0010
0001
0000
0000
,
0010
0000
0010
0100
0000
0000
1000
0000
0000
0100
0000
1000
,
0100
0000
1000
0010
0000
0000
0100
0000
0000
0001
0000
0000
,
1000
0000
0001
0100
0000
0010
1000
0000
0000
1000
0000
1000
,
0001
0000
0002
2000
0000
0000
0000
0000
0000
3003
0000
0000
,
0001
0100
0010
1000
0000
1000
0100
0000
0001
0010
0000
0001
,
0100
0000
0010
1000
0000
0000
0010
0000
0000
0100
0000
0000
,
0001
0101
1100
1100
,
0101
0000
0000
1001
0000
0000
0001
0010
1000
0020
0000
0000
,
0030
0000
0000
0011
0000
0001
0010
0000
0100
1000
0000
0000
,
1001
0000
0001
0100
0000
0010
1000
0000
1000
0100
0000
0000
,
1100
0000
0100
0010
0000
0000
0100
0000
0010
0001
0000
0000
,
0100
0000
0010
1010
0000
0000
0101
0000
0000
0011
0000
0020
,
0100
0030
0200
1000
0300
1000
0001
0000
0001
0100
0000
0100
,
0010
0000
1000
0100
0000
0000
0010
0000
0000
0100
0000
0000
,
1000
1001
0101
1001
,
0011
0000
0000
1001
0000
0000
0010
1000
0100
2000
0000
0000
,
0000
0000
0000
3001
0000
0000
1000
0000
0001
0100
0000
0000
,
0010
0000
1000
0010
0000
0000
0100
0000
0001
1000
0000
0000
,
0100
0000
1000
0001
0010
2000
3010
0001
0200
1300
0100
0002
,
0013
0001
0200
0310
1000
0100
0010
0100
1000
0001
0100
0010
,
1000
0100
0010
0001
0000
0000
0001
0000
0000
0001
0000
0000
,
0001
1000
1000
1000
,
1000
0010
0010
0010
,
0010
0100
0100
0100
,
0100
0010
1000
0010
,
0100
0001
0010
0100
,
0010
0000
0000
0001
1000
0001
1000
0001
1000
0001
1000
0001
,
1000
0001
1000
0001
1000
0100
0020
0000
0130
1000
0010
0100
,
0001
1000
0100
0010
0000
0000
1100
0000
0000
1000
0100
1000
,
0010
0100
0001
0010
0100
0010
0001
0100
0010
1000
0001
0010
,
0100
0010
0001
1000
0001
0100
0001
0000
0001
0010
0100
0010
,
0001
0100
0010
1000
0001
0010
0001
0100
0010
1000
0010
0100
,
0010
1000
0001
0010
0100
1000
0001
0000
1000
0001
1000
0100
,
0010
0100
1000
0001
0100
0010
1000
0100
0010
0100
1000
0001
,
0010
0100
0010
0001
0000
0100
0001
0000
0001
0010
0000
0010
,
0100
0000
0000
0000
0000
0000
0000
0000
0100
0000
0000
0000
1000
0000
0000
0100
0000
0000
1000
0000
0000
0100
0000
0000
1000
0000
0000
0100
0000
0000
1000
0000
0000
0100
0000
0000
1000
0000
0000
0100
0000
0000
1000
0000
0000
0100
0000
0000
,
1000
0000
0000
0100
0000
0000
1000
0000
0000
0100
0000
0000
1000
0000
0000
0000
0000
0000
0000
0000
0000
0000
0000
0000
1100
0000
0000
0000
0000
0000
0000
0000
0000
0000
0000
0000
0101
0000
0000
0000
0000
0000
0000
0000
0001
0000
0000
0000
,
0011
0000
0000
1100
0000
0000
1001
0000
0010
0110
0000
0000
,
1001
0000
0000
0001
1000
0010
1010
0000
0000
0101
0000
0000
,
1001
0000
0010
0011
0000
0000
1100
0000
0000
1001
0000
0001
,
0101
0000
0000
1010
0000
0000
1001
0000
1000
1100
0000
0000
,
0011
0000
0000
0101
0000
0010
1010
0000
0000
1001
0000
0000
,
0001
0010
0100
0010
0000
0001
0010
0000
0010
0100
0000
0100
,
1000
0000
1000
0001
0000
0100
0001
0000
0001
0010
0000
0010
,
0100
0000
0100
1000
0001
1000
0001
0100
0001
0020
0000
0000
,
0100
0030
0100
0010
0000
0010
0001
0000
0001
0100
0000
0100
,
0010
0000
0010
1000
0000
1000
0001
0000
0001
0010
0100
1000
,
0100
0010
0100
1000
0010
0100
0001
1000
0001
0010
0100
0010
,
0001
0100
0001
2002
0000
0000
0000
0000
0000
0000
0000
0000
,
0000
3003
0000
0000
;

//---------------dance-single - ----------------
#NOTES:
     dance-single:
     :
     Medium:
     8:
     0.493,0.570,0.577,0.117,0.284:
0000
0000
0000
0000
,
0000
0000
0000
0000
,
0000
0000
0000
0000
,
0000
0000
0000
0000
,
0000
0000
0000
0000
,
0001
1000
0100
0100
,
1000
0001
0010
0010
,
0001
1000
0100
0010
,
1100
0011
0110
1010
,
0101
0001
1000
0100
,
0010
0000
0001
0010
0000
0000
0100
0000
0000
0010
0000
0000
,
0001
0000
0100
0001
0000
0000
0010
0000
0000
0100
0000
1000
,
0100
0000
0010
0001
0000
0000
0001
0000
1000
0010
0000
0000
,
0100
0000
0010
1000
0000
0000
0001
0000
0000
0010
0000
0010
,
0001
0000
0001
1000
0000
0000
0001
0000
0000
0010
0000
0000
,
0001
0000
0100
0001
0000
0000
0010
0000
0000
0100
0000
0100
,
1000
0000
1000
1010
0000
0000
1010
0000
0000
1010
0000
0000
,
1000
0010
0100
0001
0000
0000
1000
0000
0000
0100
0000
0000
,
1000
0000
0010
0100
0000
0000
0001
0000
0000
1000
0000
0000
,
0100
0000
0010
0001
0000
0000
0010
0000
0000
0100
0000
0010
,
0001
0000
0001
1000
0000
0000
0001
0000
0000
1010
0000
0000
,
0001
0000
0000
1100
0000
0000
0110
0000
0000
0011
0000
0001
,
0010
0000
0010
0100
0000
0000
1000
0000
0000
0010
0000
0000
,
0100
0000
0001
1000
0000
0000
0100
0000
1000
0010
0000
0010
,
0100
0000
0010
2000
0000
0000
0000
0000
0000
0000
0000
0000
,
0000
3001
1000
0100
,
0010
0011
1001
0011
,
1001
0101
1100
0101
,
1100
1001
0110
2002
,
3003
0000
0000
0011
0000
0000
0100
0000
0010
0100
0000
0000
,
0001
0000
0010
0100
0000
0000
0001
0000
0000
1000
0000
0000
,
0010
0000
0100
0001
0000
0000
1000
0000
0000
0100
0000
0000
,
0010
0011
1100
1010
,
0101
0001
1000
0100
,
0010
0100
1000
0010
,
0100
0110
1001
0011
,
1001
0000
0000
0101
0000
0000
0001
0100
0010
2000
0000
0000
,
0000
3010
1000
0100
,
0010
0100
1000
0001
,
0010
0000
0000
0011
0000
0001
0010
0000
0010
0100
0000
0100
,
1000
0000
1000
0001
0000
0100
0001
0000
0001
0010
0000
0010
,
0100
0000
0100
2200
0000
0000
0000
0000
0000
0000
0000
0000
,
0000
0000
0000
0000
,
3300
0010
1000
0010
,
0100
0010
1000
0001
,
0010
1000
0010
0001
,
0100
0010
1000
0001
,
0010
0000
0000
0001
0100
0001
0100
0001
0100
0001
0100
0001
,
0100
0001
0100
0002
0000
0000
1003
0000
0000
2000
0000
0000
,
3100
0100
0011
1001
,
0101
0011
0110
1100
,
1001
0101
1010
1100
,
0110
0011
0101
0110
,
1001
0101
1010
1100
,
0110
1100
0110
0011
,
0110
1001
0110
1010
,
0011
2002
0000
0000
,
3003
0000
0000
0001
0000
0000
1000
0000
0000
0100
0000
0010
,
0001
0000
0000
0100
0000
0000
0010
0000
0010
1000
0000
0000
,
0100
0000
0000
1000
0001
1000
0010
0000
0000
0100
0000
0000
,
0002
0000
0000
0013
0000
0000
0100
0000
0000
1000
0000
0010
,
0100
0000
0000
0001
0000
0000
1000
0000
0100
1000
0000
0000
,
0010
0000
0000
0100
0000
0001
1000
0000
0000
0001
0000
0000
,
0001
0010
0100
1000
0000
0000
0001
0000
0000
0010
0000
0010
,
0001
0000
0000
0100
0000
0000
0010
0000
0100
0001
0000
0000
,
1000
0000
0000
0100
0000
0100
1000
0010
0100
0020
0000
0000
,
0130
0000
0000
0110
0000
0000
1000
0000
0000
0001
0000
0001
,
0100
0000
0000
0010
0000
0000
1000
0000
0100
1000
0000
0000
,
0010
0000
0000
0100
0000
0001
0010
0000
0000
0100
0000
0000
,
1000
0001
0010
0200
0000
0000
0000
0000
0000
0000
0000
0000
,
0000
0300
0000
0000
;

//---------------dance-single - ----------------
#NOTES:
     dance-single:
     :
     Easy:
     6:
     0.411,0.538,0.658,0.144,0.009:
0000
0000
0000
0000
,
0000
0000
0000
0000
,
0000
0000
0000
0000
,
0000
0000
0000
0000
,
0000
0000
0000
0000
,
1001
0010
0010
0010
,
0010
0010
0010
0010
,
1000
0010
0100
0001
,
1001
0110
1001
0220
,
0330
0001
1000
0100
,
1000
0010
0100
0001
,
0010
0100
0010
0001
,
1000
0001
1000
0100
,
1000
0010
0010
0100
,
0010
1000
0100
0001
,
0100
1000
0010
0100
,
0001
1001
1001
1001
,
0010
0101
0100
0010
,
1000
0100
1000
0010
,
0100
0001
0010
1000
,
0010
0001
0100
0100
,
0010
1010
0010
0100
,
0100
0010
1000
0001
,
0010
0100
0010
0001
,
0100
2020
0000
0000
,
3030
1010
0001
1010
,
0001
1100
0110
0011
,
0110
1001
1001
1001
,
1001
0101
1010
2200
,
3300
1010
0010
0100
,
0010
1001
0010
0100
,
1000
0110
0001
1010
,
0001
0011
0011
0020
,
0230
1300
0010
0100
,
0010
1001
0010
1001
,
0010
0101
0101
0101
,
0101
0101
1010
2200
,
3300
1010
0010
1001
,
0010
1001
0010
1001
,
0010
0101
1100
1010
,
0011
0101
1010
1100
,
0011
2002
0000
0000
,
0000
0000
0000
0000
,
3003
0001
0000
0001
,
0000
0001
0000
0001
,
0000
1000
0000
1000
,
0000
1000
0000
1000
,
0000
1000
0000
0010
,
0000
0100
0000
0001
,
0000
0000
1100
1000
,
0001
0100
0001
1000
,
0100
1000
0010
0001
,
0010
1000
0010
0010
,
1000
0010
1000
0001
,
0010
0001
1000
0010
,
1000
0010
0100
0001
,
1000
0200
0000
0000
,
0300
0100
1000
1010
,
0010
0100
0110
0010
,
1000
1001
0011
0110
,
1100
0010
0001
0101
,
0010
1000
1001
0001
,
0100
1010
0110
0110
,
0110
0010
1000
1001
,
0001
0100
1010
1000
,
0100
0000
0011
0000
2200
0000
0000
3300
,
1100
0001
1000
1100
,
1000
0010
0110
0010
,
1000
0011
0001
0100
,
0010
1000
0010
0200
0000
0000
0000
0000
0000
0000
0000
0000
,
0000
0300
0000
0000
;

//---------------dance-single - ----------------
#NOTES:
     dance-single:
     :
     Beginner:
     3:
     0.178,0.412,0.162,0.081,0.000: // measure 1
0000
0000
0000
0000
,  // measure 2
0000
0000
0000
0000
,  // measure 3
0000
0000
0000
0000
,  // measure 4
0000
0000
0000
0000
,  // measure 5
0000
0000
0000
0000
,  // measure 6
0010
0000
0000
0000
,  // measure 7
1000
0000
0000
0000
,  // measure 8
0001
0000
0001
0000
,  // measure 9
1000
0001
0100
0010
,  // measure 10
1001
0100
0000
0000
,  // measure 11
0000
0010
0000
0000
,  // measure 12
0000
1000
0000
0000
,  // measure 13
0000
0001
0000
1000
,  // measure 14
0000
0110
0000
0000
,  // measure 15
0000
0010
0000
0000
,  // measure 16
0000
1000
0000
0000
,  // measure 17
0000
0001
0001
0001
,  // measure 18
0001
1001
0000
0000
,  // measure 19
0000
0100
0000
0000
,  // measure 20
0000
0010
0000
1000
,  // measure 21
0000
0100
0000
1000
,  // measure 22
0000
1001
0000
0000
,  // measure 23
0000
0010
0000
0000
,  // measure 24
0000
0100
0000
0010
,  // measure 25
0000
2002
0000
3003
,  // measure 26
0000
0001
0001
0001
,  // measure 27
0000
1000
1000
1000
,  // measure 28
0000
0010
0000
0100
,  // measure 29
0000
0110
0110
0110
,  // measure 30
0000
0100
0000
0000
,  // measure 31
0000
0010
0000
0000
,  // measure 32
0000
1000
0000
0000
,  // measure 33
0000
0001
0000
1000
,  // measure 34
0000
0110
0000
0000
,  // measure 35
0000
0100
0000
0010
,  // measure 36
0000
1000
0000
0000
,  // measure 37
0000
0001
0001
0002
,  // measure 38
0003
1001
0000
0000
,  // measure 39
0000
0110
0000
0000
,  // measure 40
0000
0010
0010
0100
,  // measure 41
0100
1001
0110
1001
,  // measure 42
0110
2002
0000
0000
,  // measure 43
3003
0000
0000
0000
,  // measure 44
0000
0000
0000
0000
,  // measure 45
0000
0000
0000
0000
,  // measure 46
0000
1000
0000
0000
,  // measure 47
0000
0001
0000
0000
,  // measure 48
0000
0100
0000
0010
,  // measure 49
0000
1000
0001
0100
,  // measure 50
0010
0000
1001
0001
,  // measure 51
0000
0001
0000
1000
,  // measure 52
0000
1000
0000
0010
,  // measure 53
0000
0100
0000
0010
,  // measure 54
0000
1000
0000
0001
,  // measure 55
0000
0010
0000
0100
,  // measure 56
0000
1000
0000
0010
,  // measure 57
0000
0200
0000
0000
,  // measure 58
0300
0010
0000
0000
,  // measure 59
1000
0000
0000
0001
,  // measure 60
0000
0000
0010
0010
,  // measure 61
0010
0010
0000
0000
,  // measure 62
0100
0000
0000
1000
,  // measure 63
0000
0000
1000
1000
,  // measure 64
1000
0010
0000
0000
,  // measure 65
0100
0000
0000
0001
,  // measure 66
0000
0000
1000
0002
,  // measure 67
0003
1000
0000
0000
,  // measure 68
0001
0000
0000
0010
,  // measure 69
0000
0000
0100
0000
,  // measure 70
0000
0220
0000
0000
,  // measure 71
0000
0330
0000
0000
;
