#TITLE:Sunlight;
#SUBTITLE:;
#ARTIST:Xacla;
#TITLETRANSLIT:;
#SUBTITLETRANSLIT:;
#ARTISTTRANSLIT:;
#CREDIT:;
#BANNER:sunlightbn.png;
#BACKGROUND:bg.png;
#LYRICSPATH:;
#CDTITLE:;
#MUSIC:[Euphoric Trance] Sunlight.mp3;
#OFFSET:0.110;
#SAMPLESTART:58.524;
#SAMPLELENGTH:12.000;
#SELECTABLE:YES;
#BPMS:0.000=135.000;
#STOPS:;
#BGCHANGES:;

//---------------dance-single - ----------------
#NOTES:
     dance-single:
     :
     Hard:
     7:
     0.360,0.428,0.092,0.249,0.143:
0000
0000
0000
0000
,
0000
0000
0000
0000
,
0000
0000
0000
0000
,
0000
0000
0000
0000
,
0000
0000
0000
0000
,
0001
0000
0000
0000
0100
0000
0000
1000
,
0000
1000
0000
0000
0000
0000
0000
0000
,
0000
0000
0000
0000
,
0000
0000
0000
0000
,
0001
0000
1000
0000
0100
0000
0010
0001
,
0000
0001
0000
0001
0000
1000
0001
0010
,
0000
0010
0000
1000
0000
0010
0000
0001
,
0000
0100
0000
0010
0000
1000
0000
0001
,
0200
0000
0000
0000
1000
0000
0000
0001
,
0000
0002
0000
0303
0000
0100
0010
0100
,
0001
1000
0000
1000
0000
0001
0000
0001
,
0100
0001
0010
1000
0010
0001
0100
0010
,
1000
0001
0000
0001
0100
0010
1000
0200
,
0000
0000
0020
0000
0000
0000
0330
0000
0010
0000
0000
0001
0000
0000
0010
0000
,
0100
0000
0000
0100
0000
0000
0010
0000
0000
0001
0000
0000
1000
0000
0000
0001
,
0000
0000
0100
0000
0000
0010
0000
0000
1000
0000
0000
0100
0000
0000
0010
0000
,
0011
0000
0000
0000
1100
0000
0000
1002
,
0000
0000
1003
0000
0000
0000
0000
0000
1000
0000
0000
0001
0000
0000
0010
0000
,
0100
0000
0000
0010
0000
0000
0001
0000
0000
1000
0000
0000
0100
0000
0000
0001
,
0000
0000
0100
0000
0000
0010
0000
0000
1000
0000
0000
0001
0000
0000
0010
0000
,
0002
0000
0000
0000
0203
0000
0000
2300
,
0000
0000
0200
0000
0000
0000
3300
0000
1000
0000
0000
0100
0000
0000
0001
0000
,
0010
0000
0000
0010
0000
0000
0100
0000
0000
1000
0000
0000
0100
0000
0000
0010
,
0000
0000
0001
0000
0000
0100
0000
0000
0010
0000
0000
0001
0000
0000
0100
0000
,
0010
1000
0000
1000
0001
0010
0100
0010
,
0000
0010
0000
0000
0000
0000
0000
0000
,
0010
0001
0010
0001
0010
1000
0010
1000
,
0220
0000
0000
0330
,
1000
0001
1000
0001
0200
0000
0310
0000
,
0100
0010
0100
0010
0200
0000
0301
0000
,
1000
0001
1000
0001
2000
0000
3100
0000
,
0100
1000
0010
0100
0001
0010
0100
0010
,
0001
0100
0010
1000
0200
0000
1300
0000
,
1000
0100
1000
0100
0020
0000
0031
0000
,
0001
0010
0001
0010
0002
0000
0103
0000
,
0100
0010
1000
0000
1000
0001
0010
0000
,
0001
0000
0000
0000
1000
0000
0000
0000
1100
0000
0000
1000
0000
0000
0100
0000
,
1000
0000
0000
0000
0010
0000
0000
0000
0110
0000
0000
0010
0000
0000
1000
0000
,
0001
0000
0000
0000
0100
0000
0000
0000
1001
0000
0000
0100
0000
0000
0001
0000
,
0010
1000
0011
1001
,
0000
1000
0000
0000
0100
0000
0000
0010
0000
0000
0001
0000
0000
0010
0000
0000
,
0100
1000
0000
0000
0010
0000
0000
0010
0000
0000
1000
0000
0000
0100
0000
1000
,
0000
0010
0000
0000
0100
0000
0000
0001
0000
0000
0010
0000
0000
0100
0000
0000
,
1000
1000
0001
1000
0001
0010
0001
0100
,
0020
0000
0130
0010
,
2000
0000
3001
1000
,
0200
0000
0310
0001
,
0200
0000
0310
1000
,
0200
0000
0310
1000
,
0002
0000
0103
0010
,
2000
0000
3010
0100
,
0002
0000
0013
0100
,
2002
0000
0000
0000
,
3003
0000
0000
0000
;

//---------------dance-single - ----------------
#NOTES:
     dance-single:
     :
     Medium:
     4:
     0.264,0.294,0.018,0.166,0.000:
0000
0000
0000
0000
,
0000
0000
0000
0000
,
0000
0000
0000
0000
,
0000
0000
0000
0000
,
0000
0000
0000
0000
,
1000
0000
0000
0000
0010
0000
0000
0100
,
0000
0100
0000
0000
0000
0000
0000
0000
,
0000
0000
0000
0000
,
0000
0000
0000
0000
,
0001
0000
0000
0000
1000
0000
0000
0010
,
0000
0010
0000
0000
0000
0000
0100
0000
,
0000
0010
0000
1000
,
0000
0001
0000
1000
,
0001
0000
0000
0000
0100
0000
0000
1000
,
0000
0100
0000
0000
0000
0010
0100
0010
,
0000
0100
0000
0010
0000
1000
0000
0001
,
0000
0001
0000
1000
0000
1000
0000
0001
,
0200
0000
0000
0000
0010
0000
0000
0010
,
0000
0020
0000
0330
0010
0000
1000
0000
,
0100
0001
0100
1000
,
0010
0100
0001
0010
,
0200
0000
0000
0000
0010
0000
0000
1000
,
0000
2000
0000
3300
1000
0000
0001
0000
,
0100
0100
0001
0010
,
1000
0010
0001
0100
,
0020
0000
0000
0000
1000
0000
0000
0100
,
0000
0200
0000
0330
0010
0000
1000
0000
,
0001
0010
0001
0100
,
1000
0100
0010
1000
,
0002
0000
0000
0000
0010
0000
0000
0100
,
0000
0200
0000
0000
0000
0000
0303
0000
,
0001
0100
1000
0100
,
0220
0000
0000
0330
,
0010
0000
1000
0100
1000
0000
0010
0000
,
0100
0000
0001
0100
0001
0000
0100
0000
,
0010
0000
1000
0010
1000
0000
0010
0000
,
1000
0000
0001
1000
0001
0000
0001
0000
,
0100
0010
1000
0100
,
0010
0100
1000
0001
,
0100
0010
0100
0001
,
1000
0100
0010
0100
,
1000
0010
0100
0001
1000
0000
0000
0000
,
0001
0100
0010
1000
0100
0000
0000
0000
,
1000
0100
0010
0100
1000
0000
0000
0000
,
1000
0001
0100
0001
0100
0000
0000
0000
,
0002
0000
2003
0000
,
3020
0000
0230
0010
,
0320
0000
2030
0000
,
3001
0000
0100
0000
1000
0000
0100
0001
,
0010
0001
0100
1000
,
0100
0001
0010
0100
,
0010
0001
1000
0100
,
1000
0010
0100
0001
,
1000
0010
1000
0010
,
1000
0001
1000
0001
,
0100
0001
0100
0001
,
0010
0001
0010
0001
,
2200
0000
0000
0000
,
3300
0000
0000
0000
;

//---------------dance-single - ----------------
#NOTES:
     dance-single:
     :
     Easy:
     2:
     0.179,0.241,0.009,0.286,0.000:
0000
0000
0000
0000
,
0000
0000
0000
0000
,
0000
0000
0000
0000
,
0000
0000
0000
0000
,
0000
0000
0000
0000
,
1000
0000
0000
0000
0001
0000
0000
1000
,
0000
0001
0000
0000
0000
0000
0000
0000
,
0000
0000
0000
0000
,
0000
0000
0000
0000
,
0010
0000
0000
0000
0100
0000
0000
0010
,
0000
0100
0000
0000
0000
0000
0000
0000
,
0000
0000
0000
0000
,
0000
0000
0000
0000
,
0001
0000
0000
0000
0100
0000
0000
0010
,
0000
1000
0000
0000
0000
0000
0000
0000
,
0000
0000
0000
0000
,
0000
0000
0000
0000
,
0010
0000
0000
0000
1000
0000
0000
0001
,
0000
1000
0000
0000
0001
0000
0100
0000
,
0010
0010
0100
0100
,
0001
1000
0100
0010
,
0001
0000
0000
0000
0010
0000
0000
0100
,
0000
1000
0000
0000
0100
0000
1000
0000
,
0010
1000
0010
0001
,
0010
1000
0100
0010
,
0001
0000
0000
0000
1000
0000
0000
0100
,
0000
0100
0000
0000
1000
0000
0010
0000
,
0100
0010
1000
0001
,
0010
0100
1000
0100
,
1000
0000
0000
0000
0010
0000
0000
0100
,
0000
0100
0000
0000
0000
0000
0000
0000
,
0000
0000
0000
0000
,
2002
0000
0000
3003
,
0001
0001
2000
3000
,
0010
1000
0020
0030
,
0100
0100
0020
0030
,
0100
0001
0020
0030
,
0100
1000
0020
0030
,
1000
0001
0200
0300
,
0001
1000
2000
3000
,
0010
0100
0002
0003
,
2000
0000
0002
3003
,
0002
0000
0200
0303
,
0020
0000
0200
0330
,
0200
0000
2000
3300
,
2000
0000
0020
3030
,
0020
0000
0200
0330
,
0200
0000
0002
0303
,
0002
0000
0020
0033
,
0200
0000
0000
0000
,
0000
0000
0000
0000
,
2300
0000
0000
0000
,
0000
0000
0000
0000
,
3020
0000
0000
0000
,
0000
0000
0000
0000
,
0230
0000
0000
0000
,
0000
0000
0000
0000
,
0020
0000
0000
0000
,
0330
0000
0000
0000
;

//---------------dance-single - ----------------
#NOTES:
     dance-single:
     :
     Beginner:
     1:
     0.055,0.105,0.018,0.037,0.000: // measure 1
0000
0000
0000
0000
,  // measure 2
0000
0000
0000
0000
,  // measure 3
0000
0000
0000
0000
,  // measure 4
0000
0000
0000
0000
,  // measure 5
0000
0000
0000
0000
,  // measure 6
0100
0000
0000
0000
,  // measure 7
0000
0000
0000
0000
,  // measure 8
0000
0000
0000
0000
,  // measure 9
0000
0000
0000
0000
,  // measure 10
0001
0000
0000
0000
,  // measure 11
0000
0000
0000
0000
,  // measure 12
0000
0000
0000
0000
,  // measure 13
0000
0000
0000
0000
,  // measure 14
1000
0000
0000
0000
,  // measure 15
0000
0000
0000
0000
,  // measure 16
0000
0000
0000
0000
,  // measure 17
0010
0000
0010
0000
,  // measure 18
0100
0000
0000
0000
,  // measure 19
0000
0000
0000
0000
,  // measure 20
0010
0000
0000
0000
,  // measure 21
0000
0000
0000
0000
,  // measure 22
1000
0000
0000
0000
,  // measure 23
0000
0000
0000
0000
,  // measure 24
0001
0000
0000
0000
,  // measure 25
0000
0000
0000
0000
,  // measure 26
0010
0000
0000
0000
,  // measure 27
0000
0000
0000
0000
,  // measure 28
0100
0000
0000
0000
,  // measure 29
0000
0000
0000
0000
,  // measure 30
1000
0000
0000
0000
,  // measure 31
0000
0000
0000
0000
,  // measure 32
0010
0000
0100
0000
,  // measure 33
1001
0000
0000
0000
,  // measure 34
0100
0000
0000
0000
,  // measure 35
0100
0000
0000
0000
,  // measure 36
0010
0000
0000
0000
,  // measure 37
0010
0000
0000
0000
,  // measure 38
1000
0000
0000
0000
,  // measure 39
0001
0000
0000
0000
,  // measure 40
0100
0000
0000
0000
,  // measure 41
0010
0000
0000
0000
,  // measure 42
1000
0000
0000
0000
,  // measure 43
1000
0000
0000
0000
,  // measure 44
0001
0000
0000
0000
,  // measure 45
0001
0000
0000
0000
,  // measure 46
0100
0000
0000
0000
,  // measure 47
0100
0000
0000
0000
,  // measure 48
0010
0000
0000
0000
,  // measure 49
0010
0000
0000
0000
,  // measure 50
0200
0000
0300
0000
,  // measure 51
0000
0000
0000
0000
,  // measure 52
0020
0000
0000
0030
,  // measure 53
0000
0000
0000
0000
,  // measure 54
2000
0000
0000
3000
,  // measure 55
0000
0000
0000
0000
,  // measure 56
0002
0000
0000
0003
,  // measure 57
0000
0000
0000
0000
,  // measure 58
0110
0000
0000
0000
;
