#TITLE:Smug Face;
#SUBTITLE:;
#ARTIST:SUPER STAR -MITSURU-;
#TITLETRANSLIT:;
#SUBTITLETRANSLIT:;
#ARTISTTRANSLIT:;
#CREDIT:;
#BANNER:bn.png;
#BACKGROUND:bg.png;
#LYRICSPATH:;
#CDTITLE:;
#MUSIC:Smug Face.mp3;
#OFFSET:-0.600;
#SAMPLESTART:13.580;
#SAMPLELENGTH:12.000;
#SELECTABLE:YES;
#BPMS:0.000=148.000;
#STOPS:;
#BGCHANGES:;

//---------------dance-single - ----------------
#NOTES:
     dance-single:
     :
     Hard:
     8:
     0.466,0.617,0.187,0.294,0.276:
0000
0000
0000
0000
,
0000
0000
0000
0000
,
0000
0000
0000
0000
,
0000
0000
0000
0000
,
0001
0100
0010
0100
,
0001
0000
1000
0000
0100
0000
0010
0100
,
1000
0000
0001
0000
0100
0001
0010
0100
,
0000
1100
0000
1001
0000
0101
0000
0011
,
0001
0000
0000
0001
1000
0000
0000
0000
1000
0000
0000
1000
0010
0000
0000
0000
,
0100
0000
0000
0010
1000
0000
0000
0000
1000
0000
0000
0001
0100
0000
0001
0000
,
0010
0000
0000
0010
0100
0000
0000
0000
0100
0000
0000
0100
1000
0000
0000
0000
,
1000
0000
0000
1000
0010
0000
0000
0000
0100
0000
0000
0100
0010
0000
1000
0000
,
0100
1000
0010
0100
0001
1000
0100
0000
,
1000
0001
0010
0001
0100
0001
1000
0000
,
1001
0001
1000
0000
1001
1000
0001
0000
,
0100
0000
0100
0000
0100
0000
0000
0100
0000
0000
0100
0000
0000
0100
0000
0000
,
0020
1030
0200
1300
,
0200
0310
0020
0130
,
0002
0103
0020
0130
,
0200
1300
2000
3001
,
2000
3010
0020
0130
,
0200
0310
0020
1030
,
2000
3001
0200
0301
,
1000
0000
0000
0000
0001
0000
0000
0000
0100
0001
0000
0100
0010
0000
1000
0000
,
0100
1000
0010
0000
0100
0001
1000
0000
,
0001
0001
0010
0000
0001
0001
0010
0000
,
0100
0000
1000
0000
0010
0000
0000
0000
0100
0000
0001
0000
1000
0000
0001
1000
,
0001
0100
0001
0000
0110
0100
0101
0000
,
0001
1000
0100
0000
1000
0010
0100
0000
,
0010
1000
0001
0000
0010
0001
0100
0000
,
0010
1000
0001
0000
0010
0100
1000
0000
,
1000
2002
3003
2002
3003
2002
3003
1000
,
0100
1000
0100
1000
,
0100
0010
0001
0010
,
0001
0100
0001
0100
,
0010
0100
0010
1000
,
0002
0000
0003
0000
,
2000
0000
3000
0000
,
0020
0000
0030
0000
,
0200
0000
0300
0000
,
1002
0100
1000
0100
,
1003
0000
0000
0000
,
2001
0100
0001
0100
,
3001
0000
0000
0000
,
1001
0010
0010
0010
,
1001
0010
0010
0010
,
1001
0010
0101
0010
,
1000
0200
0020
0000
0000
0000
0330
0000
,
0100
1000
0000
0001
0000
0100
0000
0001
0000
0000
0010
0000
0100
0000
0000
0000
,
0100
1000
0000
0001
0000
0100
0000
0001
0000
0000
0001
0000
0100
0000
0000
0000
,
0010
1000
0000
0001
0000
0010
0000
0100
0000
0000
0100
0000
0010
0000
0001
0000
,
1000
0001
0000
0100
0000
0001
0000
0010
0000
0000
0010
0000
0100
0000
0010
0000
,
0001
1000
0000
0001
0000
0100
0000
0100
0000
0000
0010
0000
1000
0000
0100
0000
,
0010
0100
0000
1000
0000
1000
0000
1000
0000
0000
1000
0000
0001
0000
0010
0000
,
0100
0010
0000
0001
0000
0100
0000
0001
0000
0000
0001
0000
1000
0000
0010
0000
,
0100
0001
0000
0010
0000
0100
0000
1000
0000
0000
1000
0000
0001
0000
0010
0000
,
0012
0100
0010
0103
,
2010
0100
0010
3100
,
0102
0010
0100
0013
,
2010
0000
0000
0000
0100
0000
0000
0000
0010
0000
0000
0000
3100
0000
0000
1000
,
0100
0000
0000
0100
0010
0000
0000
0010
0001
0000
0000
0001
1000
0000
0000
1000
,
0001
0000
0000
0001
0010
0000
0000
0010
0100
0000
0000
0100
1000
0000
0000
1000
,
0010
0000
0000
0010
0100
0000
0000
0100
0001
0000
0000
0001
0010
0000
0000
0010
,
0001
0000
0000
0001
0100
0000
0000
0010
1000
0000
0000
1000
0100
0000
0000
0100
,
0020
0000
0000
0000
,
0000
0000
0000
0000
,
0030
0000
0000
0000
;

//---------------dance-single - ----------------
#NOTES:
     dance-single:
     :
     Medium:
     5:
     0.312,0.412,0.125,0.249,0.009:
0000
0000
0000
0000
,
0000
0000
0000
0000
,
0000
0000
0000
0000
,
0000
0000
0000
0000
,
0001
0001
1000
1000
,
0001
0000
1000
0000
0010
0000
0100
0010
,
0100
0000
0010
0000
1000
0000
0001
1000
,
0000
0100
0000
0100
0000
0100
0000
0100
,
1000
1010
1000
1010
,
1000
0000
1010
0000
1000
0000
0010
0100
,
0001
0101
0100
0101
,
0100
0000
0101
0000
0001
0000
0100
0010
,
1000
1000
0001
0100
,
0010
1000
0010
0001
,
0110
0010
1010
1000
,
0010
0000
1000
0000
0001
0000
0000
1000
0000
0000
0001
0000
0000
0010
0000
0000
,
0002
0000
0003
0000
,
0020
0030
0200
0300
,
2000
3000
0020
0030
,
0200
0300
0020
0030
,
2000
3000
0002
0003
,
0020
0030
0002
0003
,
0020
0000
0000
0030
,
0002
0003
0200
0300
,
0010
1000
0010
0100
,
0001
1000
0001
0000
0001
1000
0001
0000
,
1000
0001
0100
0010
,
0100
0010
0100
0000
0010
0010
0010
0000
,
0100
0000
0001
0000
1000
0010
0100
0000
,
0010
0000
1000
0000
0001
0010
0001
0000
,
0100
0010
1000
0000
0010
0100
0001
0000
,
0100
0010
1000
0001
,
2002
0000
0000
0000
,
0000
0000
0000
0000
,
3003
0000
0000
0000
,
0000
0000
0000
0000
,
0000
0000
0000
0000
,
0000
0000
0000
0000
,
0000
0000
0000
0000
,
0000
0000
0000
0000
,
1000
1000
1000
1000
,
1000
0000
0000
0000
,
0001
0001
0001
0001
,
0001
0000
0000
0100
,
0010
0000
0100
0000
,
0010
0000
1000
0000
,
0001
0000
1000
0000
,
0001
0200
0020
0000
0000
0000
0330
0000
,
0010
0100
0001
0000
1000
0000
0001
0000
,
1000
0001
0100
0000
0010
0000
1000
0000
,
0010
1000
0100
0000
1000
0000
0010
0000
,
0100
0010
1000
0000
0010
1000
0010
0000
,
0100
0001
1000
0000
0001
0000
0010
0000
,
0100
0010
0100
0000
0010
0000
0001
0000
,
0100
0010
1000
0000
0010
0000
0100
0000
,
0001
1000
0000
0001
0000
0100
0000
0001
,
0020
0001
0001
0031
,
0200
0010
0010
0310
,
0020
1000
1000
1030
,
2000
0100
0100
3100
,
1002
1000
1000
1003
,
2001
0001
0001
3001
,
1002
1000
1000
1003
,
2001
0001
0001
3001
,
0220
0000
0000
0000
,
0000
0000
0000
0000
,
0330
0000
0000
0000
;

//---------------dance-single - ----------------
#NOTES:
     dance-single:
     :
     Easy:
     4:
     0.218,0.353,0.089,0.107,0.000:
0000
0000
0000
0000
,
0000
0000
0000
0000
,
0000
0000
0000
0000
,
0000
0000
0000
0000
,
0000
0000
0000
0000
,
0000
0000
0000
0000
,
0000
0000
0000
0000
,
0000
0000
0000
0000
,
0010
0000
0100
0000
,
0001
0000
1000
1000
,
0100
0000
1000
0000
,
0010
0000
0100
0100
,
0010
0000
1000
0000
,
0001
0000
0100
0000
,
0110
0000
1001
0000
,
0010
0100
0010
0000
0100
0000
0010
0000
,
2000
0000
0000
3000
,
1000
0000
0001
0000
,
0020
0000
0031
0000
,
0200
0000
0000
0000
,
0320
0000
0000
0000
,
2030
0000
0001
0000
,
0002
0000
0000
3003
,
0001
0100
0010
0010
,
0100
0000
0000
0000
,
0010
0100
0010
0100
,
0000
0000
0000
0000
0000
0000
0000
0010
,
1000
0010
1000
0000
0010
0000
0100
0000
,
0001
1000
0100
0001
,
0100
1000
0010
0001
,
0010
1000
0001
0010
,
0100
0100
0100
0000
,
2200
0000
0000
0000
,
0000
0000
0000
3300
,
1000
0000
0000
0000
,
0001
0000
0000
0000
,
0100
0000
0000
0000
,
0010
0000
0000
0000
,
0100
0000
0000
0000
,
0010
0000
0000
0000
,
1000
1000
1000
0000
,
0000
0000
0000
0000
,
0010
0010
0010
0000
,
0000
0000
0000
0010
,
0100
0100
0100
0000
,
0001
0001
0001
0000
,
1000
0000
0001
0000
,
2002
0000
0000
3003
,
0001
0100
0100
0001
,
1000
0010
0010
0100
,
0001
0010
0010
0100
,
1000
0100
0100
1000
,
0010
0100
0100
0010
,
1000
0001
0001
0100
,
0010
1000
1000
0010
,
0100
0100
0100
0100
,
1001
0001
0001
0001
,
1000
1000
1000
1000
,
0010
0010
0010
0010
,
0100
0100
0100
0100
,
1001
0001
0001
0001
,
0110
0100
0100
0100
,
1001
1000
1000
1000
,
0110
0010
0010
0010
,
2002
0000
0000
0000
,
0000
0000
0000
0000
,
3003
0000
0000
0000
;

//---------------dance-single - ----------------
#NOTES:
     dance-single:
     :
     Beginner:
     1:
     0.094,0.200,0.027,0.045,0.000: // measure 1
0000
0000
0000
0000
,  // measure 2
0000
0000
0000
0000
,  // measure 3
0000
0000
0000
0000
,  // measure 4
0000
0000
0000
0000
,  // measure 5
0000
0000
0000
0000
,  // measure 6
0000
0000
0000
0000
,  // measure 7
0000
0000
0000
0000
,  // measure 8
0000
0000
0000
0000
,  // measure 9
0010
0000
0000
0000
,  // measure 10
1000
0000
0000
0000
,  // measure 11
0001
0000
0000
0000
,  // measure 12
0100
0000
0000
0000
,  // measure 13
0010
0000
0000
0000
,  // measure 14
1000
0000
0000
0000
,  // measure 15
0001
0000
0001
0000
,  // measure 16
0002
0000
0000
0003
,  // measure 17
0100
0000
0000
0000
,  // measure 18
0010
0000
0010
0000
,  // measure 19
0010
0000
0000
0000
,  // measure 20
1000
0000
0000
0000
,  // measure 21
0001
0000
0000
0000
,  // measure 22
1000
0000
0010
0000
,  // measure 23
0200
0000
0000
0300
,  // measure 24
0010
0010
0010
0000
,  // measure 25
1001
0000
0000
0000
,  // measure 26
1000
0000
1000
0000
,  // measure 27
0000
0000
0000
0000
,  // measure 28
0001
0000
0001
0000
,  // measure 29
0100
0000
0000
0000
,  // measure 30
0010
0000
0000
0000
,  // measure 31
1000
0000
0000
0000
,  // measure 32
0001
0000
0001
0000
,  // measure 33
0100
0000
0000
0000
,  // measure 34
0010
0000
0000
0000
,  // measure 35
1000
0000
0000
0000
,  // measure 36
1000
0000
0000
0000
,  // measure 37
0100
0000
0000
0000
,  // measure 38
0100
0000
0000
0000
,  // measure 39
0010
0000
0000
0000
,  // measure 40
0001
0000
0000
0000
,  // measure 41
2000
0000
0000
3000
,  // measure 42
0000
0000
0000
0000
,  // measure 43
0002
0000
0000
0003
,  // measure 44
0000
0000
0000
0000
,  // measure 45
0100
0000
0000
0000
,  // measure 46
0010
0000
0000
0000
,  // measure 47
1000
0000
0001
0000
,  // measure 48
0010
0020
0000
0030
,  // measure 49
0110
0000
0000
0000
,  // measure 50
0100
0000
0000
0000
,  // measure 51
1000
0000
0000
0000
,  // measure 52
0010
0000
0000
0000
,  // measure 53
0100
0000
0000
0000
,  // measure 54
0001
0000
0000
0000
,  // measure 55
1000
0000
0000
0000
,  // measure 56
1000
0000
0001
0001
,  // measure 57
0001
0000
0000
0000
,  // measure 58
0100
0000
0000
0000
,  // measure 59
1000
0000
0000
0000
,  // measure 60
0100
0000
0000
0000
,  // measure 61
0010
0000
0000
0000
,  // measure 62
1000
0000
0000
0000
,  // measure 63
0010
0000
0000
0000
,  // measure 64
0001
0000
0000
0000
,  // measure 65
0110
0000
0000
0000
;
