#TITLE:Shasshasshatsu of Enjo-G;
#SUBTITLE:;
#ARTIST:BUBBLE B feat. Enjo-G;
#TITLETRANSLIT:;
#SUBTITLETRANSLIT:;
#ARTISTTRANSLIT:;
#CREDIT:;
#BANNER:bn.png;
#BACKGROUND:bg.png;
#LYRICSPATH:;
#CDTITLE:;
#MUSIC:Shasshasshatsu of Enjo-G.mp3;
#OFFSET:-0.135;
#SAMPLESTART:54.480;
#SAMPLELENGTH:12.000;
#SELECTABLE:YES;
#BPMS:0.000=129.000;
#STOPS:;
#BGCHANGES:0.000=enjog.avi=1.000=1=1=0,
99999=-nosongbg-=1.000=0=0=0 // don't automatically add -songbackground-
;

//---------------dance-single - ----------------
#NOTES:
     dance-single:
     :
     Hard:
     7:
     0.408,0.529,0.547,0.107,0.044:
0000
0000
0000
0000
,
0000
0000
0000
0000
,
0000
0000
0000
0000
,
0000
0000
0000
0000
,
0000
0000
0000
0000
,
0000
0000
0000
0000
,
0000
0000
0000
0000
,
0000
0000
0000
0000
,
0000
0000
0000
0000
,
0000
0101
0001
0010
,
0100
1000
0010
0000
0100
0000
0010
0000
,
0100
0001
1000
0000
0001
0000
0010
0000
,
0100
0010
0001
0000
1001
0000
1001
0000
,
1001
0001
0100
1000
,
0100
0000
0100
0001
0010
0100
0010
0001
,
1000
0001
0001
1000
,
1000
0000
0001
0100
0010
0100
0001
1000
,
0100
1100
1100
0101
,
0101
0000
1100
0000
0101
0000
1000
0010
,
1010
0011
1010
0011
,
1010
0000
0011
0000
1001
0000
0010
1000
,
1100
0200
1000
0010
,
0301
0000
0001
0100
1000
0010
0001
1000
,
0100
0020
0001
0100
,
1030
0000
1000
0010
0001
0100
0010
1000
,
0100
1200
1000
0001
,
1000
0000
0301
0010
0100
0010
0001
1000
,
0200
1300
1100
0001
,
0011
0000
0010
0010
0000
0000
0200
0000
,
0310
0000
0000
0000
1100
0000
0000
0000
1100
0000
0000
0000
1100
0000
0000
1100
,
0000
0000
1100
0000
0110
0000
0000
0000
0110
0000
0000
0000
0110
0000
0000
0110
,
0000
0000
0110
0000
0011
0000
0000
0000
0011
0000
0000
0000
0011
0000
0000
0011
,
0000
0011
0011
0000
0001
0000
0100
0000
,
1000
0000
0000
0000
0101
0000
0000
0000
0101
0000
0000
0000
0101
0000
0000
0101
,
0000
0000
0101
0000
1010
0000
0000
0000
1010
0000
0000
0000
1010
0000
0000
1010
,
0000
0000
1010
0000
1100
0000
0000
0000
1100
0000
0000
0000
1100
0000
0000
1100
,
0000
1100
0011
0000
0001
0000
0100
0000
,
0010
1001
1000
0001
,
0010
0000
0000
0000
0001
0000
0010
0000
1000
0000
0010
0000
0001
0000
0100
0010
,
0000
0100
0100
0010
,
0010
0000
0000
0000
0010
0000
0100
0000
0010
0000
1000
0000
0001
0000
0010
0100
,
0000
0100
1000
0000
1000
0000
0001
0000
,
0001
0000
0000
0000
0001
0000
0100
0000
1000
0000
0100
0000
0001
0000
0010
0100
,
0000
0100
0020
0000
0031
0000
0002
0000
,
0103
1010
0000
0000
,
0000
0000
1001
0000
0001
0001
0100
0000
,
0001
0001
1000
0000
1000
1000
0100
0000
,
1000
1000
0001
0000
0001
0001
0010
0000
,
0010
0010
0001
0000
0010
0010
0100
0000
,
0100
0100
1000
0000
0001
0100
0010
0000
,
0100
0010
1000
0000
1000
0001
0010
0000
,
0010
0100
1000
0000
0100
0010
0001
0000
,
0100
0010
1000
0000
2000
0000
0000
3002
,
0000
0000
0020
0000
0003
0200
0000
0000
,
0000
0330
0000
0000
0000
0000
0000
0000
;

//---------------dance-single - ----------------
#NOTES:
     dance-single:
     :
     Medium:
     5:
     0.250,0.317,0.225,0.020,0.034:
0000
0000
0000
0000
,
0000
0000
0000
0000
,
0000
0000
0000
0000
,
0000
0000
0000
0000
,
0000
0000
0000
0000
,
0000
0000
0000
0000
,
0000
0000
0000
0000
,
0000
0000
0000
0000
,
0000
0000
0000
0000
,
0000
0110
0000
0000
,
0000
0101
0000
0000
,
0000
1100
0000
0000
,
0000
1001
0000
0000
,
0000
0001
0100
0010
,
0010
0100
0010
1000
,
0001
0011
0010
0100
,
1000
0100
1000
0010
,
0100
1001
0001
1000
,
1000
0010
0100
0010
,
1000
1010
0010
0100
,
0001
0011
0000
1100
,
0000
1000
1000
0001
,
0001
0000
1000
0000
0001
0000
1000
0001
,
1000
0010
0010
0100
,
0100
0000
0010
0000
0100
0000
0010
0100
,
0010
0100
0010
1000
,
0010
0000
0100
0000
0001
0000
0010
0100
,
1000
0100
1000
0010
,
0100
0101
0000
1001
,
0000
0000
0000
0000
1000
0000
0000
0000
1000
0000
0000
0000
1000
0000
0000
1000
,
0000
0000
1000
0000
0001
0000
0000
0000
0001
0000
0000
0000
0001
0000
0000
0001
,
0000
0000
0001
0000
0010
0000
0000
0000
0010
0000
0000
0000
0010
0000
0000
0010
,
0000
0010
0010
0000
0000
0000
0000
0000
,
0000
0000
0000
0000
0100
0000
0000
0000
1000
0000
0000
0000
0010
0000
0000
0100
,
0000
0000
0001
0000
1000
0000
0000
0000
0001
0000
0000
0000
1000
0000
0000
0001
,
0000
0000
0100
0000
0010
0000
0000
0000
0010
0000
0000
0000
0100
0000
0000
0010
,
0000
1000
0100
0000
0010
0000
0001
0000
,
0010
0001
0000
1000
,
0000
0010
0000
0100
,
0000
0010
0000
1000
,
0000
0001
0010
0100
,
0010
0011
0011
0011
,
0000
1100
1100
1100
,
0000
1001
1001
1001
,
0000
0110
0000
1001
,
0000
0000
0001
0000
0000
1000
0001
0000
,
0000
1000
0001
0000
0000
1000
0001
0000
,
0000
1000
0001
0000
0000
1000
0001
0000
,
0000
1000
0001
0000
0000
1000
0001
0000
,
0110
0000
0010
0000
0000
0100
0010
0000
,
0000
0100
0010
0000
0000
0100
0010
0000
,
0000
0000
0100
0000
0010
0000
0000
0000
0000
0100
0000
0000
0010
0000
0000
0000
,
0000
0100
0010
0000
0002
0000
0000
0000
,
0000
0000
0000
0000
0000
2000
0000
0000
,
0000
3003
0000
0000
0000
0000
0000
0000
;

//---------------dance-single - ----------------
#NOTES:
     dance-single:
     :
     Easy:
     3:
     0.211,0.317,0.264,0.059,0.000:
0000
0000
0000
0000
,
0000
0000
0000
0000
,
0000
0000
0000
0000
,
0000
0000
0000
0000
,
0000
0000
0000
0000
,
0000
0000
0000
0000
,
0000
0000
0000
0000
,
0000
0000
0000
0000
,
0000
0000
0000
0000
,
0000
0110
0000
0000
,
0000
0000
0010
0010
,
0000
0000
1000
0101
,
0000
0000
0001
1000
,
0100
1000
1000
0001
,
0001
1000
0001
1000
,
0010
0100
0100
0010
,
0010
0100
0001
1000
,
0100
0010
0010
0100
,
0100
0010
0001
0010
,
0100
0001
0001
0010
,
0010
0100
0000
0100
,
0000
0011
0000
0101
,
0000
0001
0100
0010
,
1000
1100
0000
1010
,
0000
0010
0010
1000
,
0001
1000
0000
0001
,
0000
0100
0000
0000
,
0020
1030
0000
0100
,
0000
0110
0000
0000
,
1000
1001
1001
1001
,
0000
0110
0110
0110
,
0000
1001
1001
1001
,
0000
0220
0000
0000
,
0330
0101
1010
0101
,
0000
1100
0011
1100
,
0000
1100
0110
0011
,
0000
0202
0000
0000
,
0303
0001
0000
0001
,
0000
1000
0001
1000
,
0010
1000
0000
0100
,
0000
1000
0100
1000
,
0010
0100
0100
0100
,
0000
0100
0100
0100
,
0000
0001
1000
0100
,
0010
0100
0000
1000
,
0000
0001
0000
1000
,
0000
0010
0000
0100
,
0000
0001
0000
1000
,
0000
0100
0000
1000
,
0000
0010
0000
0100
,
0000
0001
0000
0010
,
0000
0100
0000
1000
,
0000
0001
0000
2000
,
0000
0000
0000
0000
,
0000
3000
0000
0000
0000
0000
0000
0000
;

//---------------dance-single - ----------------
#NOTES:
     dance-single:
     :
     Beginner:
     1:
     0.070,0.132,0.010,0.010,0.000: // measure 1
0000
0000
0000
0000
,  // measure 2
0000
0000
0000
0000
,  // measure 3
0000
0000
0000
0000
,  // measure 4
0000
0000
0000
0000
,  // measure 5
0000
0000
0000
0000
,  // measure 6
0000
0000
0000
0000
,  // measure 7
0000
0000
0000
0000
,  // measure 8
0000
0000
0000
0000
,  // measure 9
0000
0000
0000
0000
,  // measure 10
0000
0001
0000
0000
,  // measure 11
0000
0001
0000
0000
,  // measure 12
0000
0001
0000
0000
,  // measure 13
0000
0001
0000
0000
,  // measure 14
0000
0100
0000
0000
,  // measure 15
0000
0010
0000
0000
,  // measure 16
0000
0100
0000
0000
,  // measure 17
0000
0010
0000
0000
,  // measure 18
0000
1000
0000
0000
,  // measure 19
0000
0010
0000
0000
,  // measure 20
0000
1000
0000
0000
,  // measure 21
0000
0010
0000
0010
,  // measure 22
0000
0100
0000
0000
,  // measure 23
0000
0000
0000
0000
,  // measure 24
0000
0100
0000
0000
,  // measure 25
0000
0000
0000
0000
,  // measure 26
0000
0001
0000
0000
,  // measure 27
0000
0000
0000
0000
,  // measure 28
0000
0001
0000
0000
,  // measure 29
0000
0100
0000
0010
,  // measure 30
0000
0010
0000
0000
,  // measure 31
0000
0010
0000
0000
,  // measure 32
0000
0010
0000
0000
,  // measure 33
0000
0010
0000
0000
,  // measure 34
0000
1000
0000
0000
,  // measure 35
0000
1000
0000
0000
,  // measure 36
0000
1000
0000
0000
,  // measure 37
0000
1000
0000
0000
,  // measure 38
0000
0100
0000
0000
,  // measure 39
0000
0010
0000
0000
,  // measure 40
0000
0100
0000
0000
,  // measure 41
0000
0001
0000
0000
,  // measure 42
0000
1000
1000
1000
,  // measure 43
0000
0001
0001
0001
,  // measure 44
0000
0100
0000
0010
,  // measure 45
0000
1001
0000
0000
,  // measure 46
0000
0001
0000
0000
,  // measure 47
0000
1000
0000
0000
,  // measure 48
0000
0010
0000
0000
,  // measure 49
0000
0100
0000
0000
,  // measure 50
0000
0010
0000
0000
,  // measure 51
0000
1000
0000
0000
,  // measure 52
0000
0001
0000
0000
,  // measure 53
0000
0020
0000
0000
,  // measure 54
0000
0000
0000
0000
,  // measure 55
0030
0000
0000
0000
;
