#TITLE:Setsujou Danka;
#SUBTITLE:;
#ARTIST:Des-ROW UNITED;
#TITLETRANSLIT:;
#SUBTITLETRANSLIT:;
#ARTISTTRANSLIT:;
#CREDIT:;
#BANNER:bn.png;
#BACKGROUND:bg.png;
#LYRICSPATH:;
#CDTITLE:CDTitle.png;
#MUSIC:Setsujou danka.mp3;
#OFFSET:-0.010;
#SAMPLESTART:42.640;
#SAMPLELENGTH:12.000;
#SELECTABLE:YES;
#BPMS:0.000=90.000,16.000=180.000,180.000=90.000,182.000=105.000,246.000=90.000,248.000=180.000;
#STOPS:;
#BGCHANGES:;

//---------------dance-single - ----------------
#NOTES:
     dance-single:
     :
     Hard:
     9:
     0.510,0.523,0.274,0.047,0.000:
0000
0000
0000
0000
,
0000
0000
0000
0000
,
0000
0000
0000
0000
,
0000
0000
0000
0000
,
0001
1000
1100
0000
,
0001
0100
0110
0000
,
0010
1000
0101
0000
,
0001
1000
0110
0000
,
0001
1000
0110
0000
,
0010
1000
1100
0000
,
0001
1100
0010
0101
,
0001
1000
0001
0010
0001
0000
0100
0000
,
0010
1000
0001
0010
,
0001
0100
1000
0100
,
0001
0010
1000
0010
,
0001
1000
0001
0100
,
0011
0100
1000
0100
,
1010
0100
0011
0100
,
0101
1100
0101
1100
,
1001
1001
1001
1001
,
0001
0100
0001
0000
0100
0010
0100
0000
,
0010
1000
0010
0000
0100
0010
0100
0000
,
0010
1000
0010
0000
0100
0001
0010
0000
,
0010
0100
1000
0000
0100
1000
0010
0000
,
0100
0001
0010
0000
0010
0100
1000
0000
,
0100
1000
0010
0000
0100
0010
1000
0000
,
1000
0001
0010
0000
0010
1000
0010
0000
,
0010
0001
0100
0000
0010
1000
0001
0000
,
1000
0001
0010
0100
0010
0001
0100
0010
,
1000
0001
0010
0001
0100
0010
0000
0000
,
0100
0001
0010
0001
0100
0010
1000
0100
,
0010
0100
0010
0001
1000
0100
0000
0000
,
0001
0100
0010
1000
0100
0010
0100
1000
,
0001
0100
0001
0010
0100
0010
0001
0001
,
0010
0001
0100
0010
1000
0001
0010
0001
,
1000
0100
1000
0010
0100
1000
0000
0000
,
1000
0100
0001
0000
0011
0000
0110
0000
,
0100
1000
0010
0000
0100
0010
1000
0001
,
0010
0000
1100
0000
1000
0001
0100
0001
,
0010
0000
1100
0000
0100
0010
0011
0000
,
0011
0010
0100
0000
1100
0000
0010
0001
,
0100
0001
1000
0000
1100
0000
0010
0001
,
1000
0010
0100
0000
0010
1000
0100
0000
,
0110
0000
0011
0000
0001
0100
1000
0000
,
0110
0000
0000
0000
,
0000
0000
0000
0000
1000
0001
0010
0001
,
0100
1000
0100
0000
0010
1000
0010
1000
,
0100
0100
1000
0000
1000
0010
0100
0001
,
0010
0100
1000
0000
0100
1000
0010
0010
,
0100
0001
0011
0000
0001
0001
1000
0000
,
0100
0100
0010
0000
0010
0010
0001
0100
,
0100
0010
1000
0000
1000
1000
0001
1000
,
0100
0100
1000
0000
0010
0100
0100
0010
,
1000
1000
0001
0000
0001
0100
0010
0000
,
0100
0100
0110
0000
0010
1000
0100
0000
,
1000
1000
1100
0000
0100
0000
1100
0000
,
1000
0010
0100
0000
0100
0010
1000
0001
,
0010
0001
0100
0010
2000
0000
3000
0000
,
0000
0000
0010
1000
0200
0000
0300
0000
,
0000
0000
0100
0010
0002
0000
0003
0000
,
0000
0000
0001
0100
0020
0000
0030
0000
,
0100
0010
1000
0001
0000
0000
0000
0000
,
1000
0001
0100
0100
,
0001
0100
0001
0010
1000
0100
0000
0000
,
1000
0010
0100
0001
,
1000
0001
0100
0001
0010
0100
0000
0000
,
0100
1000
0010
0100
,
0001
0100
0001
0100
0100
0010
0100
0001
,
1000
0100
0010
0100
1000
0001
0100
0001
,
0010
0100
0010
0001
0100
0010
1000
0000
,
1000
0100
0100
1000
0010
0010
0100
0001
,
0010
1000
0010
0001
0001
0100
0010
0000
,
0100
0010
0010
1000
0001
0010
0010
0100
,
1000
0100
0100
1000
0010
0100
0001
0010
,
0100
0010
0001
1000
0100
1000
0010
0100
,
0001
0010
1000
0010
0001
0100
1000
0000
,
0100
0001
0010
0100
1000
1000
0001
0100
,
0010
1000
0100
0010
0100
1000
0000
0000
,
0022
0000
0033
0000
;

//---------------dance-single - ----------------
#NOTES:
     dance-single:
     :
     Medium:
     6:
     0.367,0.431,0.165,0.110,0.000:
0000
0000
0000
0000
,
0000
0000
0000
0000
,
0000
0000
0000
0000
,
0000
0000
0000
0000
,
0001
1000
0001
0000
1001
0000
0000
0000
,
0010
0100
0010
0000
0110
0000
0000
0000
,
0010
1000
0010
0000
1010
0000
0000
0000
,
0100
0010
0100
0000
0110
0000
0000
0000
,
0010
0100
0010
0000
0101
0000
0000
0000
,
0001
0100
0001
0000
0011
0000
0000
0000
,
0000
0011
0000
0001
,
1000
1000
0001
0100
,
0001
0000
0001
0000
,
1000
0000
0010
0000
,
0100
0000
0100
0000
,
0010
0000
1000
0000
,
1001
0000
0001
0000
,
1001
0000
1000
0000
,
1001
0010
0010
0010
,
1001
0010
1001
0010
,
0001
0001
1000
1000
,
0010
0100
0010
1000
,
0010
0100
0001
0010
,
1000
0010
0001
0100
,
0010
0010
0100
0100
,
0010
1000
0001
0100
,
0010
1000
0100
0010
,
0100
1000
0001
0100
,
0010
1000
0010
0100
,
0001
0000
0010
0000
0100
1000
0000
0000
,
0100
1000
0010
0100
,
0100
0000
0010
0000
1000
0001
0000
0000
,
0001
0010
0100
0010
,
0001
0000
1000
0000
0001
0000
0100
0001
,
0100
0010
1000
0001
,
0010
0000
0100
0000
1000
0010
0000
0000
,
0100
0100
0010
1000
,
0001
0100
0010
0010
,
0100
0010
1000
0001
,
0010
0100
1000
0000
,
0100
1000
0010
0100
,
0001
0000
1000
0000
0001
0100
0000
0000
,
0010
0010
0100
0100
,
0010
0100
0010
0000
0010
0100
0010
0000
,
2002
0000
0000
0000
,
3003
0000
0001
1000
,
1000
1000
0100
0000
1000
0000
0010
0000
,
0100
0100
0010
0000
0100
0000
0001
0000
,
0010
0100
2200
0000
,
0000
0000
3300
0000
1000
0100
1000
0000
,
0100
0010
0100
0000
0010
0001
0010
0001
,
0010
0100
1000
0000
0100
0000
1100
0000
,
0100
1000
0010
0000
0100
0001
1000
0000
,
1000
0001
0100
0000
0001
0000
0101
0000
,
0001
0001
0001
0000
0010
0000
0100
0000
,
1000
1000
1000
0000
0100
0000
1000
0000
,
0010
0100
0010
0100
,
0010
1000
0001
0000
2002
0000
3003
0000
,
0000
0000
0001
0100
0202
0000
0303
0000
,
0000
0000
0022
0033
,
0000
0000
0010
0100
2200
0000
0000
0000
,
3300
0000
0000
0000
,
0010
0100
0010
1000
,
0001
0000
0010
0000
0100
0000
1000
0100
,
1000
0010
0100
0001
,
1000
0000
0001
0000
0100
0000
0010
0100
,
0010
1000
0010
0100
,
0001
0000
0010
0000
0100
0000
0100
1000
,
0010
0010
0100
0100
,
0010
1000
0010
1000
0010
1000
0000
0000
,
0001
0000
0001
0000
1000
0001
1000
0000
,
0001
0000
0100
0000
0010
0100
0010
0000
,
0100
0000
0010
0000
1000
0010
1000
0000
,
0010
0000
0100
0000
0001
0100
0001
0000
,
0100
0000
0001
0000
0010
0001
0010
0000
,
0001
0000
0010
0000
0100
1000
0100
0000
,
0100
1000
0010
0100
,
0001
0100
0010
0000
0010
1000
0001
0000
,
2200
0000
3300
0000
;

//---------------dance-single - ----------------
#NOTES:
     dance-single:
     :
     Easy:
     5:
     0.324,0.369,0.055,0.165,0.000:
0000
0000
0000
0000
,
0000
0000
0000
0000
,
0000
0000
0000
0000
,
0000
0000
0000
0000
,
0001
1000
0200
0300
,
1000
0001
0200
0300
,
0001
1000
0200
0300
,
1000
0001
0200
0300
,
0001
1000
0020
0030
,
1000
0001
0020
0030
,
0001
0020
0030
0001
,
0100
0100
0010
1000
,
0001
0000
0001
0000
,
1000
0000
0010
0000
,
0100
0000
0010
0000
,
1000
0000
0001
0000
,
0010
0000
0100
0000
,
1000
0000
0100
0000
,
1000
0010
0100
0001
,
1000
0001
0100
0010
,
0100
0100
0010
0010
,
0100
0010
0100
0010
,
1000
1000
0001
0001
,
1000
0001
1000
0001
,
0100
0100
0001
0001
,
0010
0010
0100
0100
,
1000
1000
0001
0001
,
1000
0001
0100
0000
,
0010
1000
0010
0100
,
0010
1000
0010
0000
,
0001
1000
0100
1000
,
0001
0100
0001
0000
,
0001
0010
0100
0010
,
0100
0010
0001
0100
,
0001
1000
0100
1000
,
0001
0010
0001
0000
,
0001
0001
0100
0001
,
0001
0100
0010
0010
,
1000
0010
0010
0100
,
0010
0010
1000
0000
,
0001
1000
0100
1000
,
0010
0100
0001
0000
,
0001
0010
0100
0010
,
0001
1000
0010
0100
,
0202
0000
0000
0000
,
0303
0000
0001
1000
,
0001
1000
0001
0000
0100
0000
0010
0000
,
0100
0010
0100
0000
0010
0000
1000
0000
,
0010
1000
0010
0000
2002
0000
0000
0000
,
0000
0000
0000
3003
0001
1000
0001
0000
,
1000
0000
1000
0000
0010
1000
0010
0000
,
0100
0000
0001
0000
0010
0001
0010
0000
,
0001
0000
0100
0000
0010
0100
0010
0000
,
0100
0001
1000
1000
,
0001
0001
0100
0000
0010
0000
1000
0000
,
0100
0100
0010
0000
0010
0000
0001
0000
,
0100
0100
0010
0000
1000
0000
0010
0000
,
0100
0100
0100
0000
0220
0000
0000
0000
,
0330
0000
0202
0000
,
0303
0000
2020
0000
,
3030
0010
2002
0000
,
3003
0000
0000
0000
,
0001
0100
0001
0010
,
0001
0100
0010
1000
,
0100
0010
0100
1000
,
0010
0100
0001
1000
,
0001
1000
0010
1000
,
0010
0100
0001
0010
,
1000
0010
0001
0100
,
1000
0100
0001
0000
,
0001
0001
0001
0001
,
0001
0001
0001
0001
,
1000
1000
1000
1000
,
1000
1000
1000
1000
,
0010
0010
0010
0010
,
0010
0010
0010
0010
,
0100
0100
0100
0100
,
0100
0100
0100
0100
,
2002
0000
3003
0000
;

//---------------dance-single - ----------------
#NOTES:
     dance-single:
     :
     Beginner:
     2:
     0.138,0.214,0.071,0.000,0.000: // measure 1
0000
0000
0000
0000
,  // measure 2
0000
0000
0000
0000
,  // measure 3
0000
0000
0000
0000
,  // measure 4
0000
0000
0000
0000
,  // measure 5
0010
0000
0000
0000
,  // measure 6
1000
0000
0000
0000
,  // measure 7
0001
0000
0000
0000
,  // measure 8
0010
0000
0000
0000
,  // measure 9
0100
0000
0110
0000
,  // measure 10
0010
0000
1001
0000
,  // measure 11
0100
0000
0000
0000
,  // measure 12
1000
1000
0001
0100
,  // measure 13
0010
0000
0000
0000
,  // measure 14
1000
0000
0000
0000
,  // measure 15
0001
0000
0000
0000
,  // measure 16
0010
0000
0000
0000
,  // measure 17
0100
0000
0100
0000
,  // measure 18
0100
0000
0100
0000
,  // measure 19
0010
0000
0001
0000
,  // measure 20
1000
0000
0010
0000
,  // measure 21
0110
0000
0100
0000
,  // measure 22
0100
0100
0100
0000
,  // measure 23
0010
0000
0010
0000
,  // measure 24
0010
0010
0010
0000
,  // measure 25
1000
0000
1000
0000
,  // measure 26
1000
1000
1000
0000
,  // measure 27
0001
0000
0001
0000
,  // measure 28
0001
0001
0001
0000
,  // measure 29
1000
0000
0000
0000
,  // measure 30
0000
0000
0000
0000
,  // measure 31
0010
0000
0000
0000
,  // measure 32
0000
0000
0000
0000
,  // measure 33
0100
0000
0000
0000
,  // measure 34
0000
0000
0000
0000
,  // measure 35
0001
0000
0000
0000
,  // measure 36
1000
0000
1000
0000
,  // measure 37
0010
0000
0000
0000
,  // measure 38
0100
0000
0010
0000
,  // measure 39
1000
0000
0000
0000
,  // measure 40
0001
0001
0001
0000
,  // measure 41
1000
0000
0000
0000
,  // measure 42
0010
0000
0100
0000
,  // measure 43
0100
0000
0000
0000
,  // measure 44
0010
0000
1000
0000
,  // measure 45
1001
0000
0000
0000
,  // measure 46
0000
0000
0010
0000
,  // measure 47
0000
0000
1000
0000
,  // measure 48
0000
0000
0001
0000
,  // measure 49
0000
0000
0100
0000
,  // measure 50
0000
0000
0010
0010
,  // measure 51
0000
0010
0100
0100
,  // measure 52
0000
0100
0001
0000
,  // measure 53
1000
0000
0010
1000
,  // measure 54
0001
0100
0001
0000
,  // measure 55
0000
0000
1000
0000
,  // measure 56
0000
0000
0010
0000
,  // measure 57
0000
0000
0100
0000
,  // measure 58
0000
0000
0110
0000
,  // measure 59
0000
0000
0110
0000
,  // measure 60
0000
0000
1001
0000
,  // measure 61
0000
0000
1001
0000
,  // measure 62
0000
0000
0000
0000
,  // measure 63
0010
0000
0000
0000
,  // measure 64
1000
0000
0000
0000
,  // measure 65
0001
0000
0000
0000
,  // measure 66
0100
0000
0000
0000
,  // measure 67
0010
0000
0000
0000
,  // measure 68
1000
0000
0000
0000
,  // measure 69
0100
0000
0000
0000
,  // measure 70
1000
0000
0000
0000
,  // measure 71
0001
0000
0001
0000
,  // measure 72
0001
0000
0001
0000
,  // measure 73
0001
0000
0001
0000
,  // measure 74
0001
0000
0001
0000
,  // measure 75
1000
0000
1000
0000
,  // measure 76
1000
0000
1000
0000
,  // measure 77
1000
0000
1000
0000
,  // measure 78
1000
0000
1000
0000
,  // measure 79
0110
0000
0000
0000
;
