#TITLE:Session 9 -Chronicles-;
#SUBTITLE:;
#ARTIST:Prastik Dancefloor;
#TITLETRANSLIT:;
#SUBTITLETRANSLIT:;
#ARTISTTRANSLIT:;
#CREDIT:;
#BANNER:bn.png;
#BACKGROUND:bg.png;
#LYRICSPATH:;
#CDTITLE:;
#MUSIC:1.19. Session 9 -Chronicles-.mp3;
#OFFSET:0.241;
#SAMPLESTART:1.030;
#SAMPLELENGTH:12.000;
#SELECTABLE:YES;
#BPMS:0.000=182.000,59.667=363.999,92.000=189.000,372.000=94.500,372.500=189.000;
#STOPS:59.667=0.030
,232.000=0.952
,279.000=0.317
;
#BGCHANGES:0.000=Session 9 -Chronicles-.avi=1.000=1=0=0,
378.000=bg.png=1.000=0=0=1,
99999=-nosongbg-=1.000=0=0=0 // don't automatically add -songbackground-
;

//---------------dance-single - ----------------
#NOTES:
     dance-single:
     :
     Challenge:
     11:
     0.785,0.968,0.155,0.350,0.521:
0000
0000
0000
0000
,
0000
0000
0000
0000
,
0000
0000
0000
0000
,
0000
0000
0000
0000
,
0000
0000
0000
0000
,
0000
0000
0000
0000
,
0000
0000
0000
0000
,
0000
0000
0000
0000
,
0000
0000
0000
0000
,
1001
0000
0000
0010
1000
0100
0010
0000
0000
0100
0000
0000
,
1100
0000
0000
1000
0001
0010
0100
0000
0000
0010
0000
0000
,
0011
0000
0000
0001
0100
1000
0100
0001
0010
1000
0010
0001
,
0100
0010
1000
0100
0010
0100
1000
0001
0100
0001
1000
0100
,
1000
0001
0100
0001
0010
0001
0100
0001
0010
0001
0100
0001
,
0010
0001
0100
0001
0010
0100
1000
0100
0001
0100
0010
2000
,
0000
0000
0000
0000
,
0000
0000
0000
0000
,
0000
0000
0000
0000
,
0000
0000
0000
0000
,
0000
0000
0000
0000
,
0000
0000
0000
0000
,
0000
0000
0000
0000
,
0000
0000
0000
0000
0000
0000
0000
0000
0000
0000
0000
3000
,
1001
0000
0100
0100
0000
0010
0010
0000
,
1000
0100
0001
0100
1000
0100
0001
0100
,
1000
0000
0010
0100
0000
0010
0100
0000
,
0010
1000
0010
0001
0010
0100
0001
0100
,
0010
0000
0100
0100
0000
0001
1000
0000
,
0010
0100
0010
0001
0010
0100
0001
0100
,
0010
0000
0100
0010
0000
1000
0100
0000
,
0010
0001
0010
1000
0010
0001
0100
0010
,
1000
0001
0010
0010
0000
0100
1000
0010
,
0200
0301
0200
1300
0200
0301
0200
1300
,
0010
0010
1000
1000
0000
1000
1000
0001
,
0020
1030
0020
0031
0020
1030
0020
0031
,
0001
0100
0010
0100
0000
0010
0100
0100
,
0010
1000
0001
0010
0100
0010
0001
0100
,
0010
1000
0100
0010
0000
0100
1000
0010
,
0100
0000
0000
0101
0000
0000
1010
0000
0000
1100
0000
0000
0011
0000
0000
0001
,
0100
0010
1000
0100
0010
0100
1000
0001
,
0100
0001
0010
0100
0010
0001
0100
0010
,
1000
0100
0010
0100
1000
0100
0010
0100
,
1000
0001
0100
0001
0010
0001
0100
0010
,
1000
0001
0010
0100
0010
0001
0100
0010
,
1000
0100
1000
0100
0010
0100
0001
0010
,
0001
0100
0010
1000
0100
0010
0100
1000
,
0000
0000
0001
1000
0100
0010
0001
0010
0100
0010
0001
1000
0001
0010
0100
0010
,
0001
0100
0010
1000
0200
1300
0010
0100
,
0002
0013
0100
0010
0002
0103
0010
1000
,
0200
1300
0010
0100
0002
1003
0100
0010
,
0200
1300
0100
0010
0002
0103
0010
1000
,
0002
0013
0100
0010
0002
0103
0010
1000
,
0200
1300
0010
0100
0002
1003
0100
1000
,
0200
0310
0100
1000
0010
0100
0001
1000
,
0000
0000
1000
0100
1000
0001
0100
0001
0010
0001
0100
0010
1000
0100
1000
0001
,
0100
0010
1100
1001
0000
0001
1010
0000
,
1000
0011
0000
0001
1010
0000
0000
0000
,
0000
0000
0000
0000
,
0000
0000
2000
0000
0020
3000
0230
0000
,
0002
0300
0020
0003
2000
0030
0020
3000
,
0002
0030
0200
0003
2000
0300
0200
3000
,
0002
0300
0020
0003
0002
0030
0200
0003
,
0020
0000
0000
0300
0000
0000
1030
0000
0100
0000
1000
0000
0100
0000
0010
0000
0100
0000
1000
0000
0001
0000
0100
0000
,
0010
1000
0100
0010
0100
1000
0001
0100
0001
0010
0001
0100
,
0010
0000
0000
0000
1000
0000
0000
0000
0100
0000
0000
0000
0010
0000
0000
0001
0000
0000
0010
0000
0000
0001
0000
0000
0010
0000
0000
0001
0000
0000
0010
0000
0000
0001
0000
0000
0010
0000
0000
0001
0000
0000
0010
0000
0000
0001
0000
0000
,
0010
0000
0000
0200
0000
0000
0000
0000
0000
1300
0000
1000
,
0000
0000
1000
0000
0000
0000
0001
0000
0000
0100
0000
0000
0010
0000
0000
1000
0000
0000
0001
0000
0000
0100
0000
0000
,
0010
1000
0001
0100
0010
1000
0001
0100
,
0010
1000
0100
0010
0100
1000
0001
0100
,
0010
1000
0001
0010
0100
0010
0001
0000
,
1000
0000
0001
0000
0010
0000
0001
0010
0000
0100
0010
0001
0100
0010
1000
0001
,
0010
0000
0000
0100
0000
0000
0100
0000
0010
0000
0000
0001
0000
0000
1000
0000
,
0100
0000
0100
0010
0000
0010
0001
0010
0100
0010
0001
0000
0001
0000
0100
0000
,
1000
0000
0000
0100
0000
0000
0001
0000
0010
0000
0000
0100
0000
0000
1000
0000
,
0010
0100
0001
1000
0001
0010
0100
0010
,
0001
0100
0010
1000
0001
0010
0100
0010
,
0001
1000
0100
1000
0010
1000
0001
1000
,
0010
1000
0010
0100
0010
1000
0100
0010
0100
1000
0001
0100
0001
0010
0100
0010
,
0001
0000
1000
0000
0100
0000
1000
0100
0000
0010
0100
1000
0010
0100
0001
1000
,
0100
0000
0000
0010
0000
0000
0010
0000
0100
0000
0000
1000
0000
0000
0001
0000
,
0010
0000
0010
0100
0000
0100
1000
0100
0010
0100
1000
0000
1000
0000
0010
0000
,
0001
0000
0000
0010
0000
0000
1000
0000
0100
0000
0000
0010
0000
0000
0001
0000
,
1002
0000
0000
0013
0000
0000
0100
0000
2100
0000
0000
3001
0000
0000
0001
0000
,
0201
0000
0000
0310
0000
0000
0100
0000
1002
0000
0000
0013
0000
0000
0001
0000
,
0101
0000
0100
0001
0000
0001
0010
0000
0110
0000
0010
0100
0000
0100
1000
0000
,
0001
1000
0001
0010
0100
0010
0001
0100
,
0010
1000
0100
0010
0100
1000
0001
0100
,
0001
0010
0100
0010
0001
0100
0010
1000
,
0100
0001
0100
1000
0010
0100
0001
0010
,
0100
0010
0001
0100
0001
1000
0100
1000
,
0010
0100
0001
0010
0100
0010
0001
0100
,
0010
1000
0100
1000
0010
0100
0001
1000
,
0100
1000
0010
0100
0001
0010
0100
0010
0001
0100
0010
1000
0001
0010
0100
0010
,
0001
1000
0001
0010
0200
0000
0000
0000
0000
0000
0000
0000
0000
0000
0000
0000
0000
0000
0000
0000
0000
0000
0000
0000
0000
0000
0000
0000
0000
0000
0000
0000
,
0000
0000
0000
0000
,
0000
0300
0000
0000
0000
0000
0000
0000
;

//---------------dance-single - ----------------
#NOTES:
     dance-single:
     :
     Hard:
     9:
     0.578,0.813,0.163,0.439,0.220:
0000
0000
0000
0000
,
0000
0000
0000
0000
,
0000
0000
0000
0000
,
0000
0000
0000
0000
,
0000
0000
0000
0000
,
0000
0000
0000
0000
,
0000
0000
0000
0000
,
0000
0000
0000
0000
,
0000
0000
0000
0000
,
0000
0000
0000
0001
0100
0010
1000
0000
0000
0000
0000
0000
,
0000
0000
0000
1000
0100
0010
0001
0000
0000
0000
0000
0000
,
0000
0000
0000
0001
0100
0001
0010
0001
0100
0010
1000
0100
,
0010
0100
1000
0001
0100
0010
1000
0100
0010
0001
0100
0001
,
0010
0000
0100
1000
0000
1000
0001
0000
0010
0100
0000
0100
,
1000
0000
1000
0100
0000
0100
0010
0001
0100
0010
2000
0002
,
0000
0000
0000
0000
,
0000
0000
0000
0000
,
0000
0000
0000
0000
,
0000
0000
0000
0000
,
0000
0000
0000
0000
,
0000
0000
0000
0000
,
0000
0000
0000
0000
,
0000
0000
0000
0000
0000
0000
0000
0000
0000
0000
0000
3003
,
1001
0000
0100
0001
0000
0001
0001
0000
,
0010
1000
0010
0001
0100
0010
1000
0100
,
1100
0000
1000
0100
0000
0010
0001
0000
,
0001
0100
0010
1000
0100
0010
0100
1000
,
0001
0000
1000
0100
0000
1000
0001
0000
,
0100
0001
0010
0001
0100
0010
1000
0100
,
0010
0000
0001
0010
0000
0010
0100
0000
,
0100
0010
0001
0100
0010
1000
0001
0010
,
0100
1000
0010
0100
0000
0100
0010
1000
,
0001
0010
1000
0010
0001
0100
0010
1000
,
0001
0010
0100
0010
0000
0010
0001
0100
,
0010
0100
0010
1000
0001
0010
0100
0010
,
0001
0100
0010
1000
0000
0100
1000
0010
,
0100
0001
0010
0100
0010
0001
0100
0010
,
1000
0001
0010
0100
0000
0010
0010
0001
,
0100
0000
0000
0100
0000
0000
0010
0000
0000
1000
0000
0000
0001
0000
0000
0010
,
0100
1100
2000
3001
,
0020
0031
0200
0301
,
0002
0013
0200
0310
,
0020
0130
0200
1300
,
2000
3001
0200
0301
,
0002
0013
0020
0130
,
0200
0000
0000
0000
,
0300
0010
0001
0100
0010
1000
0100
1000
,
1010
0101
0002
1003
,
2000
3001
0002
0013
,
0020
0130
0020
0031
,
0002
1003
2000
3100
,
0200
0310
0200
1300
,
0020
0130
0002
1003
,
0200
0000
0000
0000
,
0300
1000
0100
0001
0100
1000
0010
0001
,
0010
0100
0010
0010
0000
1000
1000
0000
,
0001
0001
0000
0010
0020
0000
0000
0000
,
0000
0000
0000
0000
,
0030
0001
1000
0100
,
1000
0010
0100
0001
,
0001
0010
1100
0000
1000
0000
0001
0000
,
0010
0100
0010
0001
,
0100
0000
0000
0001
0000
0000
0101
0000
0000
0000
0001
0000
0100
0000
0000
0000
0010
0000
1000
0000
0000
0000
1000
0000
,
0100
0000
0010
0100
0000
0100
1000
0000
1000
0001
0000
0001
,
0010
0000
0100
1000
0010
0100
0001
0010
0100
0010
0001
0100
,
0010
1000
0100
2000
0000
0000
0000
0000
0000
3020
0000
0000
,
0000
0000
0230
0000
0000
0302
0000
0000
,
0023
0000
0000
0230
0000
0000
0320
0000
,
0000
0032
0000
0000
0203
0000
0000
0320
,
0000
0000
1030
0001
0010
0001
0010
0000
,
0001
0010
0100
0010
0001
0100
0010
1000
,
0200
0310
0020
0031
,
0001
0100
0010
1000
0100
0010
0100
1000
,
0002
0103
0200
0310
,
0110
0000
0001
0101
0000
1000
0100
0010
,
0001
0000
0001
0011
0000
0010
0100
1000
,
1100
0000
1000
1001
0000
0001
0100
0010
,
1000
0100
0010
0001
1000
0100
0010
0001
,
1000
0100
0010
0100
1000
0010
0100
0001
,
0020
0130
0200
1300
,
1000
0010
0100
0001
0010
0100
0010
0001
,
2000
3010
0020
0130
,
0001
0000
0000
0100
0000
0000
0010
0000
1000
0000
0000
0100
0000
0000
1000
0000
,
0010
0000
0000
0100
0000
0000
0100
0000
0010
0000
0000
1000
0000
0000
0001
0000
,
0010
0000
0000
0100
0000
0000
0100
0000
1000
0000
0000
0010
0000
0000
0100
0000
,
0102
0100
0010
0103
,
2010
0100
0010
3100
,
0120
1000
0001
1030
,
0210
1000
0001
1300
,
0102
0100
0100
0103
,
1020
1000
1000
1030
,
2100
0100
0100
3100
,
0100
1000
0010
0100
0001
0010
0100
1000
,
0100
0010
2200
0000
0000
0000
0000
0000
0000
0000
0000
0000
0000
0000
0000
0000
,
0000
0000
0000
0000
,
0000
3300
0000
0000
0000
0000
0000
0000
;

//---------------dance-single - ----------------
#NOTES:
     dance-single:
     :
     Medium:
     7:
     0.417,0.654,0.138,0.472,0.020:
0000
0000
0000
0000
,
0000
0000
0000
0000
,
0000
0000
0000
0000
,
0000
0000
0000
0000
,
0000
0000
0000
0000
,
0000
0000
0000
0000
,
0000
0000
0000
0000
,
0000
0000
0000
0000
,
0000
0000
0000
0000
,
0000
0002
0200
0000
,
0303
0020
0200
0000
,
0330
0200
2300
3020
,
0230
0302
2003
3200
,
0320
0032
0023
0032
,
0023
0000
0000
0032
0000
0000
0023
0000
0000
0031
2000
0002
,
0000
0000
0000
0000
,
0000
0000
0000
0000
,
0000
0000
0000
0000
,
0000
0000
0000
0000
,
0000
0000
0000
0000
,
0000
0000
0000
0000
,
0000
0000
0000
0000
,
0000
0000
0000
0000
0000
0000
0000
0000
0000
0000
0000
3003
,
0001
0000
0000
0101
0000
0000
0100
0000
,
0000
1010
0000
0100
0010
1000
0001
0010
,
0100
0000
0000
1100
0000
0000
1000
0000
,
0000
0101
0000
0001
1000
0001
0010
0001
,
0010
0000
0000
1100
0000
0000
0100
0000
,
0000
0110
0000
0010
0001
0010
0100
1000
,
0001
0000
0000
1001
0000
0000
1000
0000
,
0000
1010
0000
0010
0100
0010
1000
0001
,
0020
0000
0000
0130
0000
0000
0200
0000
,
0000
1300
0000
1000
0001
0010
0001
1000
,
0200
0000
0000
0310
0000
0000
0020
0000
,
0000
0130
0000
0010
0001
0100
0010
1000
,
0200
0000
0000
1300
0000
0000
2000
0000
,
0000
3010
0000
0010
0100
0001
0010
0001
,
0020
0000
0000
0130
0000
0000
0020
0000
,
0031
0000
0000
0001
0000
0000
1000
0000
0000
0010
0000
0000
0100
0000
0000
0001
,
1000
0001
0100
0010
,
0100
0010
1000
0001
,
0100
0010
1000
0100
,
0001
0100
1000
0010
,
0001
0010
1000
0010
,
0100
0001
0100
0010
,
2000
0000
0000
3000
,
0000
0010
1000
0001
0100
0010
0001
0010
,
0100
0100
0010
0010
,
1000
1000
0001
0001
,
0001
0100
0010
0100
,
0010
1000
0001
0100
,
0010
1000
0100
0010
,
0100
1000
0001
0100
,
0020
0000
0000
0000
0000
0000
0000
0030
,
0000
0100
0010
1000
0001
0010
0100
0000
,
1000
0100
0010
0001
0000
0010
0001
0000
,
0010
0001
0000
0002
0200
0000
0000
0000
,
0000
0000
0000
0000
,
0303
0002
0000
0000
,
0000
2003
0000
0000
,
0000
3020
0000
0000
,
0000
0230
0000
0000
,
0000
0310
0010
0010
,
0010
0010
0010
0010
,
0010
2002
0000
0000
,
3003
1001
0000
0101
,
0000
0002
0000
0000
,
0203
0000
0000
0320
,
0000
0000
2030
0000
,
0000
3200
0000
0300
,
1000
0100
1000
0000
0010
0000
0100
0010
,
1000
1000
0001
0001
,
0100
0010
0100
0000
0010
1000
0001
0010
,
0100
0100
0010
0010
,
0011
0001
0100
0010
,
0110
0010
1000
0001
,
0100
0001
0100
0000
0010
0100
0010
0000
,
0100
0010
1000
0001
0010
0100
1000
0100
,
0010
0000
0010
0000
0100
0000
0100
1000
,
0010
0010
0100
0100
,
0010
1000
0001
0000
1000
0001
0100
0001
,
0100
0100
0010
0010
,
1010
0010
0100
0010
,
1001
0001
0100
0001
,
0101
0010
0101
0010
,
0002
0000
0000
0000
,
2003
0000
3020
0000
,
0230
0000
0302
0000
,
0023
0000
0230
0000
,
2300
0000
3020
0000
,
0230
0000
0302
0000
,
2003
0000
3020
0000
,
0130
0001
0100
0010
1000
0010
0100
0010
,
2000
0200
0000
0000
0000
0000
0000
0000
,
0000
0000
3300
0000
;

//---------------dance-single - ----------------
#NOTES:
     dance-single:
     :
     Easy:
     5:
     0.293,0.538,0.163,0.171,0.000:
0000
0000
0000
0000
,
0000
0000
0000
0000
,
0000
0000
0000
0000
,
0000
0000
0000
0000
,
0000
0000
0000
0000
,
0000
0000
0000
0000
,
0000
0000
0000
0000
,
0000
0000
0000
0000
,
0000
0000
0000
0000
,
0000
0001
0200
0300
,
0000
0001
0200
0300
,
0000
0001
0100
0010
,
1000
0100
0010
0001
,
1000
1000
0001
0001
,
1000
0001
0100
0020
,
0000
0000
0000
0000
,
0000
0000
0000
0000
,
0000
0000
0000
0000
,
0000
0000
0000
0000
,
0000
0000
0000
0000
,
0000
0000
0000
0000
0000
0000
0000
0030
,
0000
0000
0000
0000
,
0000
0000
0000
0000
,
0100
0000
0000
0010
0000
0000
1000
0000
,
0000
0001
0000
0000
1000
0000
0001
0000
,
0100
0000
0000
0100
0000
0000
0010
0000
,
0000
1000
0000
0000
0010
0000
0100
0000
,
0001
0000
0000
1000
0000
0000
0100
0000
,
0000
0001
0000
0000
0100
0000
1000
0000
,
0010
0000
0000
0001
0000
0000
0010
0000
,
0000
0100
0000
0000
0010
0000
1000
0000
,
0001
0000
0000
1000
0000
0000
0100
0000
,
0000
1000
0000
0000
0010
0000
0100
0000
,
0010
0000
0000
0010
0000
0000
0100
0000
,
0000
0001
0000
0000
1000
0000
0001
0000
,
0100
0000
0000
0010
0000
0000
1000
0000
,
0000
0001
0000
0000
0010
0000
0001
0000
,
0100
0000
0000
0010
0000
0000
1000
0000
,
2200
0000
0000
3300
,
1000
0000
0001
0000
,
0100
0000
0010
0000
,
1000
0000
0100
0000
,
0010
0000
0100
0000
,
1000
0000
0001
0000
,
0100
0000
0010
0000
,
1000
0000
0000
0000
,
0000
0001
1000
0100
,
1000
0000
0010
0000
,
0100
0000
0001
0000
,
0010
0000
0100
0000
,
0010
0000
0001
0000
,
1000
0000
0001
0000
,
0100
0000
0010
0000
,
2000
0000
0000
3000
,
0000
0001
1000
0100
,
1000
0000
0001
0100
0000
0001
0100
0000
,
0001
0100
0000
0002
2000
0000
0000
0000
,
0000
0000
0000
0000
,
3003
0002
0000
0000
,
0003
2000
0000
0000
,
3000
0020
0000
0000
,
0030
0200
0000
0000
,
0300
0010
0010
0100
,
0100
0001
0001
1000
,
1000
0220
0000
0000
,
0330
0110
0000
0101
,
0000
0000
0001
0000
0000
1000
0000
0000
,
0010
0000
0000
0100
0000
0000
0010
0000
,
0000
1000
0000
0000
0100
0000
0000
0001
,
0000
0000
0100
0000
0000
1000
0000
0000
,
0010
0100
0010
1000
,
0010
0100
0001
0010
,
1000
0010
0001
0100
,
0010
1000
0001
0100
,
0110
0000
0000
0101
0000
0000
0000
0000
,
1010
0000
0000
0101
0000
0000
0000
0000
,
1001
0000
0000
1100
0000
0000
0001
0000
,
1000
0001
0100
0010
,
1000
0100
0010
0100
,
1000
1000
0001
0001
,
0100
0001
0010
0100
,
0010
0010
0001
0001
,
1001
0010
0110
0010
,
1010
0010
0110
0010
,
0110
1001
0101
1010
,
2002
0000
0000
3003
,
0002
0000
1003
0000
,
2000
0000
3100
0000
,
0200
0000
0310
0000
,
0010
0001
0010
1000
,
0010
0001
0100
0010
,
1000
0001
0010
0100
,
1000
0001
0100
0010
,
1000
0202
0000
0000
0000
0000
0000
0000
,
0000
0000
0303
0000
;

//---------------dance-single - ----------------
#NOTES:
     dance-single:
     :
     Beginner:
     2:
     0.107,0.265,0.065,0.008,0.000: // measure 1
0000
0000
0000
0000
,  // measure 2
0000
0000
0000
0000
,  // measure 3
0000
0000
0000
0000
,  // measure 4
0000
0000
0000
0000
,  // measure 5
0000
0000
0000
0000
,  // measure 6
0000
0000
0000
0000
,  // measure 7
0000
0000
0000
0000
,  // measure 8
0000
0000
0000
0000
,  // measure 9
0000
0000
0000
0000
,  // measure 10
0010
0000
0000
0000
,  // measure 11
1000
0000
0000
0000
,  // measure 12
0001
0000
0000
0000
,  // measure 13
0100
0000
0000
0000
,  // measure 14
0010
0000
0100
0000
,  // measure 15
0010
0000
1000
0000
,  // measure 16
0000
0000
0000
0000
,  // measure 17
0000
0000
0000
0000
,  // measure 18
0000
0000
0000
0000
,  // measure 19
0000
0000
0000
0000
,  // measure 20
0000
0000
0000
0000
,  // measure 21
0000
0000
0000
0000
,  // measure 22
0000
0000
0000
0000
,  // measure 23
0000
0000
0000
0000
,  // measure 24
0001
0000
0000
0000
,  // measure 25
0000
0000
0000
0000
,  // measure 26
1000
0000
0000
0000
,  // measure 27
0000
0000
0000
0000
,  // measure 28
0010
0000
0000
0000
,  // measure 29
0000
0000
0000
0000
,  // measure 30
0100
0000
0000
0000
,  // measure 31
0000
0000
0000
0000
,  // measure 32
0010
0000
0000
0010
,  // measure 33
0000
0000
0000
0000
,  // measure 34
1000
0000
0000
0001
,  // measure 35
0000
0000
0000
0000
,  // measure 36
0100
0000
0000
0010
,  // measure 37
0000
0000
0000
0000
,  // measure 38
1000
0000
0000
1000
,  // measure 39
1001
0000
0000
0000
,  // measure 40
0010
0000
0000
0000
,  // measure 41
0100
0000
0000
0000
,  // measure 42
0010
0000
0000
0000
,  // measure 43
1000
0000
0000
0000
,  // measure 44
0001
0000
0000
0000
,  // measure 45
0100
0000
0000
0000
,  // measure 46
0010
0000
0000
0000
,  // measure 47
0000
0000
0000
0000
,  // measure 48
1000
0000
0000
0000
,  // measure 49
0010
0000
0000
0000
,  // measure 50
0100
0000
0000
0000
,  // measure 51
0010
0000
0000
0000
,  // measure 52
1000
0000
0000
0000
,  // measure 53
0001
0000
0000
0000
,  // measure 54
0100
0000
0000
0000
,  // measure 55
0000
0000
0000
0000
,  // measure 56
0010
0000
0000
0000
,  // measure 57
0000
0000
1001
0000
,  // measure 58
0000
0000
0000
0000
,  // measure 59
0000
1000
0000
0000
,  // measure 60
0000
0001
0000
0000
,  // measure 61
0000
0100
0000
0000
,  // measure 62
0000
0010
0000
0000
,  // measure 63
0000
1000
0000
1000
,  // measure 64
0000
0001
0000
0001
,  // measure 65
0000
0200
0000
0000
,  // measure 66
0000
0300
0010
0000
0000
0000
0000
0000
,  // measure 67
0000
0010
0000
0000
,  // measure 68
1000
0000
0000
0001
,  // measure 69
0000
0000
0010
0000
,  // measure 70
0000
0100
0000
0000
,  // measure 71
1000
0000
0000
0000
,  // measure 72
0010
0000
0100
0000
,  // measure 73
0010
0000
0000
0000
,  // measure 74
0100
0000
0001
0000
,  // measure 75
0010
0000
0000
0000
,  // measure 76
0100
0000
0000
0000
,  // measure 77
1000
0000
0000
0000
,  // measure 78
0010
0000
0000
0000
,  // measure 79
0100
0000
0010
0000
,  // measure 80
1000
0000
1000
0000
,  // measure 81
0001
0000
1000
0000
,  // measure 82
0010
0000
0010
0000
,  // measure 83
0110
0000
0000
0000
,  // measure 84
1001
0000
0000
0000
,  // measure 85
0110
0000
0110
0000
,  // measure 86
1001
0000
0000
0000
,  // measure 87
1000
0000
0000
0000
,  // measure 88
0001
0000
0000
0000
,  // measure 89
0010
0000
0000
0000
,  // measure 90
0100
0000
0000
0000
,  // measure 91
0100
0000
0000
0000
,  // measure 92
1000
0000
0000
0000
,  // measure 93
0010
0000
0000
0000
,  // measure 94
0000
1001
0000
0000
0000
0000
0000
0000
;
