#TITLE:Saade Dil Te Churiyan Chaliyan;
#SUBTITLE:;
#ARTIST:Daler Mehndi;
#TITLETRANSLIT:;
#SUBTITLETRANSLIT:;
#ARTISTTRANSLIT:;
#CREDIT:;
#BANNER:;
#BACKGROUND:;
#LYRICSPATH:;
#CDTITLE:;
#MUSIC:Saade Dil Te Churiyan Chaliyan.mp3;
#OFFSET:0.050;
#SAMPLESTART:21.560;
#SAMPLELENGTH:12.000;
#SELECTABLE:YES;
#BPMS:0.000=207.840;
#STOPS:;
#BGCHANGES:0.750=bga1.avi=1.000=0=0=1,
99999=-nosongbg-=1.000=0=0=0 // don't automatically add -songbackground-
;

//---------------dance-single - ----------------
#NOTES:
     dance-single:
     :
     Hard:
     9:
     0.622,0.729,0.297,0.000,0.000: // measure 1
0000
0000
0000
0000
,  // measure 2
0000
0000
0000
0000
,  // measure 3
0000
0000
0000
0000
,  // measure 4
0000
0000
0000
0000
,  // measure 5
0000
0000
0000
0000
,  // measure 6
0000
0000
0000
0000
,  // measure 7
0000
0000
0000
0000
,  // measure 8
0000
0000
0000
0000
,  // measure 9
0000
0000
0000
0000
,  // measure 10
0000
0000
0000
0000
,  // measure 11
0000
0000
0000
0000
,  // measure 12
0000
0000
0000
0010
,  // measure 13
0001
0100
0000
0010
1000
0000
0100
0000
,  // measure 14
0010
0001
0000
0010
0100
0000
1000
0000
,  // measure 15
0001
0010
0000
0010
0100
0000
1100
0000
,  // measure 16
1100
1100
0000
0001
,  // measure 17
1000
0001
0000
0001
0010
0000
0100
0000
,  // measure 18
0010
0001
0000
0100
1000
0000
1000
0000
,  // measure 19
0010
1000
0000
0100
0001
0000
1001
0000
,  // measure 20
0101
0000
1000
0010
0100
0001
0100
0010
,  // measure 21
1000
0100
0010
0000
0000
0000
0010
0100
,  // measure 22
1000
0100
0010
0000
0000
0000
0010
0001
,  // measure 23
0100
0010
1000
0000
0001
0010
0100
0010
,  // measure 24
0001
0100
0010
0000
0010
0000
0100
0000
,  // measure 25
0100
0010
1000
0100
0010
0100
1000
0001
,  // measure 26
0100
0001
0010
0000
0000
0000
0100
0010
,  // measure 27
0001
0010
0100
0000
0000
0000
0100
1000
,  // measure 28
0010
0100
0001
0000
0001
0100
0001
0010
,  // measure 29
0001
1000
0100
0000
0010
0000
0001
0000
,  // measure 30
0010
0000
0000
0000
0001
0100
0010
0000
,  // measure 31
1000
0000
1001
0000
1000
0100
0010
0000
,  // measure 32
0001
0000
1100
0000
1000
0010
0001
0000
,  // measure 33
0010
0000
1000
0010
1000
0100
0010
0100
,  // measure 34
1000
0001
0100
0000
0010
1000
0100
0000
,  // measure 35
0010
0000
1100
0000
1000
0100
0001
0000
,  // measure 36
0100
0000
0110
0000
0010
0001
0100
0000
,  // measure 37
0001
0000
1000
0001
0010
1000
0010
0001
,  // measure 38
0100
1000
0100
0001
0010
0100
0010
0001
,  // measure 39
0100
0000
0110
0010
1000
0001
0010
0100
,  // measure 40
1000
0000
1100
1000
0100
0010
0100
1000
,  // measure 41
0001
1000
0001
0010
,  // measure 42
1000
0000
0010
0000
0001
0000
0100
0100
,  // measure 43
0010
1000
0001
0000
0000
0000
0001
0001
,  // measure 44
0010
0100
0010
0000
0000
0000
0001
0001
,  // measure 45
0100
0010
1000
0000
1000
0100
1000
0001
,  // measure 46
0100
0001
0010
0000
0100
0000
1000
0000
,  // measure 47
0001
0100
0001
0000
0001
0100
0001
0000
,  // measure 48
0001
0100
0001
0000
0100
0000
1010
0000
,  // measure 49
0000
0100
0000
0100
,  // measure 50
0000
0100
0000
0010
,  // measure 51
0010
0000
0010
1000
0010
0001
0010
0000
,  // measure 52
0010
0000
0010
0000
0010
1000
0001
0000
,  // measure 53
1000
0001
0010
0100
0010
0001
0100
0000
,  // measure 54
0100
0000
0100
0000
0010
1000
0001
0000
,  // measure 55
0001
0010
0100
0000
0100
0010
0001
0000
,  // measure 56
0100
0010
1000
0000
0001
0010
0100
0000
,  // measure 57
0001
0010
0000
0100
1000
0000
1000
0000
,  // measure 58
1000
0001
0000
0100
0001
0000
0010
0000
,  // measure 59
0010
0100
0000
0100
1000
0000
1001
0000
,  // measure 60
0101
0000
0011
0000
0000
0000
0001
0100
,  // measure 61
0010
1000
1100
0000
0000
0000
1000
0001
,  // measure 62
0010
0100
0110
0000
0000
0000
0010
0001
,  // measure 63
0100
0010
1010
0000
1000
0100
0001
0100
,  // measure 64
1000
0010
0100
0010
0100
0001
0100
0010
,  // measure 65
1000
0001
0010
0100
0010
0001
0100
0001
,  // measure 66
0010
0100
1100
0000
0000
0000
1000
0100
,  // measure 67
0010
0001
0011
0000
0000
0000
0010
0100
,  // measure 68
1000
0001
1001
0000
0001
0100
0010
0000
,  // measure 69
0100
0010
1000
0000
0001
0010
0100
0000
,  // measure 70
0100
0000
0100
0000
0010
0001
0100
0000
,  // measure 71
0010
0000
1001
0000
0001
0100
0010
0000
,  // measure 72
1000
0000
0011
0000
0001
0100
1000
0000
,  // measure 73
0100
0000
0100
0001
0010
0100
0010
0001
,  // measure 74
0100
0000
0000
0000
0100
0010
1000
0000
,  // measure 75
0001
0000
1100
0000
1000
0010
0100
0000
,  // measure 76
0001
0000
1100
0000
0010
1000
0100
0000
,  // measure 77
0001
0000
0100
1000
0010
0100
0001
0010
,  // measure 78
0100
0000
0000
0000
0100
1000
0010
0010
,  // measure 79
0100
0000
1001
0000
0001
0100
0010
0010
,  // measure 80
1000
0000
0101
0000
0001
1000
0100
0010
,  // measure 81
0100
0010
0001
0100
,  // measure 82
0010
0100
0010
1000
0000
1000
0001
0010
,  // measure 83
0100
0010
0011
0000
0000
0000
0001
0100
,  // measure 84
0010
1000
1100
0000
0000
0000
1000
0001
,  // measure 85
0010
0100
0110
0000
0010
0001
0010
1000
,  // measure 86
0010
0001
0100
0000
0100
0000
0010
0100
,  // measure 87
0010
1000
0100
0000
1000
0000
0100
0000
,  // measure 88
0010
0000
0001
0000
0100
0000
0001
1000
,  // measure 89
0001
0010
0001
1000
0100
1000
0000
0000
,  // measure 90
0000
0000
0000
0000
0000
0000
1000
0001
,  // measure 91
0010
0100
0010
0001
0100
0010
0000
0000
,  // measure 92
0000
0000
0000
0000
0000
0000
0100
0010
,  // measure 93
1000
0010
0001
0010
0100
0001
0000
0000
,  // measure 94
0000
0000
0000
0000
0000
0000
1000
0100
,  // measure 95
0001
0100
1000
0100
1000
0100
0110
0000
,  // measure 96
0011
1001
0000
0000
;

//---------------dance-single - ----------------
#NOTES:
     dance-single:
     :
     Medium:
     7:
     0.482,0.600,0.297,0.000,0.000: // measure 1
0000
0000
0000
0000
,  // measure 2
0000
0000
0000
0000
,  // measure 3
0000
0000
0000
0000
,  // measure 4
0000
0000
0000
0000
,  // measure 5
0000
0000
0000
0000
,  // measure 6
0000
0000
0000
0000
,  // measure 7
0000
0000
0000
0000
,  // measure 8
0000
0000
0000
0000
,  // measure 9
0000
0000
0000
0000
,  // measure 10
0000
0000
0000
0000
,  // measure 11
0000
0000
0000
0000
,  // measure 12
0000
0000
0000
0010
,  // measure 13
1000
0010
0100
0001
,  // measure 14
0100
0010
1000
0001
,  // measure 15
1000
0001
0100
0101
,  // measure 16
0101
0101
0000
0001
,  // measure 17
1000
0100
0010
0100
,  // measure 18
1000
0010
0100
0001
,  // measure 19
1000
0010
0100
0101
,  // measure 20
1010
1001
0000
0001
,  // measure 21
0100
0000
0010
0100
0010
0000
0100
0000
,  // measure 22
0010
0000
1000
0010
1000
0000
0010
0000
,  // measure 23
0100
0001
0100
0010
,  // measure 24
1000
1001
1001
1001
,  // measure 25
1001
0001
0100
0010
,  // measure 26
1000
0000
0100
1000
0100
0000
1000
0000
,  // measure 27
0010
0000
0100
0010
0100
0000
0010
0000
,  // measure 28
1000
0001
0100
0010
,  // measure 29
1000
1010
1010
1010
,  // measure 30
1010
0000
0010
0000
1000
0010
1000
0000
,  // measure 31
0010
0000
0100
0000
0010
1000
0010
0000
,  // measure 32
0100
0000
0010
0000
0100
0001
0100
0000
,  // measure 33
0001
0010
0100
0010
,  // measure 34
0001
0000
1000
0000
0001
0100
0001
0000
,  // measure 35
0100
0000
0010
0000
0100
0010
0100
0000
,  // measure 36
0010
0000
1000
0000
0010
1000
0010
0000
,  // measure 37
0100
0010
1000
0001
,  // measure 38
0010
0000
0100
0000
1000
0000
0100
1000
,  // measure 39
0100
0000
0000
0000
0010
0000
0001
0010
,  // measure 40
0001
0000
0000
0000
0001
0000
0100
0001
,  // measure 41
0100
0001
0000
0001
,  // measure 42
0000
1000
0000
0001
,  // measure 43
0100
0110
0000
0010
,  // measure 44
1000
1010
0000
0010
,  // measure 45
1000
1001
0001
0100
,  // measure 46
0010
0100
0100
0010
,  // measure 47
1000
0001
0100
0010
,  // measure 48
1000
0100
0010
0001
,  // measure 49
0000
0001
0000
0001
,  // measure 50
0000
0001
0000
0001
,  // measure 51
0100
1000
0100
0001
,  // measure 52
0100
1000
0100
0001
,  // measure 53
0010
1000
0010
0001
,  // measure 54
0010
1000
0010
0001
,  // measure 55
0001
1000
1000
0010
,  // measure 56
0010
0100
0100
0010
,  // measure 57
0000
1000
0000
0000
0001
0000
0100
0000
,  // measure 58
0000
0100
0000
0000
0010
0000
1000
0000
,  // measure 59
0000
0001
0000
0000
0100
0000
0110
0000
,  // measure 60
0110
0110
0000
0010
,  // measure 61
1000
0000
0001
1000
0001
0000
0100
0000
,  // measure 62
0010
0000
0100
0010
0100
0000
0010
0000
,  // measure 63
1000
0001
0100
0010
,  // measure 64
1000
1100
1100
1100
,  // measure 65
1100
1000
0010
0100
,  // measure 66
0001
0000
1000
0001
1000
0000
0001
0000
,  // measure 67
0100
0000
0010
0100
0010
0000
0100
0000
,  // measure 68
0001
1000
0001
0100
,  // measure 69
1000
0110
0110
1001
,  // measure 70
1001
0000
1000
0000
0010
1000
0010
0000
,  // measure 71
0100
0000
0010
0000
1000
0010
1000
0000
,  // measure 72
0010
0000
0100
0000
0001
0100
0001
0000
,  // measure 73
0100
0001
0010
0100
,  // measure 74
0010
0000
0001
0000
1000
0001
1000
0000
,  // measure 75
0001
0000
0100
0000
0001
1000
0001
0000
,  // measure 76
0100
0000
0100
0000
0010
0100
0010
0000
,  // measure 77
0100
0010
1000
0010
,  // measure 78
0100
0000
0001
0000
0010
0000
0100
1000
,  // measure 79
0100
0000
1000
0000
0010
0000
0100
0001
,  // measure 80
0100
0000
0001
0000
0100
0000
0010
0100
,  // measure 81
0010
0100
0000
0100
,  // measure 82
0000
0010
0000
1000
,  // measure 83
0010
0110
0000
0010
,  // measure 84
1000
1010
0000
0010
,  // measure 85
1000
0001
0010
0100
,  // measure 86
1000
0100
0010
0001
,  // measure 87
0001
1000
1000
0001
,  // measure 88
0100
0000
0010
0000
1000
0000
0001
1000
,  // measure 89
0001
1000
0001
1000
0001
1000
0000
0000
,  // measure 90
0000
0000
0000
0000
0000
0000
0001
1000
,  // measure 91
0001
1000
0001
1000
0001
1000
0000
0000
,  // measure 92
0000
0000
0000
0000
0000
0000
0001
1000
,  // measure 93
0001
1000
0001
1000
0001
1000
0000
0000
,  // measure 94
0000
0000
0000
0000
0000
0000
0001
1000
,  // measure 95
0001
1000
0001
1000
0001
0000
0011
0000
,  // measure 96
0110
1100
0000
0000
;

//---------------dance-single - ----------------
#NOTES:
     dance-single:
     :
     Easy:
     5:
     0.388,0.472,0.279,0.000,0.000: // measure 1
0000
0000
0000
0000
,  // measure 2
0000
0000
0000
0000
,  // measure 3
0000
0000
0000
0000
,  // measure 4
0000
0000
0000
0000
,  // measure 5
0000
0000
0000
0000
,  // measure 6
0000
0000
0000
0000
,  // measure 7
0000
0000
0000
0000
,  // measure 8
0000
0000
0000
0000
,  // measure 9
0000
0000
0000
0000
,  // measure 10
0000
0000
0000
0000
,  // measure 11
0000
0000
0000
0000
,  // measure 12
0000
0000
0000
0010
,  // measure 13
1000
0010
0100
0001
,  // measure 14
0010
0001
0100
0010
,  // measure 15
1000
0001
0100
0110
,  // measure 16
0110
0110
0000
0010
,  // measure 17
1000
0010
0100
0001
,  // measure 18
0010
0100
0010
0001
,  // measure 19
1000
0010
0100
1001
,  // measure 20
1001
1001
0000
0001
,  // measure 21
1000
0100
0000
1000
,  // measure 22
0010
0100
0000
0010
,  // measure 23
1000
0001
0010
0100
,  // measure 24
0010
0001
0001
1000
,  // measure 25
1000
0001
0100
0010
,  // measure 26
1000
0100
0000
0010
,  // measure 27
1000
0100
0000
0010
,  // measure 28
1000
0100
1000
0010
,  // measure 29
0100
0001
0001
1000
,  // measure 30
1000
0010
0100
0100
,  // measure 31
0100
0000
0010
0010
,  // measure 32
0010
0000
1000
1000
,  // measure 33
1000
0001
0100
0010
,  // measure 34
1000
0100
0010
0010
,  // measure 35
0010
0000
0100
0100
,  // measure 36
0100
0000
0010
0010
,  // measure 37
0010
0001
0010
0001
,  // measure 38
0100
0010
1000
0001
,  // measure 39
0001
0000
1000
0001
,  // measure 40
0001
1000
0001
0001
,  // measure 41
0000
0001
0000
0100
,  // measure 42
0000
0010
0000
0100
,  // measure 43
0010
0110
0000
0010
,  // measure 44
0100
0110
0000
0010
,  // measure 45
0100
0110
0010
1000
,  // measure 46
0001
1000
1000
1000
,  // measure 47
0001
0100
0010
1000
,  // measure 48
0100
0010
0100
1100
,  // measure 49
0000
0000
0000
0000
,  // measure 50
0000
0000
0000
1000
,  // measure 51
0000
0100
0000
0001
,  // measure 52
0000
0100
0000
1000
,  // measure 53
0000
0010
0000
0001
,  // measure 54
0000
0010
0000
1000
,  // measure 55
0000
0001
0000
0010
,  // measure 56
0000
0100
0000
0010
,  // measure 57
0000
0001
0000
0100
,  // measure 58
0000
0010
0000
1000
,  // measure 59
0000
0001
0000
0101
,  // measure 60
0101
0101
0000
0001
,  // measure 61
0100
0110
0000
0001
,  // measure 62
0100
0110
0000
0001
,  // measure 63
0100
0110
0010
1000
,  // measure 64
0100
0010
0100
1000
,  // measure 65
0001
0100
0010
1000
,  // measure 66
0100
0110
0000
1000
,  // measure 67
0100
0110
0000
1000
,  // measure 68
0100
0110
0010
0001
,  // measure 69
0100
0010
0010
0100
,  // measure 70
0001
1000
0100
0010
,  // measure 71
0001
0011
0001
0010
,  // measure 72
0100
1100
1000
0100
,  // measure 73
0010
0011
0001
0100
,  // measure 74
0100
0010
0100
0010
,  // measure 75
1000
1001
0010
0100
,  // measure 76
1000
1001
0010
0100
,  // measure 77
1000
1001
0001
0100
,  // measure 78
0010
1000
0100
0010
,  // measure 79
0010
0110
0010
0100
,  // measure 80
1000
1100
1000
0010
,  // measure 81
0100
0001
0000
1000
,  // measure 82
0000
0001
0000
0100
,  // measure 83
0100
0110
0000
0100
,  // measure 84
0100
0110
0000
0100
,  // measure 85
0100
0110
0010
1000
,  // measure 86
0001
0010
0010
0001
,  // measure 87
0100
0010
1000
0100
,  // measure 88
0010
0001
0010
0100
,  // measure 89
0100
0100
0100
0000
,  // measure 90
0000
0000
0000
0010
,  // measure 91
0010
0010
0010
0000
,  // measure 92
0000
0000
0000
0001
,  // measure 93
0001
0001
0001
0000
,  // measure 94
0000
0000
0000
1000
,  // measure 95
1000
1000
1000
0001
,  // measure 96
0100
0110
0000
0000
;

//---------------dance-single - ----------------
#NOTES:
     dance-single:
     :
     Beginner:
     2:
     0.167,0.300,0.081,0.000,0.000: // measure 1
0000
0000
0000
0000
,  // measure 2
0000
0000
0000
0000
,  // measure 3
0000
0000
0000
0000
,  // measure 4
0000
0000
0000
0000
,  // measure 5
0000
0000
0000
0000
,  // measure 6
0000
0000
0000
0000
,  // measure 7
0000
0000
0000
0000
,  // measure 8
0000
0000
0000
0000
,  // measure 9
0000
0000
0000
0000
,  // measure 10
0000
0000
0000
0000
,  // measure 11
0000
0000
0000
0000
,  // measure 12
0000
0000
0000
0010
,  // measure 13
0000
0000
0000
1000
,  // measure 14
0000
0000
0000
0001
,  // measure 15
0000
0000
0000
0100
,  // measure 16
0100
0100
0000
0010
,  // measure 17
0000
0000
0000
0100
,  // measure 18
0000
0000
0000
0001
,  // measure 19
0000
0000
0000
1000
,  // measure 20
1000
1001
0000
0000
,  // measure 21
0000
0010
0000
0000
,  // measure 22
0000
0010
0000
0000
,  // measure 23
0000
1000
0000
0001
,  // measure 24
0000
1000
1000
1000
,  // measure 25
0000
0001
0000
1000
,  // measure 26
0000
0010
0000
0000
,  // measure 27
0000
0010
0000
0000
,  // measure 28
0000
0010
0000
1000
,  // measure 29
0000
0001
0000
1000
,  // measure 30
0000
0000
0000
0001
,  // measure 31
0001
0000
0000
1000
,  // measure 32
1000
0000
0000
0010
,  // measure 33
0010
0100
0000
0010
,  // measure 34
0000
1000
0000
0001
,  // measure 35
0001
0000
0000
1000
,  // measure 36
1000
0000
0000
0010
,  // measure 37
0010
0100
0000
0010
,  // measure 38
0000
1000
0000
0001
,  // measure 39
0001
0000
0000
1000
,  // measure 40
1000
0000
0001
0001
,  // measure 41
0000
0000
0000
0000
,  // measure 42
0000
0000
0000
0100
,  // measure 43
0100
0100
0000
0000
,  // measure 44
0000
0010
0000
0000
,  // measure 45
0000
1000
0000
1000
,  // measure 46
0000
0001
0000
1000
,  // measure 47
0000
0100
0000
0010
,  // measure 48
0000
0001
0000
1000
,  // measure 49
0000
0000
0000
0000
,  // measure 50
0000
0000
0000
0001
,  // measure 51
0000
0000
0000
0000
,  // measure 52
0000
0000
0000
1000
,  // measure 53
0000
0000
0000
0000
,  // measure 54
0000
0000
0000
0010
,  // measure 55
0000
0000
0000
0000
,  // measure 56
0000
0000
0000
0100
,  // measure 57
0000
0000
0000
0000
,  // measure 58
0000
0000
0000
0010
,  // measure 59
0000
0000
0000
1001
,  // measure 60
1001
1001
0000
0000
,  // measure 61
0000
0010
0000
0000
,  // measure 62
0000
0010
0000
0000
,  // measure 63
0000
0010
0000
1000
,  // measure 64
0000
0001
0000
0001
,  // measure 65
0000
0001
0000
1000
,  // measure 66
0000
0010
0000
0000
,  // measure 67
0000
0010
0000
0000
,  // measure 68
0000
0010
0000
0000
,  // measure 69
0000
0100
0000
0100
,  // measure 70
0000
0100
0000
0000
,  // measure 71
0000
1001
0000
0000
,  // measure 72
0000
0110
0000
0000
,  // measure 73
0000
0001
0000
0001
,  // measure 74
0000
0000
0000
0000
,  // measure 75
0000
0110
0000
0000
,  // measure 76
0000
1001
0000
0000
,  // measure 77
0000
0100
0000
0100
,  // measure 78
0000
0000
0000
0010
,  // measure 79
0010
0000
0000
0010
,  // measure 80
0010
0000
0010
0010
,  // measure 81
0000
0000
0000
0000
,  // measure 82
0000
0000
0000
1000
,  // measure 83
1000
1000
0000
0001
,  // measure 84
0001
0001
0000
1000
,  // measure 85
1000
1000
0000
0001
,  // measure 86
0000
0100
0000
0010
,  // measure 87
0000
1000
0000
1000
,  // measure 88
0000
0001
0000
1000
,  // measure 89
0000
0000
0000
0000
,  // measure 90
0000
0000
0000
0010
,  // measure 91
0000
0000
0000
0000
,  // measure 92
0000
0000
0000
0100
,  // measure 93
0000
0000
0000
0000
,  // measure 94
0000
0000
0000
0001
,  // measure 95
0000
0000
0000
1000
,  // measure 96
1000
1001
0000
0000
;
