#TITLE:Push The Feeling On;
#SUBTITLE:;
#ARTIST:Nightcrawlers;
#TITLETRANSLIT:;
#SUBTITLETRANSLIT:;
#ARTISTTRANSLIT:;
#CREDIT:;
#BANNER:bn.png;
#BACKGROUND:bg.png;
#LYRICSPATH:;
#CDTITLE:;
#MUSIC:Push The Feeling On.mp3;
#OFFSET:0.047;
#SAMPLESTART:85.780;
#SAMPLELENGTH:12.000;
#SELECTABLE:YES;
#BPMS:0.000=123.000;
#STOPS:;
#BGCHANGES:;

//---------------dance-single - ----------------
#NOTES:
     dance-single:
     :
     Hard:
     7:
     0.341,0.396,0.074,0.198,0.116:
0000
0000
0000
0000
,
0000
0000
0000
0000
,
0000
0000
0000
0000
,
0000
0000
0000
0000
,
0020
0000
0000
0030
,
2000
0000
0000
3000
,
0002
0000
0000
0003
,
0020
0000
0000
0030
,
0100
0010
0001
1000
,
0001
0100
0001
0010
,
0100
1000
0100
1000
,
0010
0100
0001
1000
,
0100
1000
0100
0001
,
0100
1000
0010
0010
,
0100
0010
1000
0010
,
0001
0001
0010
1000
,
0100
0000
1000
0000
0100
0000
1000
0000
0010
0000
0000
0010
0000
0000
0010
0000
,
0100
0000
0001
0000
0100
0000
0001
0000
0100
0000
0000
0010
0000
0000
1000
0000
,
0001
0000
0010
0000
0100
0000
0010
0000
0100
0000
0000
1000
0000
0000
0010
0000
,
0100
0000
0001
0000
0100
0000
0010
0000
1000
0000
0000
1000
0000
0000
0001
0000
,
0100
0000
0001
0000
0010
0000
0001
0000
1000
0000
0000
1000
0000
0000
0010
0000
,
1000
0000
0001
0000
0100
0000
1000
0000
0100
0000
0000
0100
0000
0000
0100
0000
,
0010
0000
1000
0000
0001
0000
0010
0000
0100
0000
0000
0010
0000
0000
0100
0000
,
1000
0000
0001
0000
0100
0000
0001
0000
0010
0000
0000
0100
0000
0000
0010
0000
,
0001
1000
0100
1000
,
0001
0100
0001
0001
,
1000
0010
1000
0001
,
1000
0010
1000
0001
,
0010
0001
1000
0100
,
1000
0100
0001
0001
,
0001
0100
1000
1000
,
0010
1000
0010
0100
,
0002
0003
0000
0000
,
2000
3000
0000
0000
,
0020
0030
0000
0000
,
0020
0030
0000
0000
,
2020
3000
1000
1030
,
2200
0300
0100
3100
,
2002
0003
0001
3001
,
0202
0003
0001
0301
,
0001
1000
0100
0100
,
1000
0000
0001
0000
0100
0001
0010
0100
,
1000
1000
0100
1000
,
1010
0000
0100
0000
0010
1000
0001
0010
,
0200
1300
0020
0130
,
0100
0000
0010
1000
0000
0001
0000
0020
0000
0000
0000
0030
0000
0000
0000
0000
,
1001
0010
1001
0100
,
0001
0000
0100
0000
0010
0000
1000
0100
0000
0000
0000
0000
0000
0000
0000
0000
,
2000
0000
0000
3100
0000
0000
1000
0000
0002
0000
0000
0103
0000
0000
0001
0000
,
1000
0000
0001
0010
0000
0100
0000
0020
0000
0000
0000
0000
0030
0000
0000
0000
,
0002
0000
0000
0103
0000
0000
0010
0000
2000
0000
0000
3100
0000
0000
0000
0000
,
1000
0000
0001
0000
0010
0000
0001
0100
0000
0000
0000
0000
0000
0000
0000
0000
,
1001
0000
0001
0000
0100
0000
0001
0000
1000
0000
0000
1000
0000
0000
1000
0000
,
0100
0000
1000
0000
0010
0000
0100
0000
0001
0000
0000
0001
0000
0000
0001
0000
,
0100
0000
0010
0000
1000
0000
0001
0000
0100
0000
0000
0100
0000
0000
0100
0000
,
0010
0000
1000
0000
0100
0000
0010
0000
0100
0000
0000
0100
0000
0000
0100
0000
,
1000
0000
0010
0000
0100
0000
0001
0000
0100
0000
0000
0100
0000
0000
0100
0000
,
0010
0000
1000
0000
0001
0000
0100
0000
0001
0000
0000
0001
0000
0000
0001
0000
,
0100
0000
0010
0000
1000
0000
0100
0000
0010
0000
0000
0010
0000
0000
0010
0000
,
0100
0000
1000
0000
0010
0000
0100
0000
0001
0000
0000
0001
0000
0000
1000
0000
,
1001
0000
0000
0000
;

//---------------dance-single - ----------------
#NOTES:
     dance-single:
     :
     Medium:
     5:
     0.254,0.347,0.248,0.157,0.000:
0000
0000
0000
0000
,
0000
0000
0000
0000
,
0000
0000
0000
0000
,
0000
0000
0000
0000
,
1000
0000
0001
0001
,
0100
0000
0001
1000
,
0100
0000
0100
0100
,
0010
0000
0010
0001
,
0101
0000
0001
0100
,
0110
0000
0010
0010
,
0110
0000
0010
1000
,
1100
0000
1000
0001
,
0101
0000
0001
1000
,
1010
0000
0010
0010
,
0110
0000
0100
0001
,
1001
0000
0010
0100
,
0001
0000
0100
0000
,
0010
0010
1000
0000
,
0001
0000
1000
0000
,
0100
1000
0010
0000
,
0100
0000
0001
0000
,
1000
0010
0100
0000
,
0010
0000
0100
0000
,
0001
1000
0100
0000
,
1000
0000
1000
0000
,
0001
0000
0100
0000
,
0010
0000
0100
0000
,
0001
0000
1000
0000
,
1100
0000
0100
0000
,
1000
0000
0010
0000
,
0100
0000
0100
0000
,
0010
0000
1000
0000
,
0002
0003
0000
0000
,
0200
0300
0000
0000
,
0020
0030
0000
0000
,
2000
3000
0000
0000
,
2002
0000
0000
3003
,
0202
0000
0000
0303
,
0022
0000
0000
0033
,
2200
0000
0000
3300
,
2100
0100
0100
3100
,
2001
0001
0001
3001
,
2010
0000
0010
0000
0010
0000
0010
3000
,
2001
0001
0001
0001
,
3002
0103
0200
0310
,
0100
0010
1000
0010
2000
0000
3000
0000
,
1010
0010
1010
0010
,
0100
0001
1000
0001
1000
0000
0000
0000
,
1001
0010
1001
0010
,
0100
0001
0100
0001
0100
0000
0000
0000
,
0010
1000
0100
0010
,
0010
0100
1000
0001
0100
0000
0010
0000
,
0110
0010
1000
1000
,
1001
0001
0100
0100
,
0110
0010
1000
1000
,
1010
0010
0100
0001
,
0011
0010
0100
0100
,
0110
0100
1000
0010
,
0110
0100
0001
1000
,
1001
0001
0100
0010
,
1001
0000
0000
0000
;

//---------------dance-single - ----------------
#NOTES:
     dance-single:
     :
     Easy:
     3:
     0.196,0.248,0.058,0.198,0.000:
0000
0000
0000
0000
,
0000
0000
0000
0000
,
0000
0000
0000
0000
,
0000
0000
0000
0000
,
1000
0000
0000
0000
,
0001
0000
0000
0000
,
1000
0000
0000
0000
,
0001
0000
0000
0000
,
0110
0000
0010
0000
,
0100
0000
1000
0010
,
0001
0000
0010
0000
,
0100
0000
0001
1000
,
0010
0000
0100
0100
,
0010
0000
0010
1000
,
0100
0000
0010
0001
,
0100
0000
0010
1000
,
0001
0001
0002
0003
,
1000
1000
2000
3000
,
0010
0100
0002
0003
,
0001
0010
0200
0300
,
0010
0001
2000
3000
,
0010
0100
0002
0003
,
1000
0010
0200
0300
,
0010
1000
0200
0300
,
0110
0000
0010
0000
,
0001
0000
0100
0000
,
1000
0000
0100
0000
,
0010
0000
1000
0000
,
0100
0000
0010
0000
,
0001
0000
0100
0000
,
0010
0000
1000
0000
,
0001
0000
0010
0000
,
0100
0000
0000
0000
,
1000
0000
0000
0000
,
0001
0000
0000
0000
,
1000
0000
0000
0000
,
2002
0000
0000
3003
,
2002
0000
0000
3003
,
2002
0000
0000
3003
,
2002
0000
0000
3003
,
0001
1000
0100
1000
,
0001
0100
0001
1000
,
0100
1000
0001
0100
,
0001
1000
0100
1000
,
0001
0000
0001
0000
,
0001
0001
0001
0000
,
0010
0000
0100
0000
,
0010
0010
0010
0000
,
0100
0000
1000
0000
,
0010
0010
0010
0000
,
0100
0000
0001
0000
,
0010
0010
0010
0000
,
0100
1000
0020
0030
,
0100
0001
0020
0030
,
0010
0001
2000
3000
,
0010
0100
0002
0003
,
1000
0010
0200
0300
,
0010
1000
0200
0300
,
0010
0001
0200
0300
,
0001
1000
0200
0300
,
1001
0000
0000
0000
;

//---------------dance-single - ----------------
#NOTES:
     dance-single:
     :
     Beginner:
     1:
     0.084,0.149,0.041,0.033,0.000: // measure 1
0000
0000
0000
0000
,  // measure 2
0000
0000
0000
0000
,  // measure 3
0000
0000
0000
0000
,  // measure 4
0000
0000
0000
0000
,  // measure 5
0001
0000
0000
0000
,  // measure 6
0001
0000
0000
0000
,  // measure 7
0001
0000
0000
0000
,  // measure 8
0001
0000
0000
0000
,  // measure 9
1001
0000
0000
0000
,  // measure 10
1000
0000
0000
0000
,  // measure 11
1000
0000
0000
0000
,  // measure 12
1000
0000
0000
0000
,  // measure 13
0001
0000
0000
0000
,  // measure 14
1000
0000
0000
0000
,  // measure 15
1000
0000
0000
0000
,  // measure 16
0001
0000
0000
0000
,  // measure 17
1000
0000
0000
0000
,  // measure 18
0000
0000
0000
0000
,  // measure 19
0001
0000
0000
0000
,  // measure 20
0000
0000
0000
0000
,  // measure 21
1000
0000
0000
0000
,  // measure 22
0000
0000
0000
0000
,  // measure 23
1000
0000
0000
0000
,  // measure 24
0000
0000
0000
0000
,  // measure 25
0001
0000
0000
0000
,  // measure 26
0001
0000
0000
0000
,  // measure 27
1000
0000
0000
0000
,  // measure 28
1000
0000
0000
0000
,  // measure 29
1000
0000
0000
0000
,  // measure 30
1000
0000
0000
0000
,  // measure 31
0001
0000
0000
0000
,  // measure 32
0001
0000
0000
0000
,  // measure 33
1001
0000
0000
0000
,  // measure 34
0000
0000
0000
0000
,  // measure 35
0000
0000
0000
0000
,  // measure 36
0000
0000
0000
0000
,  // measure 37
0002
0000
0003
0000
,  // measure 38
2000
0000
3000
0000
,  // measure 39
0002
0000
0003
0000
,  // measure 40
2000
0000
3000
0000
,  // measure 41
1001
0000
0000
0000
,  // measure 42
0001
0000
0000
0000
,  // measure 43
1001
0000
0000
0000
,  // measure 44
1000
0000
0000
0000
,  // measure 45
0001
0000
0001
0000
,  // measure 46
0001
0001
0001
0000
,  // measure 47
1000
0000
1000
0000
,  // measure 48
1000
1000
1000
0000
,  // measure 49
1000
0000
0001
0000
,  // measure 50
1000
1000
1000
0000
,  // measure 51
1000
0000
0001
0000
,  // measure 52
1000
1000
1000
0000
,  // measure 53
0001
0000
0000
0000
,  // measure 54
1000
0000
0000
0000
,  // measure 55
0001
0000
0000
0000
,  // measure 56
1000
0000
0000
0000
,  // measure 57
0001
0000
0000
0000
,  // measure 58
1000
0000
0000
0000
,  // measure 59
0001
0000
0000
0000
,  // measure 60
1000
0000
0000
0000
,  // measure 61
1001
0000
0000
0000
;
