#TITLE:Piano-Concerto-no.1;
#SUBTITLE:;
#ARTIST:WavFactory;
#TITLETRANSLIT:;
#SUBTITLETRANSLIT:;
#ARTISTTRANSLIT:;
#CREDIT:;
#BANNER:bn.png;
#BACKGROUND:bg.png;
#LYRICSPATH:;
#CDTITLE:;
#MUSIC:Piano-Concerto-no.1.mp3;
#OFFSET:-0.077;
#SAMPLESTART:0.360;
#SAMPLELENGTH:12.000;
#SELECTABLE:YES;
#BPMS:0.000=156.000;
#STOPS:;
#BGCHANGES:;

//---------------dance-single - ----------------
#NOTES:
     dance-single:
     :
     Hard:
     10:
     0.676,0.972,0.231,0.157,0.285:
0000
0000
0000
0000
,
0000
0000
0000
0000
,
0000
0000
0000
0000
,
0000
0000
0000
0000
,
1001
0100
0001
0000
0001
0010
0000
0100
,
1000
0000
0100
0010
0001
1000
0001
0100
,
0010
0000
0100
0001
0000
0010
0001
0000
,
1000
0100
0010
0100
1000
0001
0020
0000
,
0100
0130
0000
0100
2000
0000
0001
3001
,
1000
0001
0100
0001
0020
0000
0100
0130
,
0000
0010
0002
0000
1000
1003
1000
0001
,
0010
0000
0001
0000
0100
0000
0000
0010
1000
0000
0001
0000
0000
0000
0010
0000
,
0100
0000
0000
0010
0001
0000
0100
0000
0000
0000
0100
0000
0100
0000
0000
0100
,
0010
0000
0010
0000
0000
0000
0100
0000
0001
0000
0000
0100
0010
0000
1000
0000
,
0001
0000
1000
0000
0001
0000
0000
0100
0010
0000
0100
0000
0000
0000
0010
0000
,
1000
0000
0000
1000
0001
0000
0010
0000
0001
0000
1000
0000
0100
0000
0000
1000
,
0010
0000
0100
0000
0000
0000
0100
0000
0001
0000
0000
1000
0100
0000
1000
0000
,
0001
0100
0010
1000
0001
0010
0100
0010
0001
0100
0010
1000
0100
0010
0100
1000
,
0001
0000
0010
0000
0010
0000
0000
0100
1000
0000
0001
0000
0000
0000
0001
0000
,
0100
0000
0000
0010
1000
0000
0100
0000
0000
0000
1000
0000
0001
0000
0000
0001
,
0100
0000
0010
0000
0000
0000
0100
0000
0001
0000
0000
1000
0001
0000
1000
0000
,
0100
1000
0001
0100
0001
1000
0010
1000
,
0001
0000
0001
0000
0001
0000
0001
0000
1000
0001
1000
0001
1000
0001
1000
0001
,
1000
0000
0100
0000
0010
0000
0001
0010
0001
0000
0010
0000
0000
0000
0001
0000
,
1000
0000
1000
0001
0100
0000
0100
0000
0000
0000
0010
0000
1000
0000
0100
1000
,
0100
0000
1000
0000
0000
0000
0001
0000
0100
0000
0001
0010
0001
0000
1000
0000
,
1100
0000
0100
0000
0010
0000
0001
0010
0001
0000
1000
0000
0000
0000
0001
0000
,
0010
0000
0100
1000
0100
0000
1000
0000
0000
0000
0001
0000
1000
0000
0010
0100
,
0001
0000
0000
0000
1000
0000
0001
0000
0010
0000
0100
1000
0010
0100
0010
1000
,
0001
0100
0020
0000
0130
0001
1000
0100
,
0020
0000
0130
1000
0100
0001
0200
0000
,
1300
0001
1000
0100
0020
0000
0031
0100
,
0010
1000
0200
0000
1300
0001
0010
0100
,
0020
0000
0031
0100
0010
1000
0020
0000
,
1030
0001
0010
0001
0100
1000
0100
0001
,
0100
1000
0100
1000
0001
0010
0001
0010
,
1000
0010
0001
0100
0010
1000
0100
0001
,
1000
0100
0001
0100
1000
0010
0001
0100
,
0101
0000
0000
1010
0000
0000
1100
0000
,
0000
0011
0000
0000
1001
0000
0101
0000
,
1010
0000
0000
1100
0000
0000
0011
0000
,
0000
0000
0110
0000
0000
0000
1000
0100
1000
0000
0001
0000
0011
0000
0000
0000
,
0001
1000
0100
1000
0010
0100
0001
0010
,
1000
0010
0001
0100
0010
1000
0100
1000
,
0010
0100
0001
1000
0100
1000
0001
0100
,
0010
0000
0010
0000
1000
0000
1000
0000
0001
1000
0001
1000
0001
1000
0001
1000
,
0001
0001
0010
0100
,
1100
0000
0000
0000
0000
0000
1000
0001
,
0100
0000
0001
0000
0100
0000
0010
1000
,
0100
0000
0010
0001
0100
0000
0000
0000
,
0000
0010
1010
0001
,
0101
0000
0000
0000
0000
0000
0001
0100
,
0010
1000
0100
0000
0100
1000
0010
0000
,
0110
1010
2002
3003
,
0001
0100
0020
0000
1030
0001
0200
0000
,
0301
1000
0200
0000
1300
0010
0200
0000
,
0301
0100
0010
1000
0100
0010
0100
1000
,
0001
1000
0001
1000
0001
1000
0001
1000
0001
0100
0001
0010
0100
0010
0001
0100
,
0010
0000
1000
0000
0100
0000
0100
0010
0001
0000
0010
0000
0000
0000
0100
0000
,
0010
0000
0001
0010
0100
0000
0010
0000
0000
0000
0001
0000
1000
0000
0010
1000
,
0100
0000
1000
0000
0000
0000
0010
0000
0100
0000
0010
0001
1000
0000
0001
0000
,
1001
0000
1000
0000
0100
0000
0001
0100
1000
0000
0100
0000
0001
0000
0100
0000
,
1000
0000
0010
0100
0010
0000
1000
0000
0010
0000
1000
0000
0001
0000
1000
0001
,
0010
0000
1000
0000
0001
0000
0100
0000
0010
0000
1000
0001
1000
0000
0001
0000
,
0010
0001
0010
0001
0010
1000
0010
1000
,
0010
0001
0010
1000
0001
0100
0001
0100
,
1000
0100
1000
0001
1000
0100
0010
0100
,
1100
1000
0100
0010
0001
1000
0100
0010
,
0001
1000
0100
0010
0001
1000
0100
0010
,
0001
1000
0100
0010
0001
1000
0100
0010
,
0001
0100
0110
0000
0001
0101
0000
0001
,
1001
1000
0001
0100
0010
1000
0100
0010
,
1001
0000
0000
0000
0001
0100
0001
0100
0001
0100
0001
0100
0001
0100
0001
0100
,
0001
0100
0001
0100
0001
0100
0001
0100
0001
0100
0001
0100
0001
0100
0001
0100
,
0001
0000
1010
0011
,
2002
0000
0000
0000
,
3003
0000
0000
0000
;

//---------------dance-single - ----------------
#NOTES:
     dance-single:
     :
     Challenge:
     12:
     0.958,1.000,0.338,0.264,0.973: // measure 1
0000
0000
0000
0000
,  // measure 2
0000
0000
0000
0000
,  // measure 3
0000
0000
0000
0000
,  // measure 4
0000
0000
0000
0000
0000
0000
0000
0000
0100
0010
0100
0010
0100
0010
0100
0010
,  // measure 5
0001
0000
1000
0000
0100
0000
1000
0001
0100
0000
0010
0000
1000
0100
1000
0000
,  // measure 6
0001
0000
0100
0010
0100
0000
0001
0000
1000
0000
0100
0000
0010
0000
0100
0010
,  // measure 7
0100
0000
1000
0000
0001
0100
0001
0000
0010
0000
0100
1000
0100
0000
1000
0000
,  // measure 8
0001
0100
0001
0000
0020
0000
0000
0000
0130
0000
1000
0000
1001
0000
0001
1000
,  // measure 9
0100
0000
1100
0000
1000
0001
0100
0000
0101
0000
0001
1000
0100
0000
1100
0000
,  // measure 10
1000
0000
0001
0000
1001
0000
1000
0001
0010
0000
0011
0000
0001
1000
0010
0000
,  // measure 11
1010
0000
1000
0001
0010
0000
0011
0000
0001
0000
1000
0000
0010
1000
0010
1000
,  // measure 12
0100
0000
0000
0010
0000
0000
0100
0000
0000
0000
1000
0100
1000
0000
0000
1000
0000
0000
0000
0000
0000
0001
0000
0000
,  // measure 13
0100
0000
0000
0000
0010
0100
0010
0000
0000
1000
0000
0000
0000
0000
0000
1000
0000
0000
0001
0000
0000
0000
0010
0001
,  // measure 14
0010
0000
0000
0100
0000
0000
0000
0000
0000
1000
0000
0000
0001
0000
0000
0000
0001
0100
0001
0000
0000
1000
0000
0000
,  // measure 15
0001
0000
0000
1000
0000
0000
0001
0000
0000
0000
0100
0001
0100
0000
0000
0100
0000
0000
0000
0000
0000
0010
0000
0000
,  // measure 16
0100
0000
0000
0000
0001
1000
0001
0000
0000
0100
0000
0000
0000
0000
0000
0100
0000
0000
0010
0000
0000
0000
0010
1000
,  // measure 17
0010
0000
0000
0100
0000
0000
0000
0000
0000
0100
0000
0000
0010
0000
0000
0000
0010
0100
0010
0000
0000
1000
0000
0000
,  // measure 18
0001
1000
0010
0100
0001
0010
0100
1000
0001
0100
0010
1000
0100
0010
0001
1000
,  // measure 19
0100
0000
0000
0100
0000
0000
0110
0000
0000
0000
0001
0010
0001
0000
0000
0010
0000
0000
0000
0000
0000
0100
0000
0000
,  // measure 20
1100
0000
0000
0000
0100
0010
0100
0000
0000
0010
0000
0000
0000
0000
0000
0001
0000
0000
1001
0000
0000
0000
1000
0100
,  // measure 21
1000
0000
0000
0010
0000
0000
0000
0000
0000
0100
0000
0000
1001
0000
0000
0000
1000
0100
1000
0000
0000
0001
0000
0000
,  // measure 22
1000
0001
0101
0001
1000
0100
1100
0001
,  // measure 23
0101
0000
1010
0000
1100
0000
0110
0000
0001
0010
0100
1000
0100
0001
0100
1000
,  // measure 24
0001
0000
0000
1000
0000
0000
0010
0000
0000
0010
1000
0010
1000
0000
0000
0010
0000
0000
0100
0000
0000
0100
0000
0000
,  // measure 25
0010
0000
0000
0010
1000
0010
1000
0000
0000
0001
0000
0000
1000
0000
0000
0010
0000
0000
0100
0000
0000
0001
0100
0001
,  // measure 26
0010
0000
0000
0100
0000
0000
1000
0000
0000
0001
0000
0000
1000
0000
0000
0100
1000
0100
1000
0000
0000
1000
0000
0000
,  // measure 27
1001
0000
0000
0001
0000
0000
0100
0000
0000
0100
0001
0100
0001
0000
0000
0100
0000
0000
0010
0000
0000
1000
0000
0000
,  // measure 28
0100
0000
0000
0100
0010
0100
0010
0000
0000
0100
0000
0000
1000
0000
0000
0001
0000
0000
0100
0000
0000
0100
0001
0100
,  // measure 29
0001
0000
0000
0010
0000
0000
0001
0000
0000
0010
0000
0000
0001
0000
0000
0001
1000
0001
1000
0000
0000
0010
0000
0000
,  // measure 30
0100
0001
0022
0033
0001
0100
0010
0010
,  // measure 31
0202
0303
0010
1000
0100
0010
2200
3300
,  // measure 32
1000
0100
0010
0100
2200
3300
1000
0001
,  // measure 33
0100
0010
0202
0303
0001
1000
0100
0010
,  // measure 34
0220
0330
0100
1000
0010
0100
0202
0303
,  // measure 35
0001
1000
0001
0100
1000
0100
0101
0110
,  // measure 36
1001
0000
0001
0000
0001
0100
0010
1000
0001
0010
0100
1000
0100
0000
1000
0000
,  // measure 37
0010
1000
0010
0100
0001
0010
0100
1000
0001
0000
0100
0000
0010
1000
0001
0010
,  // measure 38
0100
0010
0001
1000
0100
0000
0010
0000
0001
0010
0001
0100
0010
1000
0001
0000
,  // measure 39
1000
0001
0100
0001
1000
0100
1000
0100
0010
0100
1000
0001
0100
0001
0010
0001
,  // measure 40
0100
0010
1000
0100
0010
0100
1000
0001
0100
0010
1000
0100
0010
0001
0010
0100
,  // measure 41
0010
0001
0100
0010
1000
0001
0100
0010
1000
0100
1000
0100
0010
0100
0010
0001
,  // measure 42
0100
0010
1000
0001
0010
0100
0010
0001
0100
0010
1000
0100
0010
0100
1000
0001
,  // measure 43
0100
0001
0100
0001
0010
0001
0010
0001
0010
0100
0010
0100
1000
0100
1000
0100
,  // measure 44
1000
0001
1000
0001
0100
0001
0100
0001
0010
0100
0010
0001
1000
0001
0100
0010
,  // measure 45
1000
0001
0010
0001
1000
0010
0100
0010
1000
0001
0100
0001
1000
0100
1000
0010
,  // measure 46
0100
0001
0100
0001
0100
0010
1000
0010
0100
0010
1000
0001
0010
0100
1000
0100
,  // measure 47
0020
1000
0001
1030
,  // measure 48
1001
0000
0001
0100
0010
0000
0100
0100
,  // measure 49
0010
0000
1000
0000
0001
0000
0001
0010
,  // measure 50
0100
0000
0010
0100
1000
0000
0000
0000
,  // measure 51
0000
1100
0011
0110
,  // measure 52
2002
0000
3003
0000
0000
0000
1000
0100
,  // measure 53
0010
0010
0100
0000
0100
1000
0010
0000
,  // measure 54
0100
0001
1010
0000
,  // measure 55
0020
2030
0020
3030
0020
0230
0002
0303
,  // measure 56
0002
2003
0200
3300
0200
2300
0020
3030
,  // measure 57
0001
0100
0010
1000
0001
0100
0010
1000
0001
0100
0010
1000
0001
1000
0010
0100
,  // measure 58
0010
0100
0001
1000
0010
0100
0010
0001
0100
1000
0100
0001
0010
0100
0010
0001
,  // measure 59
1000
0000
0000
1000
0000
0000
0001
0000
0000
0001
1000
0001
0010
0000
0000
0010
0000
0000
0100
0000
0000
0100
0000
0000
,  // measure 60
0010
0000
0000
0001
1000
0001
0010
0000
0000
0100
0000
0000
0010
0000
0000
0001
0000
0000
0010
0000
0000
0100
1000
0100
,  // measure 61
1000
0000
0000
0100
0000
0000
0010
0000
0000
0001
0000
0000
1000
0000
0000
0100
1000
0100
0010
0000
0000
0001
0000
0000
,  // measure 62
1001
0000
0000
0001
0000
0000
0100
0000
0000
0100
0001
0100
0010
0000
0000
0100
0000
0000
0010
0000
0000
0010
0000
0000
,  // measure 63
0100
0000
0000
0100
0010
0100
0010
0000
0000
1000
0000
0000
0010
0000
0000
1000
0000
0000
0100
0000
0000
0100
0010
0100
,  // measure 64
0010
0000
0000
0100
0000
0000
1000
0000
0000
0001
0000
0000
0010
0000
0000
1000
0100
1000
0100
0000
0000
1000
0000
0000
,  // measure 65
0100
0010
0100
0001
0100
0010
0100
0001
0100
0001
0100
0010
1000
0001
0010
0100
,  // measure 66
1000
0001
0010
0000
0100
0000
1000
0000
0001
1000
0001
0100
0001
1000
0100
1000
,  // measure 67
0001
0100
0001
0010
0001
0100
0010
1000
0100
0000
1000
0000
0001
0000
0100
0000
,  // measure 68
0110
0000
0000
1000
0100
0000
0010
0001
0000
0001
0100
0000
0010
1000
0000
1000
0001
0000
0001
0010
0000
0010
0100
0000
,  // measure 69
0100
1000
0000
1000
0001
0000
0001
0100
0000
0100
0010
0000
0010
1000
0000
1000
0001
0000
0001
0010
0000
0010
0100
0000
,  // measure 70
0100
1000
0000
1000
0001
0000
0001
0100
0000
0100
0010
0000
0010
1000
0000
1000
0100
0000
0100
0010
0000
0010
0001
0000
,  // measure 71
0001
1000
1000
0001
1000
1000
0001
0100
,  // measure 72
0010
1000
0010
0100
0001
1000
0001
0010
,  // measure 73
1100
0000
0000
0000
1000
0100
0010
0001
1000
0100
0010
0001
1000
0100
0010
0001
,  // measure 74
1000
0100
0010
0001
1000
0100
0010
0001
1000
0100
0010
0001
1000
0100
0010
0001
,  // measure 75
1000
0000
1001
0110
,  // measure 76
2002
0000
0000
0000
,  // measure 77
3003
0000
0000
0000
;

//---------------dance-single - ----------------
#NOTES:
     dance-single:
     :
     Medium:
     8:
     0.493,0.596,0.198,0.247,0.000:
0000
0000
0000
0000
,
0000
0000
0000
0000
,
0000
0000
0000
0000
,
0000
0000
0000
0000
,
0001
1000
0100
0000
1000
0100
0000
0010
,
0001
0000
0001
0100
0001
0100
0010
1000
,
0100
0000
1000
0100
0000
0100
0010
0000
,
0010
0001
1000
0001
0100
0010
1000
0000
,
0010
0100
0000
0010
1000
0000
0010
0100
,
0000
0000
0000
0001
0100
0000
0010
1000
,
0000
0001
0100
0000
0010
1000
0000
0000
,
0001
0000
1000
0000
0100
0100
0000
0000
,
1000
0000
0010
0010
0000
0000
0100
0000
,
0001
0001
0000
0000
0100
0000
0010
0010
,
1000
0001
0100
0000
0010
0010
0000
0010
,
0100
0000
0010
0010
0000
0100
0010
0000
,
0100
0100
0000
0010
1000
0000
0100
0100
,
1000
0100
0010
0001
1000
0100
0010
0001
,
0101
0000
0101
0000
0001
0001
0000
0000
,
1010
0000
0100
0010
0000
0000
1010
0000
,
0001
0100
0000
0000
0110
0000
0010
0000
,
1000
0001
0100
0000
0001
1000
0100
0000
,
1000
0001
1000
0001
1000
0001
1000
0001
,
2000
0000
3020
0000
0100
0130
0000
0000
,
0020
0000
0100
0130
0000
0000
0200
0000
,
0010
0310
0000
0000
0200
0000
0010
0310
,
1000
0010
0200
0000
0001
0301
0000
0001
,
2000
0000
0010
3010
0000
0100
0002
0000
,
0010
0013
0000
0100
2000
0000
0001
3001
,
1020
0130
1020
0130
,
1020
0130
1020
0130
,
1020
0000
0130
0000
1020
0000
0130
0001
,
0021
0130
0021
0130
,
0021
0130
0021
0130
,
0021
0000
0130
0000
0021
0000
0130
0010
,
0100
0100
0010
0000
0001
0000
0001
0001
,
1000
0000
0001
0000
0100
0100
0010
0000
,
1000
0000
0001
0001
0010
0000
0100
0000
,
1100
0000
0000
0100
0000
0000
0010
0000
,
0000
0001
0000
0000
0100
0000
1000
0000
,
0100
0000
0000
0001
0000
0000
0010
0000
,
0000
1000
0000
0000
1000
0010
0001
0000
,
0001
0100
0010
0000
0100
0010
1000
0000
,
0001
1000
0100
0000
0010
0100
0001
0000
,
0001
0100
0010
0000
0010
0001
0010
0000
,
0010
0001
0100
0001
0010
1000
0010
0001
,
0100
0001
0100
1000
,
0110
0000
0000
0000
0000
0000
0010
1000
,
0001
0000
1000
0000
0001
0000
0001
0100
,
0010
0000
0100
0010
1000
0000
0000
0000
,
0000
1000
0100
0010
,
0011
0000
0000
0000
0000
0000
0001
0100
,
1000
0100
0001
0000
0001
0100
0010
0000
,
0100
0001
1001
0000
,
0002
0103
0200
0310
,
0020
1030
2000
3100
,
1000
0001
1000
0001
1000
0001
1000
0001
,
2002
0000
0000
3003
,
0001
0100
0010
1000
0010
0010
0000
1000
,
0010
0100
0010
0010
0000
0100
0001
1000
,
0001
0001
0000
0001
0100
0010
1000
1000
,
0010
0100
0001
1000
0001
0001
0000
0001
,
0100
0010
0100
0100
0000
0010
1000
0100
,
1000
1000
0000
0100
1000
0010
0100
0100
,
0010
1000
0000
0001
0000
0100
0000
0010
,
0000
1000
0001
0100
0010
0100
0000
0100
,
0000
0100
0000
0100
0000
0010
1000
0001
,
0100
0001
0100
0001
0100
0001
0100
0001
,
0100
0001
0100
0001
0100
0001
0100
0001
,
0100
0001
0100
0001
0100
0001
0100
0001
,
0100
0001
0010
0000
0010
0100
0000
0100
,
1000
0000
1000
0100
0001
0100
1000
0010
,
0110
0020
0000
0000
,
0100
0000
0000
0000
,
1000
0000
0001
1030
,
2002
0000
0000
0000
,
3003
0000
0000
0000
;

//---------------dance-single - ----------------
#NOTES:
     dance-single:
     :
     Easy:
     4:
     0.339,0.376,0.165,0.173,0.000:
0000
0000
0000
0000
,
0000
0000
0000
0000
,
0000
0000
0000
0000
,
0000
0000
0000
0000
,
1001
0000
0000
0010
0000
0000
0100
0000
,
0000
0001
0000
0000
1000
0001
0010
0000
,
0000
0100
0000
0000
1000
0000
0000
0010
,
0000
0010
0100
0010
0100
0000
0000
0001
,
0000
0000
1000
0000
0000
0100
0000
1000
,
0010
0100
0001
0000
0000
1000
0000
0000
,
0010
0000
0000
0100
0000
0010
1000
0001
,
0010
0001
0011
0000
,
0001
0101
0000
0100
,
0110
0000
0010
1010
,
1000
0100
1100
0000
,
0100
0110
0000
0010
,
0011
0000
0100
0110
,
2002
0000
0000
0000
0000
0000
0000
3003
,
0001
0000
0100
0000
0010
0010
0000
0000
,
0001
0000
0010
0010
0000
0000
0001
0000
,
0010
0010
0000
0000
0001
0000
0010
0000
,
0100
1100
0010
1100
,
0001
1000
0001
2000
0002
0000
0000
3003
,
0001
0100
1000
0100
,
0001
0010
1000
0010
,
0001
0100
0010
1000
,
1100
1000
0010
0100
,
0010
1000
0001
0010
,
1000
0010
0001
0100
,
0002
1003
0010
0010
,
0200
0310
1000
0020
,
1030
0010
0200
0310
,
1000
0002
1003
0001
,
0020
0031
0100
0020
,
0130
0010
1000
0001
,
0010
0001
0001
0010
,
0001
0001
0010
0001
,
0001
0010
0001
0100
,
0010
0000
0000
1000
0000
0000
0100
0000
,
0000
0010
0000
0000
0100
0000
1000
0000
,
0001
0000
0000
0100
0000
0000
0010
0000
,
0000
1000
0000
0000
0001
0000
0001
0000
,
1000
0001
0100
0001
,
1000
0100
1000
0001
,
0100
0001
1000
0100
,
0010
0010
0010
0010
,
0010
0000
0000
0000
,
0110
0000
0000
0010
,
0001
0100
1000
0100
,
0100
0010
0010
0000
,
0000
0100
0001
1000
,
0010
0000
0000
0100
,
0001
1000
0100
0010
,
0100
0100
0100
0000
,
0020
0030
0002
0003
,
0200
0300
0020
0030
,
1000
0010
0100
0001
,
2200
0000
0000
3300
,
1000
0010
0100
0001
,
0010
0100
0010
0001
,
0100
0010
1000
0100
,
0110
0010
0001
0100
,
0010
1000
0001
0100
,
0010
1000
0100
0010
,
0001
0001
0001
0001
,
0001
0000
0001
1000
0001
0000
0100
0000
,
0100
0000
0100
0000
0100
0000
0100
0010
,
0100
0010
1000
0001
,
0010
0100
1000
0100
,
1000
0010
0100
0001
,
1000
0000
0000
0001
0000
0000
0010
0000
,
0000
0100
1000
0100
,
1000
2002
0000
0000
,
0000
0000
0000
0000
,
3003
0000
0101
1010
,
2200
0000
0000
0000
,
3300
0000
0000
0000
;

//---------------dance-single - ----------------
#NOTES:
     dance-single:
     :
     Beginner:
     2:
     0.163,0.251,0.025,0.041,0.000:
0000
0000
0000
0000
,
0000
0000
0000
0000
,
0000
0000
0000
0000
,
0000
0000
0000
0000
,
0010
0000
0000
0010
,
0000
0000
1000
1000
,
0000
0000
0001
0000
,
0000
0010
0100
0000
,
0000
0100
0000
0000
,
1000
0010
0000
0000
,
0100
0000
0000
0001
,
1000
0000
1000
0000
,
0001
0001
0000
1000
,
1000
0000
0010
0010
,
0100
0100
0010
0000
,
0100
0100
0000
0010
,
0010
0000
1000
1000
,
0002
0000
0000
0003
,
1000
0000
0001
0000
,
0100
0000
0001
0000
,
1000
0000
0100
1000
,
0010
0000
0010
0000
,
0010
0010
0010
0010
,
1001
0000
0001
0000
,
1000
0000
0010
0000
,
0100
0000
0001
0001
,
0001
0000
1000
0000
,
0010
0000
0100
0000
,
0010
0000
1000
0000
,
0001
0000
0000
0000
,
0001
0000
0000
0001
,
0000
0000
0001
0000
,
1000
1000
0000
0000
,
1000
0000
0000
1000
,
0000
1000
0000
1000
,
0010
0000
0000
0100
,
0000
0000
0001
0000
,
0000
1000
0000
0000
,
0100
0000
0000
0000
,
0000
0000
0010
0010
,
0010
0000
0000
0001
,
0000
0000
1000
0001
,
1001
0000
0100
0000
,
0010
0000
1000
0000
,
0001
0000
0010
0000
,
0100
0000
1000
0000
,
0000
0000
0000
0000
,
1000
0000
0000
0000
,
0000
0000
0000
0000
,
0001
0000
1000
0000
,
0000
0000
0000
0000
,
0010
0000
0000
0000
,
0100
0000
0010
0000
,
1000
1000
1000
0000
,
0001
0000
1000
0000
,
0100
0000
1000
0000
,
0020
0000
0000
0000
,
0030
0000
0000
0000
,
0000
0100
0100
0000
,
0010
0010
0000
0100
,
0100
0000
0010
0010
,
0000
1000
1000
0000
,
0001
0001
0000
1000
,
1000
0000
0001
0001
,
0100
0000
0000
0000
,
0000
0000
0010
0000
,
0000
0000
0000
0000
,
1000
0000
0000
0000
,
0000
0000
0000
0000
,
0001
0000
0000
0000
,
0100
0000
0010
0000
,
1000
1000
0001
0001
,
0000
0020
0000
0000
,
0000
0000
0000
0030
,
0100
0000
0010
0010
,
2002
0000
0000
0000
,
3003
0000
0000
0000
;
