#TITLE:Palladio;
#SUBTITLE:;
#ARTIST:eScala;
#TITLETRANSLIT:;
#SUBTITLETRANSLIT:;
#ARTISTTRANSLIT:;
#CREDIT:;
#BANNER:bn.png;
#BACKGROUND:bg.png;
#LYRICSPATH:;
#CDTITLE:;
#MUSIC:Palladio.mp3;
#OFFSET:-0.033;
#SAMPLESTART:15.740;
#SAMPLELENGTH:12.000;
#SELECTABLE:YES;
#BPMS:0.000=91.340,142.000=80.000,143.000=78.200,144.000=65.000;
#STOPS:;
#BGCHANGES:;

//---------------dance-single - ----------------
#NOTES:
     dance-single:
     :
     Hard:
     9:
     0.539,0.627,0.070,0.090,0.805: // measure 1
0000
0000
0000
0000
,  // measure 2
0000
0000
0000
0000
,  // measure 3
0000
1000
0100
0000
0001
0100
0000
0000
,  // measure 4
0000
0100
0010
0000
1000
0001
0000
0000
,  // measure 5
0000
0001
0010
0000
0100
0010
0000
0000
,  // measure 6
0001
0000
0100
0000
0010
0000
1000
0000
0100
0010
0100
0000
0000
0000
0000
0000
,  // measure 7
1001
0001
0100
0010
1000
0000
0000
1000
0010
0100
0001
0000
0000
0000
0000
0000
,  // measure 8
0000
0001
0100
0010
1000
0000
0000
1000
0100
0010
0100
0000
0000
0000
0000
0000
,  // measure 9
0000
0100
1000
0100
0010
0000
0000
0010
0001
0010
0100
0000
0000
0000
0000
0000
,  // measure 10
0010
0001
0100
0010
1000
0001
0010
0100
0010
0001
0100
0000
0000
0000
0000
0000
,  // measure 11
1000
0001
0001
0100
0010
0000
0000
0010
0010
1000
0100
0000
0000
0000
0000
0000
,  // measure 12
0100
1000
0010
0100
0100
0000
0000
0100
0010
1000
0001
0000
0000
0000
0000
0000
,  // measure 13
0001
0001
0010
0100
1000
0000
0000
0100
0100
1000
0010
0000
0000
0000
0000
0000
,  // measure 14
0100
0001
0001
1000
0100
0100
1000
0010
0100
0001
0010
0000
0000
0000
0000
0000
,  // measure 15
0001
0100
0010
0100
0000
0001
1000
0001
0000
1000
0100
1000
0000
0100
0010
0100
,  // measure 16
0000
0010
0001
0010
0000
0001
0100
0001
0010
0100
0010
0100
0010
0001
1000
0100
,  // measure 17
0010
1000
0100
0010
0000
0010
0001
0100
0000
0100
0010
1000
0000
1000
0001
0100
,  // measure 18
0000
0100
0001
0010
0000
0010
0100
1000
0000
0001
1000
0001
0000
0001
0100
0010
,  // measure 19
1000
0000
0010
1000
0100
0000
1000
0010
0100
0000
0010
1000
0001
0000
0010
0100
,  // measure 20
1000
0000
0100
1000
0010
0000
0100
0001
0010
0000
0001
1000
0100
0000
0010
0001
,  // measure 21
0100
0000
0010
1000
0200
0000
1300
0010
0200
0000
0301
1000
0200
0000
1300
0010
,  // measure 22
0200
0000
0000
0000
,  // measure 23
0310
0010
1000
0001
0010
0000
0000
0100
1000
0100
0001
0000
0000
0000
0000
0000
,  // measure 24
0001
0001
0100
1000
0010
0000
0000
0010
1000
0010
0001
0000
0000
0000
0000
0000
,  // measure 25
0001
0010
1000
0100
0010
0000
0001
0100
1000
0100
0001
0000
0000
0000
0000
0000
,  // measure 26
1001
0001
0001
0001
1000
1000
1000
0010
0100
1000
0100
0000
0000
0000
0000
0000
,  // measure 27
0101
0100
0001
0010
0200
0000
0310
0001
0010
0100
1000
0000
1001
0000
0000
0000
,  // measure 28
0001
0100
0100
0010
2000
0000
3100
1000
0010
0010
0100
0000
0000
0000
0000
0000
,  // measure 29
0001
0010
0010
0100
0020
0000
0130
0100
0010
0001
1000
0000
0101
0000
0000
0000
,  // measure 30
0001
0100
1000
0100
0001
0010
1000
0010
0001
0001
1001
0000
0000
0000
0000
0000
,  // measure 31
0001
0100
0001
0100
0001
0100
0001
0100
0001
1000
0001
1000
0001
1000
0001
1000
,  // measure 32
0001
0010
0001
0010
0001
0010
0001
0010
0001
0010
0100
1000
0001
0010
0100
1000
,  // measure 33
1000
0001
1000
0001
1000
0001
1000
0001
1000
0100
1000
0100
1000
0100
1000
0100
,  // measure 34
1000
0010
1000
0010
1000
0010
1000
0010
1000
0001
1000
0001
1000
0001
1000
0001
,  // measure 35
0100
0001
0010
0100
0010
0001
1000
0010
0100
0010
1000
0100
1000
0001
0100
0010
,  // measure 36
1000
0100
0010
0100
1000
0001
0100
0010
1000
0100
1000
0010
0100
0001
1000
0010
,  // measure 37
0220
0000
0000
0000
0000
0000
0000
0330
;

//---------------dance-single - ----------------
#NOTES:
     dance-single:
     :
     Medium:
     7:
     0.327,0.498,0.030,0.020,0.160: // measure 1
0000
0000
0000
0000
,  // measure 2
0000
0000
0000
0000
,  // measure 3
0000
0001
0100
0000
0100
0010
0000
0000
,  // measure 4
0000
0010
1000
0000
1000
0001
0000
0000
,  // measure 5
0000
0001
0010
0000
0010
0100
0000
0000
,  // measure 6
0100
1000
0010
0100
0001
1000
0000
0000
,  // measure 7
1001
0001
0100
0000
0010
0010
0000
0000
,  // measure 8
0100
0010
1000
0000
0010
0100
0000
0000
,  // measure 9
0001
0100
0010
0000
0100
0010
0000
0000
,  // measure 10
0010
0000
1000
0000
0001
0000
0100
0000
0010
1000
0010
0000
0000
0000
0000
0000
,  // measure 11
1001
0000
0001
0000
0100
0000
0000
0000
0001
0100
0001
0000
0000
0000
0000
0000
,  // measure 12
0100
0000
0010
0000
1000
0000
0000
0000
0100
1000
0100
0000
0000
0000
0000
0000
,  // measure 13
1000
0000
0010
0000
0100
0000
0000
0000
0010
0100
0010
0000
0000
0000
0000
0000
,  // measure 14
0100
0000
0010
0000
1000
0000
0001
0000
0100
0001
0100
0000
0000
0000
0000
0000
,  // measure 15
0001
0001
1000
0010
,  // measure 16
0100
0000
0001
0000
1000
0001
0100
0010
,  // measure 17
1000
0010
0001
0010
,  // measure 18
1000
0100
0001
0100
,  // measure 19
1000
0100
0010
0100
1000
0010
0100
0001
,  // measure 20
1000
0001
0100
0001
1000
0001
0010
0001
,  // measure 21
0100
0000
0010
0100
0010
0000
0100
0010
0100
0000
0001
1000
0010
0000
1000
0100
,  // measure 22
0020
0000
0000
0030
,  // measure 23
0011
0010
0100
0000
0100
1000
0000
0000
,  // measure 24
0100
1000
0010
0000
0100
0001
0000
0000
,  // measure 25
0001
0100
0010
0000
0100
0100
0000
0000
,  // measure 26
0010
0000
0100
0000
0001
0000
1000
0000
0001
1000
0001
0000
0000
0000
0000
0000
,  // measure 27
0001
0100
0001
0100
0001
0000
0000
0001
0100
0001
0100
0000
0000
0000
0000
0000
,  // measure 28
0000
0100
0010
0100
0010
0000
0000
0010
1000
0010
1000
0000
0000
0000
0000
0000
,  // measure 29
0000
0000
0100
1000
0100
0000
0000
1000
0100
1000
0100
0000
0000
0000
0000
0000
,  // measure 30
1000
0000
0001
0000
0100
0000
0010
0000
0100
0001
0100
0000
0000
0000
0000
0000
,  // measure 31
0001
0001
0001
0001
1000
1000
1000
1000
,  // measure 32
0010
0010
0010
0010
0100
0100
0100
0100
,  // measure 33
0010
0010
0010
0010
1000
1000
1000
1000
,  // measure 34
0001
0001
0001
0001
0100
0100
0100
0100
,  // measure 35
0001
0100
0001
0000
0100
0010
1000
0000
0010
0100
0001
0000
0001
1000
0100
0000
,  // measure 36
0100
1000
0010
0000
0010
0100
0001
0000
0001
1000
0100
0010
0001
0010
0100
0001
,  // measure 37
0200
0000
0000
0000
0000
0000
0000
0300
;

//---------------dance-single - ----------------
#NOTES:
     dance-single:
     :
     Easy:
     2:
     0.150,0.184,0.040,0.220,0.000: // measure 1
0000
0000
0000
0000
,  // measure 2
0000
0000
0000
0000
,  // measure 3
0000
0000
0000
0000
,  // measure 4
0000
0000
0000
0000
,  // measure 5
0000
0000
0000
0000
,  // measure 6
0000
0000
0000
0000
,  // measure 7
1000
0000
0100
0000
,  // measure 8
1000
0000
0010
0000
,  // measure 9
0100
0000
0001
0000
,  // measure 10
1000
0001
0010
0000
,  // measure 11
0110
0000
0100
0000
,  // measure 12
1000
0000
0010
0000
,  // measure 13
0100
0000
0001
0000
,  // measure 14
1000
0001
0100
0000
,  // measure 15
0020
0000
2030
0000
,  // measure 16
3200
0000
0320
0000
,  // measure 17
0032
0000
2003
0000
,  // measure 18
3020
0000
0230
0000
,  // measure 19
0310
0010
1000
0001
,  // measure 20
0100
1000
0100
0001
,  // measure 21
0010
0100
0010
0001
,  // measure 22
2000
0000
0000
3000
,  // measure 23
1001
0010
0100
0000
,  // measure 24
0010
1000
0100
0000
,  // measure 25
1000
0010
0100
0000
,  // measure 26
0100
0010
1000
0000
,  // measure 27
0001
0001
1000
1001
,  // measure 28
0001
0100
0010
1000
,  // measure 29
0100
0010
0100
1001
,  // measure 30
0001
1000
0010
0000
,  // measure 31
0200
0000
0320
0000
,  // measure 32
0032
0000
0203
0000
,  // measure 33
2300
0000
3200
0000
,  // measure 34
0302
0000
0023
0000
,  // measure 35
0230
0000
2300
0000
,  // measure 36
3020
0000
0230
0000
,  // measure 37
0002
0000
0000
0000
0000
0000
0000
0303
;

//---------------dance-single - ----------------
#NOTES:
     dance-single:
     :
     Beginner:
     1:
     0.070,0.090,0.030,0.010,0.000: // measure 1
0000
0000
0000
0000
,  // measure 2
0000
0000
0000
0000
,  // measure 3
0000
0000
0000
0000
,  // measure 4
0000
0000
0000
0000
,  // measure 5
0000
0000
0000
0000
,  // measure 6
0000
0000
0000
0000
,  // measure 7
0010
0000
0000
0000
,  // measure 8
1000
0000
0000
0000
,  // measure 9
0001
0000
0000
0000
,  // measure 10
0100
0100
0100
0000
,  // measure 11
0010
0000
0000
0000
,  // measure 12
1000
0000
0000
0000
,  // measure 13
0001
0000
0000
0000
,  // measure 14
0001
1000
0010
0000
,  // measure 15
0100
0000
0000
0000
,  // measure 16
0100
0000
0000
0000
,  // measure 17
0001
0000
0000
0000
,  // measure 18
1000
0000
0000
0000
,  // measure 19
0010
0000
0000
0000
,  // measure 20
1000
0000
0000
0000
,  // measure 21
0100
0000
0000
0000
,  // measure 22
0020
0000
0000
0030
,  // measure 23
1001
0000
0000
0000
,  // measure 24
0001
0000
0000
0000
,  // measure 25
0100
0000
0000
0000
,  // measure 26
0010
0010
1000
0000
,  // measure 27
1000
0000
0000
1001
,  // measure 28
0010
0000
0000
0000
,  // measure 29
0100
0000
0000
0110
,  // measure 30
0001
0000
0000
0000
,  // measure 31
1000
0000
0001
0000
,  // measure 32
0010
0000
0100
0000
,  // measure 33
1000
0000
0010
0000
,  // measure 34
0100
0000
0001
0000
,  // measure 35
1000
0000
1000
0000
,  // measure 36
0001
0000
1000
0000
,  // measure 37
0001
0000
0000
0000
;
