#TITLE:Not Over;
#SUBTITLE:;
#ARTIST:Paul Oakenfold;
#TITLETRANSLIT:;
#SUBTITLETRANSLIT:;
#ARTISTTRANSLIT:;
#CREDIT:;
#BANNER:novbn.png;
#BACKGROUND:nov.png;
#LYRICSPATH:;
#CDTITLE:;
#MUSIC:Not Over.mp3;
#OFFSET:0.192;
#SAMPLESTART:28.860;
#SAMPLELENGTH:12.000;
#SELECTABLE:YES;
#BPMS:0.000=133.980,196.000=66.990,227.750=133.980;
#STOPS:;
#BGCHANGES:;

//---------------dance-single - ----------------
#NOTES:
     dance-single:
     :
     Hard:
     7:
     0.316,0.619,0.017,0.343,0.125:
0000
0000
0000
0000
,
0000
0000
0000
0000
,
0000
0000
0000
0000
,
0000
0000
0000
0000
,
0000
0000
0000
0000
,
0000
0000
0000
0000
,
0000
0000
0000
0000
,
0000
0000
0000
0000
,
0001
0010
0001
0100
0010
0000
0100
0002
,
0000
0000
0000
0000
0000
0000
0000
0003
,
0000
1000
0001
0010
0100
0000
0010
0002
,
0000
0000
0000
0200
0000
0000
0000
0303
,
0000
0000
0010
1000
0100
0000
0001
0000
,
0020
0000
0000
0000
,
0030
0100
1000
0010
0100
0000
0001
2000
,
0000
0000
0000
0000
0000
0000
0000
3000
,
0000
0001
0100
0010
2000
0000
0100
3100
,
0000
0100
1000
0010
0200
0000
0010
0310
,
0000
0100
0001
1000
0000
0200
0020
0000
,
0000
0000
0000
0330
,
0000
0001
0010
0100
0020
0000
0100
0130
,
0000
0100
1000
0010
0200
0000
0001
0301
,
0000
0001
1000
0100
0000
0020
0002
0000
,
0000
0000
0000
0033
,
0000
0001
0100
0010
2000
0000
0010
3010
,
0000
0100
0010
1000
0002
0000
0100
0103
,
0000
0001
1000
0100
0000
0010
0200
0000
,
0000
0000
0000
0300
,
0000
0100
1000
0010
0200
0000
0010
0310
,
0000
0100
0010
1000
0002
0000
0010
0013
,
0000
0001
0100
0010
0000
2000
0002
0000
,
0000
0000
0000
3003
,
1001
0000
0010
0000
1000
0000
0100
1000
,
0010
1000
0100
0010
,
0100
0000
0000
1000
0000
0000
0010
0000
0100
0000
0000
0001
0000
0000
1000
0000
,
0001
1000
0100
1000
,
0010
0000
0000
0100
0000
0000
0001
0000
1000
0000
0000
0100
0000
0000
0010
0000
,
0100
1000
0010
0100
,
0001
0000
0000
0100
0000
0000
1000
0000
0100
0000
0000
0001
0000
0000
0010
0000
,
0100
0010
0001
1000
,
0010
0000
0000
0100
0000
0000
0010
0000
1000
0000
0000
0100
0000
0000
0010
0000
,
0100
1000
0000
0001
0000
0010
0000
0100
,
0000
1000
0000
0001
0000
0100
0000
0010
,
1000
0001
0100
0100
,
0010
1000
0100
0010
,
0100
1000
0001
0100
,
0001
0010
0100
1000
,
0001
0100
0010
2000
,
0002
0000
0000
3003
,
1001
0001
0010
0001
0100
0001
1000
0200
0000
0010
0020
0000
0000
0000
0330
0000
,
0001
0100
0001
0010
0100
0010
0001
0200
0000
0010
0020
0000
0000
0000
0330
0000
,
0010
1000
0100
1000
0010
0100
0001
2000
0000
0100
0200
0000
0000
0000
3300
1000
,
0001
0010
2000
0000
0000
3000
0000
0010
0001
0100
0010
0000
1000
0000
0002
0000
,
2000
3000
2000
3000
2000
3000
2000
3000
,
2000
0000
0000
0000
0000
0000
0000
0000
3003
0000
0001
0100
0000
0010
0000
2000
,
0002
0003
0002
0003
0002
0003
0002
0003
,
0002
0000
0000
0000
0000
0000
0000
0000
0000
0000
0000
0000
0000
0000
0000
3003
;

//---------------dance-single - ----------------
#NOTES:
     dance-single:
     :
     Medium:
     4:
     0.199,0.286,0.008,0.201,0.000:
0000
0000
0000
0000
,
0000
0000
0000
0000
,
0000
0000
0000
0000
,
0000
0000
0000
0000
,
0000
0000
0000
0000
,
0000
0000
0000
0000
,
0000
0000
0000
0000
,
0000
0000
0000
0000
,
0001
1000
0100
0010
,
0100
1000
0010
0100
,
0001
0000
1000
0000
0010
0000
0100
0002
,
0000
0000
0000
0020
0000
0000
0033
0000
,
0000
0000
0001
0100
0010
0000
1000
0000
,
1001
0001
1000
0100
,
0010
0100
1000
0010
,
0100
0001
1000
0001
,
0010
0000
0001
0000
0100
0000
0010
1000
,
0000
0000
0010
0000
1000
0000
0001
0010
,
0000
0001
0100
0010
0000
0100
0002
0000
,
0000
0000
0000
0003
,
0000
0000
1000
0000
0010
0000
0010
0100
,
0000
0000
0010
0000
1000
0000
0001
1000
,
0000
1000
0001
0010
0000
0200
2000
0000
,
0000
0000
0000
3300
,
0000
0000
1000
0000
0001
0000
0001
0010
,
0000
0000
0100
0000
1000
0000
0010
1000
,
0000
1000
0001
0010
0000
0010
0200
0000
,
0000
0000
0000
0300
,
0000
0000
0100
0000
1000
0000
1000
0001
,
0000
0000
0001
0000
0010
0000
0001
0100
,
0000
0010
1000
0001
0000
0002
0020
0000
,
0000
0000
0000
0033
,
0000
0000
0000
0000
,
0001
0000
1000
0000
,
0010
0000
0010
0000
,
0100
0000
0001
0000
,
1000
0000
0010
0000
,
0100
0000
0010
0000
,
1000
0000
0010
0000
,
0001
0000
0010
0000
,
1000
0000
0001
0000
,
0000
0100
0000
0010
0000
1000
0000
0001
,
0000
0001
0000
1000
0000
0001
0000
0100
,
0001
0001
1000
1000
,
0010
0000
1000
0000
0010
0000
0100
0001
,
1000
0000
0001
0000
0100
0000
0010
1000
,
0010
0000
0100
0000
0001
0000
0010
0100
,
0020
0000
0000
0000
,
0030
0000
0000
0000
,
0002
0000
0000
0000
,
0200
0000
0000
0000
0000
0000
0000
0003
,
2000
0000
0000
0000
0000
0000
0000
0300
,
0200
0000
0000
3000
0020
0000
0000
0330
,
0002
0203
0320
2030
,
0200
0000
3300
0000
,
0200
0320
0032
0023
,
0230
0000
0000
0000
0000
0000
0000
0000
0000
0000
0000
0000
0000
0000
0000
0300
;

//---------------dance-single - ----------------
#NOTES:
     dance-single:
     :
     Easy:
     2:
     0.119,0.167,0.134,0.050,0.000:
0000
0000
0000
0000
,
0000
0000
0000
0000
,
0000
0000
0000
0000
,
0000
0000
0000
0000
,
0000
0000
0000
0000
,
0000
0000
0000
0000
,
0000
0000
0000
0000
,
0000
0000
0000
0000
,
0000
1000
0001
0010
,
0100
0000
0000
0000
,
0000
0010
0001
0100
,
0010
0000
0000
0000
,
0000
0100
0010
0010
,
1000
0000
0000
0000
,
0000
0001
1000
0100
,
0010
0000
0000
0000
,
0000
0000
0000
0000
,
0011
0000
0000
0000
,
1100
0000
0000
0000
,
1001
0000
0000
0000
,
0110
0000
0000
0000
,
0101
0000
0000
0000
,
1010
0000
0000
0000
,
1001
0000
0000
0000
,
0011
0000
0000
0000
,
0110
0000
0000
0000
,
1100
0000
0000
0000
,
1010
0000
0000
0000
,
0110
0000
0000
0000
,
0101
0000
0000
0000
,
0011
0000
0000
0000
,
0110
0000
0000
0000
,
1001
0000
0000
0000
,
0100
0000
0100
0000
,
0010
0000
0001
0000
,
1000
0000
0010
0000
,
0100
0000
0001
0000
,
0010
0000
0100
0000
,
1000
0000
0100
0000
,
0001
0000
0100
0000
,
1000
0000
0010
0000
,
0100
0000
0001
0000
,
0010
0000
1000
0000
,
0010
0000
0100
0000
,
1000
0000
0010
0000
,
0001
0000
0010
0000
,
0100
0000
0001
0000
,
1000
0000
0100
0000
,
0010
0000
0001
0000
,
2000
0000
0000
0000
0000
0000
0000
3000
,
0020
0000
0000
0000
0000
0000
0000
0030
,
0200
0000
0000
0000
0000
0000
0000
0300
,
0020
0000
0000
0000
0000
0000
0000
0030
,
1000
0001
0010
0100
,
1000
0000
0000
0000
,
1000
0100
0010
0002
,
0200
0000
0000
0000
0000
0000
0000
0000
0000
0000
0000
0000
0000
0000
0000
0000
0000
0000
0000
0000
0000
0000
0000
0000
0000
0000
0000
0000
0000
0000
0000
0000
0000
0000
0000
0000
0000
0000
0000
0000
0000
0000
0000
0000
0000
0000
0000
0000
0000
0000
0000
0000
0000
0000
0000
0000
0000
0000
0000
0000
0000
0000
0000
0000
0000
0000
0000
0000
0000
0000
0000
0000
0000
0000
0000
0000
0000
0000
0000
0000
0000
0000
0000
0000
0000
0000
0000
0000
0000
0000
0000
0000
0000
0000
0000
0000
0000
0000
0000
0000
0000
0000
0000
0000
0000
0000
0000
0000
0000
0000
0000
0000
0000
0000
0000
0000
0000
0000
0000
0000
0000
0000
0000
0000
0000
0000
0000
0000
0000
0000
0000
0000
0000
0000
0000
0000
0000
0000
0000
0000
0000
0000
0000
0000
0000
0000
0000
0000
0000
0000
0000
0000
0000
0000
0000
0000
0000
0000
0000
0000
0000
0000
0000
0000
0000
0000
0000
0000
0000
0000
0000
0000
0000
0000
0000
0000
0000
0000
0000
0000
0000
0303
0000
0000
0000
0000
0000
0000
0000
0000
0000
0000
;

//---------------dance-single - ----------------
#NOTES:
     dance-single:
     :
     Beginner:
     1:
     0.053,0.071,0.000,0.000,0.000: // measure 1
0000
0000
0000
0000
,  // measure 2
0000
0000
0000
0000
,  // measure 3
0000
0000
0000
0000
,  // measure 4
0000
0000
0000
0000
,  // measure 5
0000
0000
0000
0000
,  // measure 6
0000
0000
0000
0000
,  // measure 7
0000
0000
0000
0000
,  // measure 8
0000
0000
0000
0000
,  // measure 9
0000
0000
0000
0000
,  // measure 10
0010
0000
0000
0000
,  // measure 11
0000
0000
0000
0000
,  // measure 12
1000
0000
0001
0000
,  // measure 13
0000
0000
0100
0000
,  // measure 14
0100
0000
0000
0000
,  // measure 15
0000
0010
0000
0000
,  // measure 16
0010
0000
0000
0000
,  // measure 17
0000
0000
0000
0000
,  // measure 18
1000
0000
0000
0000
,  // measure 19
0100
0000
0000
0000
,  // measure 20
0010
0000
0000
0000
,  // measure 21
0001
0000
0000
0000
,  // measure 22
0100
0000
0000
0000
,  // measure 23
0010
0000
0000
0000
,  // measure 24
1000
0000
0000
0000
,  // measure 25
0001
0000
0000
0000
,  // measure 26
0010
0000
0000
0000
,  // measure 27
0100
0000
0000
0000
,  // measure 28
1000
0000
0000
0000
,  // measure 29
0010
0000
0000
0000
,  // measure 30
0100
0000
0000
0000
,  // measure 31
0001
0000
0000
0000
,  // measure 32
1000
0000
0000
0000
,  // measure 33
0100
0000
0000
0000
,  // measure 34
0010
0000
0000
0000
,  // measure 35
0000
0000
0000
0000
,  // measure 36
0001
0000
0000
0000
,  // measure 37
0000
0000
0000
0000
,  // measure 38
1000
0000
0000
0000
,  // measure 39
0000
0000
0000
0000
,  // measure 40
0010
0000
0000
0000
,  // measure 41
0000
0000
0000
0000
,  // measure 42
0100
0000
0000
0000
,  // measure 43
0010
0000
0000
0000
,  // measure 44
1000
0000
0000
0000
,  // measure 45
0001
0000
0000
0000
,  // measure 46
0100
0000
0000
0000
,  // measure 47
0010
0000
0000
0000
,  // measure 48
1000
0000
0000
0000
,  // measure 49
0001
0000
0000
0000
,  // measure 50
1000
0000
0000
0000
,  // measure 51
0010
0000
0000
0000
,  // measure 52
0100
0000
0000
0000
,  // measure 53
0001
0000
1000
0000
,  // measure 54
0100
0000
0000
0000
,  // measure 55
0000
0000
0000
0000
,  // measure 56
0010
0000
0000
0000
,  // measure 57
0001
0000
1000
0000
;
