#TITLE:Lion Izmx feat. MC LEO;
#SUBTITLE:;
#ARTIST:DJ Mass MAD Izm*;
#TITLETRANSLIT:;
#SUBTITLETRANSLIT:;
#ARTISTTRANSLIT:;
#CREDIT:;
#BANNER:bn.png;
#BACKGROUND:bg.png;
#LYRICSPATH:;
#CDTITLE:;
#MUSIC:Lion Izmx feat. MC LEO.mp3;
#OFFSET:0.000;
#SAMPLESTART:39.140;
#SAMPLELENGTH:12.000;
#SELECTABLE:YES;
#BPMS:0.000=147.000;
#STOPS:128.000=1.224
;
#BGCHANGES:;

//---------------dance-single - ----------------
#NOTES:
     dance-single:
     :
     Hard:
     8:
     0.446,0.720,0.216,0.622,0.050:
0000
0000
0000
0000
,
0000
0000
0000
0000
,
0000
0000
0000
0000
,
0000
0000
0000
0000
,
0000
0010
0100
0000
1000
0000
0010
0000
,
0000
0100
0001
0000
0010
0000
0100
0000
,
0000
0010
0001
0000
1000
0000
0001
0000
,
1000
0100
0010
0100
,
1001
0010
0000
0010
0000
0010
0000
0010
,
0000
0100
0100
0000
0110
0000
1001
0000
,
0000
1000
1000
0000
0011
0000
0011
0000
,
0001
0100
1000
0100
,
0101
0100
0000
0001
0000
0010
0000
0100
,
0000
1000
1000
0000
1100
0000
0110
0000
,
0000
0001
0001
0000
0101
0000
1010
0000
,
1000
0100
0001
0010
,
1001
0000
0100
0000
,
0010
1000
0001
0001
,
1000
0000
0011
0000
,
1000
0000
0011
0000
,
0100
0000
0010
0000
,
0001
0100
1000
0100
0001
0100
1000
0100
0001
0010
0000
0000
,
0100
1000
1000
0010
,
0100
0000
0000
0010
0000
0000
1000
0000
0000
0000
0001
0000
1010
0000
0000
0000
,
0010
0000
0202
0303
,
0010
0000
2200
3300
,
0010
0000
2002
3003
,
0010
0000
0022
0033
,
0100
0000
2020
3030
,
0100
0000
0022
0033
,
0100
0000
0220
0330
,
0100
0000
2002
3003
,
0020
0030
1001
0000
0000
0001
0020
0000
,
0030
0000
0100
0000
0000
0100
2000
0000
,
3000
0000
0100
0000
0000
1000
0020
0000
,
0030
0000
0100
0000
0000
0010
2000
0000
,
3000
0000
0001
0000
0000
1000
0200
0000
,
0300
0000
0100
0000
0000
1000
0020
0000
,
0030
0000
0100
0000
0000
0001
0020
0000
,
0030
0000
0100
0000
0000
1000
0020
0000
,
0030
0000
0100
0000
0000
0001
0020
0000
,
0030
0000
0100
0000
0000
1000
0020
0000
,
0030
0000
0100
0000
0000
0001
2000
0000
,
3000
0000
0001
0000
0000
1000
0002
0000
,
0003
0000
0001
0000
0000
0001
0020
0000
,
0030
0000
0001
0000
0000
0001
0200
0000
,
0300
0000
0010
0000
0000
1000
0200
0000
,
0300
1000
0001
0100
,
0010
0000
0000
0000
1001
0000
1000
0000
0000
0000
0001
0000
0010
0000
0000
0100
,
0000
0000
0100
0000
0000
0000
1000
0000
0000
0000
0001
0000
1000
0000
0000
0010
,
0000
0000
0010
0000
0000
0000
0100
0000
0000
0000
0010
0000
1000
0000
0000
0001
,
0000
0000
0010
0000
0000
0000
0100
0000
0000
0000
1000
0000
0100
0000
0000
1000
,
0000
0010
1000
0000
0010
0000
0100
0000
,
0001
0100
0010
1000
,
0000
0000
0100
0001
1000
0010
1000
0100
,
1000
0001
0010
1000
0010
0001
1000
0100
,
1000
0010
0200
0302
0023
0230
0320
0002
,
0033
0000
0002
2003
3200
2300
3020
0000
,
0030
0000
0000
0200
0320
2030
3002
0023
,
0230
0320
0032
1003
0100
1000
0010
0100
,
0001
0000
0001
0001
0010
0000
0020
0230
,
1300
0000
0100
1000
0010
0100
0001
2000
,
3200
1300
0001
0001
0010
0001
0100
0010
,
1000
0100
0020
0032
0103
0020
2030
3020
,
0200
0000
0000
0000
0000
0000
0000
0000
0000
0000
0000
0000
0000
0000
0000
0000
0330
0000
0000
0000
0000
0000
0000
0000
0002
0000
0000
0000
0000
0000
0000
0000
0000
0000
0000
0000
0000
0000
0000
0003
0002
0000
0000
0000
0000
0000
0000
0000
0000
0000
0000
0000
0000
0000
0000
0003
0002
0000
0000
0000
0000
0000
0000
0000
,
0000
0000
0000
0000
0000
0000
0000
0003
0002
0000
0000
0000
0000
0000
0000
0000
0000
0000
0000
0000
0000
0000
0000
0003
0002
0000
0000
0000
0000
0000
0000
0000
0000
0000
0000
0000
0000
0000
0000
0003
0002
0000
0000
0000
0000
0000
0000
0000
0000
0000
0000
0000
0000
0000
0000
0003
0002
0000
0000
0000
0000
0000
0000
0000
,
0000
0000
0000
0000
0000
0000
0000
0003
0002
0000
0000
0000
0000
0000
0000
0000
0000
0000
0000
0000
0000
0000
0000
0000
0000
0000
0000
0000
0000
0000
0000
0000
0003
0000
0000
0000
0000
0000
0000
0000
0000
0000
0000
0000
0000
0000
0000
0000
0000
0000
0000
0000
0000
0000
0000
0000
0000
0000
0000
0000
0000
0000
0000
0000
;

//---------------dance-single - ----------------
#NOTES:
     dance-single:
     :
     Medium:
     6:
     0.339,0.416,0.280,0.343,0.000:
0000
0000
0000
0000
,
0000
0000
0000
0000
,
0000
0000
0000
0000
,
0000
0000
0000
0000
,
0000
0001
0010
0010
,
0000
0001
0100
0100
,
0000
0010
0100
0100
,
0001
0100
0010
1000
,
0100
0000
1000
0000
,
0000
0010
0100
0100
,
0000
1000
0001
0001
,
0100
0010
1000
0001
,
0010
0000
0100
0000
,
0010
0001
0001
0001
,
0000
0100
0010
0010
,
0100
0001
1000
0100
,
0110
0000
0011
0000
,
0001
0100
1000
0100
,
0101
0000
1010
0000
,
0110
0000
1001
0000
,
0001
0000
1000
0000
,
1001
0110
1001
0110
,
1001
0000
0001
0000
1000
0001
0100
0000
,
0000
0000
0000
0000
,
0010
0000
0020
0030
,
0100
0000
0200
0300
,
0001
0000
0002
0003
,
1000
0000
2000
3000
,
0010
0000
0020
0030
,
0100
0000
0200
0300
,
0010
0000
0020
0030
,
1000
0000
2000
3000
,
1001
0001
0000
0202
,
0303
0010
0000
2020
,
3030
0100
0000
0220
,
0330
0010
0000
0220
,
0330
0100
0000
0202
,
0303
0001
0000
0022
,
0033
0010
0000
0220
,
0330
0100
0000
0220
,
0330
0010
0000
0022
,
0033
0001
0000
0202
,
0303
0100
0000
0220
,
0330
0010
0000
2020
,
3030
0010
0000
2200
,
3300
0010
0000
0202
,
0303
0100
0000
2020
,
3030
0010
1000
0010
,
0100
0101
0001
0001
,
0001
1000
0010
0100
,
0001
1000
0100
0010
,
0100
1000
1001
0101
,
0011
0001
0100
0010
,
1000
0100
0010
0100
,
0000
0100
1000
0010
,
0100
0000
0001
0100
0010
1000
0001
0100
,
0010
1000
0001
0000
0001
0000
0001
1000
,
0100
0000
1000
0000
0010
0100
0001
0000
,
1000
0001
0001
1000
,
0010
0100
0010
1000
,
0001
0000
0010
0000
0100
0000
0100
0100
,
1000
0000
0010
0000
0100
0000
0001
0100
,
0100
0000
0010
1000
0001
0000
0010
1000
,
0001
0000
1000
0001
0100
0001
1000
0001
,
0100
0001
0000
0010
0000
0010
0000
0010
,
0000
0010
0000
0010
0000
0010
0000
0010
;

//---------------dance-single - ----------------
#NOTES:
     dance-single:
     :
     Easy:
     3:
     0.226,0.358,0.072,0.162,0.000:
0000
0000
0000
0000
,
0000
0000
0000
0000
,
0000
0000
0000
0000
,
0000
0000
0000
0000
,
0000
0010
0010
0010
,
0000
1000
0001
0100
,
0000
0001
1000
0100
,
1000
0010
0100
0001
,
0010
0000
0010
0000
,
0001
1000
1000
1000
,
0000
0100
1000
0010
,
0100
0001
0100
0001
,
0020
0000
0000
0030
,
0000
0010
0001
0001
,
0000
1000
0010
0010
,
0100
0001
1000
0100
,
0100
0000
0010
0000
,
1000
0100
0010
0000
,
0100
0000
1000
0000
,
0100
0000
1000
0000
,
0010
0000
0100
0000
,
0101
1010
0101
1010
,
1001
0000
0010
0000
,
0100
0010
1000
0000
,
0001
0000
0001
0000
,
1000
0000
1000
0000
,
0010
0000
0010
0000
,
0100
0000
0100
0000
,
0010
0000
0010
0000
,
1000
0000
1000
0000
,
0001
0000
0001
0000
,
0100
0000
0100
0000
,
0110
0010
0000
0020
,
0030
1000
0000
2000
,
3000
0001
0000
0002
,
0003
0010
0000
0020
,
0030
0100
0000
0200
,
0300
1000
0000
2000
,
3000
1000
0000
2000
,
3000
0010
0000
0020
,
0030
0100
0000
0200
,
0300
0010
0000
0020
,
0030
1000
0000
2000
,
3000
0001
0000
0002
,
0003
1000
0000
2000
,
3000
0010
0000
0020
,
0030
0100
0000
0200
,
0300
0010
1000
0001
,
0010
0100
0000
0100
,
0000
0100
0010
0001
,
1000
0100
0000
1000
,
0000
0000
0010
0010
,
0010
0100
0000
0010
,
0000
1000
0000
0001
,
0000
0001
0001
1000
,
1000
0001
0100
1000
,
0100
0001
0001
0001
,
0000
1000
1000
1000
,
0000
0010
0000
0100
,
0000
0010
0000
0000
,
0000
0000
0000
1001
,
0000
0000
0000
0000
,
0110
0010
0000
1000
,
0000
0001
1000
0100
,
0020
0002
0000
0000
,
0000
0000
0000
0000
,
0000
0033
0000
0000
0000
0000
0000
0000
;

//---------------dance-single - ----------------
#NOTES:
     dance-single:
     :
     Beginner:
     1:
     0.111,0.174,0.027,0.000,0.000: // measure 1
0000
0000
0000
0000
,  // measure 2
0000
0000
0000
0000
,  // measure 3
0000
0000
0000
0000
,  // measure 4
0000
0000
0000
0000
,  // measure 5
1000
0000
0000
0000
,  // measure 6
1000
0000
0000
0000
,  // measure 7
0001
0000
0000
0000
,  // measure 8
0001
0000
0000
0000
,  // measure 9
0100
0000
0000
0000
,  // measure 10
0010
0000
0000
0000
,  // measure 11
1000
0000
0000
0000
,  // measure 12
0001
0000
0001
0000
,  // measure 13
0001
0000
0000
0000
,  // measure 14
0000
1000
0000
0000
,  // measure 15
0000
0010
0000
0000
,  // measure 16
0100
0000
0100
0000
,  // measure 17
1001
0000
0000
0000
,  // measure 18
0001
0000
0000
0000
,  // measure 19
1000
0000
0000
0000
,  // measure 20
0010
0000
0000
0000
,  // measure 21
0100
0000
0100
0000
,  // measure 22
0110
0000
0000
0000
,  // measure 23
1000
0000
0001
0001
,  // measure 24
0000
0000
0000
0000
,  // measure 25
0100
0000
0000
0000
,  // measure 26
0010
0000
0000
0000
,  // measure 27
1000
0000
0000
0000
,  // measure 28
0001
0000
0000
0000
,  // measure 29
1000
0000
0000
0000
,  // measure 30
0010
0000
0000
0000
,  // measure 31
0100
0000
0000
0000
,  // measure 32
0010
0000
0000
0000
,  // measure 33
1000
0001
0000
0000
,  // measure 34
0000
1000
0000
0000
,  // measure 35
0000
0010
0000
0000
,  // measure 36
0000
0100
0000
0000
,  // measure 37
0000
0010
0000
0000
,  // measure 38
0000
1000
0000
0000
,  // measure 39
0000
0001
0000
0000
,  // measure 40
0000
0100
0000
0000
,  // measure 41
0000
0010
0000
0000
,  // measure 42
0000
0010
0000
0000
,  // measure 43
0000
1000
0000
0000
,  // measure 44
0000
0001
0000
0000
,  // measure 45
0000
0100
0000
0000
,  // measure 46
0000
0010
0000
0000
,  // measure 47
0000
1000
0000
0000
,  // measure 48
0000
0001
0000
0001
,  // measure 49
0000
0001
0000
0000
,  // measure 50
0000
1000
0000
0000
,  // measure 51
0000
0010
0000
0000
,  // measure 52
0000
0000
0100
0100
,  // measure 53
0100
0010
0000
1000
,  // measure 54
0000
0001
0001
0001
,  // measure 55
0000
1000
0000
0001
,  // measure 56
0000
0100
0010
0010
,  // measure 57
0010
0100
0000
0000
,  // measure 58
0000
0001
0000
0000
,  // measure 59
0000
1000
0000
1000
,  // measure 60
0000
0010
0000
0000
,  // measure 61
0000
0100
0100
0100
,  // measure 62
0000
0010
0000
0010
,  // measure 63
0000
1000
0000
1000
,  // measure 64
0000
0001
0001
0001
,  // measure 65
0000
1001
0000
0000
;
