#TITLE:J'adore Hardcore;
#SUBTITLE:;
#ARTIST:Scooter;
#TITLETRANSLIT:;
#SUBTITLETRANSLIT:;
#ARTISTTRANSLIT:;
#CREDIT:;
#BANNER:bn.png;
#BACKGROUND:bg.png;
#LYRICSPATH:;
#CDTITLE:;
#MUSIC:J adore Hardcore.mp3;
#OFFSET:-0.037;
#SAMPLESTART:89.140;
#SAMPLELENGTH:12.000;
#SELECTABLE:YES;
#BPMS:0.000=150.000;
#STOPS:;
#BGCHANGES:;

//---------------dance-single - ----------------
#NOTES:
     dance-single:
     :
     Hard:
     9:
     0.493,0.719,0.460,0.153,0.524:
0000
0000
0000
0000
,
0000
0000
0000
0000
,
0000
0000
0000
0000
,
0000
0000
0000
0000
,
1000
0001
0010
0001
,
0100
1000
0100
0001
,
0010
0100
1000
0200
,
0000
0000
0000
1300
,
0001
0101
1100
1000
,
0010
0101
1010
1000
,
0001
0011
1100
1001
,
0000
0000
0000
1000
,
0001
0101
1100
1000
,
0010
1010
0011
0001
,
1000
0000
0001
0100
0000
0010
0000
0000
2000
0000
0000
0000
,
0001
0000
0000
0001
0000
0000
0001
0000
3000
1100
0000
0001
,
0100
0000
0000
0010
0000
0010
1000
0000
1000
0001
0000
0001
,
0010
0000
0000
0100
0000
0100
1000
0000
1000
0010
0000
0100
,
0001
0000
0000
0001
0000
1000
0001
0000
0001
0010
0000
0010
,
0100
0000
0000
0010
0000
0000
0001
0000
0000
1100
0000
1000
,
0001
0000
0001
0010
0000
0010
0100
0000
0100
1000
0000
1000
,
0001
0000
0001
0100
0000
0100
0010
0000
0010
1000
0000
1000
,
0001
0000
0001
0010
0000
0100
0000
0000
2000
0000
0000
0000
,
0010
0000
0000
0010
0000
0000
0010
0000
3000
1010
0000
0000
,
0101
0000
0000
1010
0000
0000
0101
0000
0001
0000
0000
1000
,
0000
0000
0100
1000
0000
0000
0100
0000
0010
0001
0000
0000
,
0110
0000
0000
1100
0000
0000
1100
0000
1000
0000
0000
0001
,
0000
0000
0001
0010
0000
0001
1000
0000
0001
0101
0000
0000
,
0110
0000
0000
1010
0000
0000
1100
0000
0100
0000
0000
0010
,
0000
0000
0001
0010
0000
0000
0010
0000
0100
1100
0000
0000
,
0011
0000
0000
0101
0000
0010
0100
0000
0001
1000
0000
0000
,
1000
0000
0000
1000
0000
0000
1000
0000
1000
0010
0000
0000
,
0100
0000
0001
0010
0000
0000
0000
0000
0100
1000
0000
1000
,
0001
0000
0001
0010
0000
0000
0000
0000
0000
0100
0000
0010
,
0010
0000
0001
0001
0000
1000
0000
0000
1000
0001
0000
0000
,
0001
0000
0001
1000
0000
0000
0000
0000
0000
1000
0001
0100
,
0001
0000
0001
0020
0000
0000
0130
0000
0000
0100
1000
0100
,
0010
0000
0010
0002
0000
0000
1003
0000
0000
0101
0000
0001
,
0100
0000
0010
1000
0000
1000
0100
0000
0100
0220
0000
0330
,
0022
0000
0033
0202
0000
0303
2020
0000
3030
0010
0000
0000
,
1001
0000
0000
0001
0000
0001
0100
0000
0010
1000
0000
0000
,
1000
0000
0001
0000
0000
0000
0001
0010
0001
0200
0000
0000
,
0000
0000
0000
0000
0000
0000
0300
0000
0000
0010
0000
1000
,
0010
0000
0000
0000
0000
0000
0000
0000
0100
0000
0000
0000
0010
0000
0000
0000
0000
0000
0000
0000
0010
0000
0000
0000
1000
0000
0000
0000
0000
0000
1000
0000
0000
0100
0000
0000
1000
0000
0000
0000
0000
0000
0000
0000
1000
0000
0000
0000
,
0001
0000
1000
0100
0000
0010
0001
0000
0000
0001
0000
0001
,
0100
0000
0100
0010
0000
0000
0100
0000
0100
0000
0000
0000
,
0020
0000
0000
0031
0000
0000
0000
0000
0010
1000
0000
1000
,
0001
0000
0001
0010
0000
0010
0100
0000
0100
1000
0000
0000
,
1000
0000
0000
0001
0000
0100
0010
0000
1000
0000
0000
0000
,
0001
0000
0100
0010
0000
1000
0000
0000
0010
0000
0000
0000
,
0100
0000
0010
1000
0000
0001
0000
0000
0200
0000
0000
0000
,
0000
0000
0300
0000
,
0110
0000
0000
0001
0000
0001
0100
0000
0010
0000
0000
0000
,
1000
0000
1000
0100
0000
1000
0000
0000
0010
0000
0000
0000
,
0100
0000
0010
1000
0000
0001
0000
0000
0200
0000
0000
0000
,
0000
0000
0300
1001
,
0110
1001
0110
0101
,
1010
0101
1010
1100
,
0011
1100
0011
0011
,
0110
0000
0000
1100
0000
0000
0101
0000
0000
0101
0000
0001
,
0100
0000
0100
0010
0000
0010
1000
0000
1000
0100
0000
0100
,
0010
0000
0010
0001
0000
0010
0100
0000
0100
1000
0000
1000
,
0010
0000
0010
0100
0000
0100
0001
0000
0001
0100
0010
1000
,
0100
0010
0100
1000
0001
0100
0010
1000
0100
0010
0000
0000
;

//---------------dance-single - ----------------
#NOTES:
     dance-single:
     :
     Medium:
     8:
     0.496,0.584,1.000,0.072,0.244:
0000
0000
0000
0000
,
0000
0000
0000
0000
,
0000
0000
0000
0000
,
0000
0000
0000
0000
,
0001
1000
0100
1000
,
0010
0100
0001
0010
,
1000
0010
0100
1000
,
1000
1000
1000
1001
,
0001
1000
0001
1000
,
0001
1000
0001
1000
,
0001
1000
0001
1000
,
0000
0001
0000
0002
0000
0000
0000
0000
0000
0013
0000
0000
,
0010
0100
0010
0100
,
0010
0100
0010
0100
,
0010
0100
0010
0200
,
1000
0000
0000
1000
0000
0000
1300
0000
0000
1001
0000
0001
,
0100
0000
0000
0110
0000
0010
1000
0000
0000
1100
0000
1000
,
0100
0000
0000
1001
0000
0001
0100
0000
0000
0110
0000
0001
,
0100
0000
0000
1010
0000
0010
1000
0000
0000
1001
0000
0001
,
0100
0000
0000
0100
0000
0000
0100
0000
0000
0110
0000
0010
,
0100
0000
0000
0101
0000
0001
0100
0000
0000
0110
0000
0010
,
1000
0000
0000
1100
0000
1000
0100
0000
0000
0110
0000
0100
,
0010
0000
0000
0011
0000
0010
0001
0000
0000
0202
0000
0000
,
0000
0303
0000
0101
,
1010
0110
1001
0011
,
0110
1100
0110
0011
,
0101
0000
0000
1010
0000
0000
0110
0000
0000
1001
0000
0001
,
0010
0000
0010
0100
0000
0100
1000
0000
1000
1100
0000
0000
,
1100
1100
1100
0011
,
0011
0011
0101
1010
,
0101
0000
0000
0110
0000
0000
1001
0000
0010
0001
0000
0001
,
0100
0000
0010
1000
0000
0010
0100
0000
0000
0110
0000
0000
,
1001
0101
0000
0011
,
0101
0110
0000
0110
,
1001
1100
0000
1001
,
0101
1001
0000
1010
,
0110
1010
0000
0110
,
1001
0101
0000
1001
,
1010
0110
0000
0110
,
1001
0110
1001
0110
,
0101
1010
0110
1001
,
1100
0000
0000
0011
0000
0000
0001
0010
0100
1000
0000
0000
,
0000
0000
0000
1001
,
1001
1001
0000
0101
,
1001
0011
1001
0101
,
1010
1100
1010
1100
,
1001
0000
0000
0110
0000
0000
0000
0000
0010
0100
0000
0010
,
0100
0000
0010
0100
0000
0000
0010
0000
0000
1001
0000
0001
,
1000
1000
0001
0100
,
0010
0000
0000
1000
0000
0000
0100
0000
0000
0010
0000
0001
,
0010
0100
1000
0002
,
0010
0010
0010
0013
,
0001
0000
0000
0100
0000
0010
0100
0000
0010
0000
0000
0000
,
0100
0000
0010
1000
0000
0001
0000
0000
0100
0000
0000
0000
,
0010
0000
1000
0001
0000
1000
0000
0000
0002
0000
0000
0000
,
0000
0000
0000
0000
0000
0000
0000
0000
0003
0011
0000
0000
,
1100
0000
0000
1001
0000
0000
1001
0000
0101
0000
0000
1010
,
0000
0000
0001
1000
0000
0000
1100
0000
1000
1001
0000
0000
,
0101
0000
0000
1010
0000
0000
1001
0000
0011
0000
0000
1100
,
0000
0000
1000
1001
0000
0001
0100
0000
0100
0110
0000
0000
,
0101
0000
0000
0110
0000
0000
0110
0000
1010
0000
0000
0000
,
1100
0000
1000
0100
0000
0000
0110
0000
0100
0110
0000
0000
,
0011
0000
0000
1100
0000
0000
0110
0000
0010
0001
0000
0001
,
0100
0000
0100
0010
0000
0010
1000
0000
1000
2002
0000
0000
,
0000
0000
0000
3003
;

//---------------dance-single - ----------------
#NOTES:
     dance-single:
     :
     Easy:
     6:
     0.406,0.526,0.812,0.099,0.000:
0000
0000
0000
0000
,
0000
0000
0000
0000
,
0000
0000
0000
0000
,
0000
0000
0000
0000
,
0001
1000
0001
1000
,
0001
1000
0001
1000
,
0001
1000
0002
0200
,
0000
0000
0303
0000
,
0001
0001
1000
1000
,
0010
0100
0010
1000
,
0001
0010
0100
1000
,
1100
1100
1100
0000
,
1000
0010
0010
0100
,
0001
1000
0100
1000
,
1000
0010
0100
0001
,
0101
0101
0101
1000
,
1001
0010
1001
0010
,
0101
0010
0101
0010
,
1100
0010
1100
0010
,
1001
1001
1001
0100
,
0101
0100
0110
0010
,
1010
1000
1100
1000
,
0011
1000
0011
0100
,
0101
0101
0101
0100
,
0110
0010
0110
0100
,
0110
0110
1001
0001
,
0101
0100
0110
2020
,
0000
0000
3030
0010
,
1010
1000
1010
1010
,
0110
0110
1001
0001
,
0101
0100
0101
2002
,
0000
0000
3003
0001
,
0001
0001
0000
1000
,
0010
0100
0000
0010
,
0010
0100
0000
0101
,
0010
0101
0000
0001
,
0001
1000
0000
1000
,
0001
0100
0000
0010
,
1000
0100
0000
1100
,
0110
0011
0110
1100
,
0010
1100
0010
1100
,
0010
0110
0001
0202
,
0000
0000
0303
0001
,
0001
0001
0000
1000
,
0001
0100
1000
0100
,
0001
0010
1000
0010
,
0001
0001
0000
0101
,
1010
0101
1010
1001
,
0001
1000
0001
0100
,
0001
0010
0100
0010
,
0001
0100
0010
1000
,
1000
0100
0010
0001
,
0010
0010
0100
0100
,
1000
1000
0001
0001
,
0100
0010
2000
0001
,
0000
0000
3000
1001
,
0110
0101
1010
0101
,
1010
0101
1010
0101
,
0101
1010
1010
0110
,
0110
0110
0110
0110
,
1001
0101
1010
1100
,
0110
0011
0110
1100
,
1001
0110
0101
1010
,
0101
0011
1100
2002
,
0000
0000
0000
0000
0000
0000
0000
0000
0000
0000
0000
0000
0000
0000
0000
0000
0000
0000
0000
0000
0000
0000
0000
0000
0000
0000
0000
0000
0000
0000
0000
0000
0000
0000
0000
0000
0000
0000
0000
0000
0000
0000
0000
0000
0000
0000
0000
0000
0000
0000
0000
0000
0000
0000
0000
0000
0000
0000
0000
0000
0000
0000
0000
0000
0000
0000
0000
0000
0000
0000
0000
0000
0000
0000
0000
0000
0000
0000
0000
0000
0000
0000
0000
0000
0000
0000
0000
0000
0000
0000
0000
0000
0000
0000
0000
0000
0000
0000
0000
0000
0000
0000
0000
0000
0000
0000
0000
0000
0000
0000
0000
0000
0000
0000
0000
0000
0000
0000
0000
0000
0000
0000
0000
0000
0000
0000
0000
0000
0000
0000
0000
0000
0000
0000
0000
0000
0000
0000
0000
0000
0000
0000
0000
0000
0000
3003
0000
0000
0000
0000
0000
0000
0000
0000
0000
0000
0000
0000
0000
0000
0000
0000
0000
0000
0000
0000
0000
0000
0000
0000
0000
0000
0000
0000
0000
0000
0000
0000
0000
0000
0000
0000
0000
0000
0000
0000
0000
0000
0000
0000
0000
0000
;

//---------------dance-single - ----------------
#NOTES:
     dance-single:
     :
     Beginner:
     2:
     0.165,0.230,0.153,0.000,0.000: // measure 1
0000
0000
0000
0000
,  // measure 2
0000
0000
0000
0000
,  // measure 3
0000
0000
0000
0000
,  // measure 4
0000
0000
0000
0000
,  // measure 5
0000
0000
0000
0000
,  // measure 6
0000
0000
0000
0000
,  // measure 7
0000
0000
0000
0000
,  // measure 8
0000
0000
0000
0001
,  // measure 9
0000
0000
0000
1000
,  // measure 10
0000
0000
0000
0100
,  // measure 11
0000
1000
0000
0010
,  // measure 12
0000
0000
0000
0000
,  // measure 13
0100
0000
0000
0001
,  // measure 14
0000
0000
0000
0001
,  // measure 15
0000
0010
0000
0100
,  // measure 16
0000
0000
0000
1001
,  // measure 17
0000
0010
0000
0100
,  // measure 18
0000
0010
0000
1000
,  // measure 19
0000
0001
0001
0001
,  // measure 20
0000
0000
0000
1000
,  // measure 21
0000
0010
0000
0100
,  // measure 22
0000
0001
0000
1000
,  // measure 23
0000
0010
0010
0010
,  // measure 24
0000
0000
0000
0100
,  // measure 25
0000
0010
0000
1000
,  // measure 26
0000
0001
0001
0001
,  // measure 27
0000
1000
0000
0100
,  // measure 28
0100
0100
0000
1000
,  // measure 29
0000
0010
0000
0100
,  // measure 30
0000
0001
0000
1000
,  // measure 31
0000
0010
0000
0100
,  // measure 32
0100
0100
0000
0001
,  // measure 33
0001
0001
0000
1000
,  // measure 34
1000
1000
0000
0010
,  // measure 35
0010
0010
0000
0100
,  // measure 36
0100
0100
0000
0010
,  // measure 37
1000
0010
0000
1000
,  // measure 38
0001
1000
0000
0001
,  // measure 39
0100
0001
0000
1001
,  // measure 40
0000
0000
0000
0010
,  // measure 41
0000
0010
0000
0100
,  // measure 42
0100
0100
0000
1001
,  // measure 43
0000
0000
0000
0001
,  // measure 44
0001
0001
0000
1000
,  // measure 45
0000
1000
0000
0010
,  // measure 46
0000
0100
0000
0001
,  // measure 47
0000
1000
0000
0010
,  // measure 48
0010
0010
0000
0100
,  // measure 49
0000
0000
0000
0010
,  // measure 50
0000
0000
0000
1000
,  // measure 51
0000
0000
0000
0001
,  // measure 52
0000
1000
0000
0010
,  // measure 53
0100
0000
0000
0100
,  // measure 54
0000
0000
0000
0010
,  // measure 55
0000
0010
0000
0010
,  // measure 56
0000
0000
0000
0110
,  // measure 57
0000
1001
0000
1001
,  // measure 58
0000
0110
0000
0110
,  // measure 59
0000
0100
0000
1001
,  // measure 60
0000
0000
0000
0110
,  // measure 61
0000
1001
0000
0110
,  // measure 62
0000
1001
0000
1001
,  // measure 63
0000
0110
0000
1001
,  // measure 64
0000
0000
0000
0110
;
