#TITLE:Go Crazy;
#SUBTITLE:;
#ARTIST:xRGTMx as AlphaOmega;
#TITLETRANSLIT:;
#SUBTITLETRANSLIT:;
#ARTISTTRANSLIT:;
#CREDIT:;
#BANNER:bn.png;
#BACKGROUND:bg.png;
#LYRICSPATH:;
#CDTITLE:;
#MUSIC:Go Crazy.mp3;
#OFFSET:-0.044;
#SAMPLESTART:65.820;
#SAMPLELENGTH:12.000;
#SELECTABLE:YES;
#BPMS:0.000=175.000,24.000=87.500,28.000=349.999,84.000=175.000,88.000=349.999,144.000=175.000,148.000=349.999,172.000=175.000,176.000=349.999,200.000=175.000,204.000=349.999,228.000=175.000,230.000=349.999,254.000=175.000,258.000=349.999,370.000=175.000,378.000=58.333,393.000=349.996,521.000=174.996;
#STOPS:228.000=0.171
,228.500=0.171
,229.000=0.171
,229.500=0.171
,392.000=1.004
;
#BGCHANGES:;

//---------------dance-single - ----------------
#NOTES:
     dance-single:
     :
     Hard:
     12:
     1.000,1.000,0.301,0.756,0.358:
0000
0000
0000
0000
,
0000
0000
0000
0000
,
0000
0000
0000
0000
,
0000
0000
0000
0000
,
0000
0000
0000
0000
,
0000
0000
0000
0000
,
2002
0000
0000
3003
,
0001
0100
0010
0000
0100
0000
0001
0000
,
0010
0100
1100
0000
,
1000
0001
0010
0000
0001
0000
0100
0000
,
0010
1000
1100
0000
,
1000
0001
1000
0000
0001
0000
0100
0000
,
0010
0100
0001
0000
,
0001
1000
0100
0000
1000
0000
0010
0000
,
0100
0000
0010
1000
0010
0100
0001
0010
,
0100
0010
0001
1000
0100
0000
1000
0000
,
0010
0100
0001
0010
,
0100
0010
0001
0000
0100
0000
0010
0000
,
1000
0001
0010
0100
,
1000
0100
1000
0000
0001
0000
0100
0000
,
0010
1000
0100
0010
,
0001
0000
0000
0000
1100
0000
0000
0000
0001
0100
0010
0100
0001
0000
1000
0000
,
0100
1000
0100
0000
0010
0100
0010
0000
,
0100
1000
0010
0000
0001
0000
1000
0000
,
0001
0100
0001
0000
0100
0010
0100
0000
,
0010
1000
0100
0000
1000
0000
0001
0000
,
0010
0100
0010
0000
0100
1000
0100
0000
,
1000
0001
0100
0000
0001
0000
1000
0000
,
0100
0010
0100
0000
0010
0001
0100
0000
,
0010
1000
0010
0000
0100
0001
0100
0000
,
0001
1000
0100
0000
1000
0100
0010
0000
,
0010
0001
0100
0010
1000
0000
1001
0000
,
0001
0100
0010
0000
0100
0010
1000
0000
,
0001
0010
0001
1000
0100
1000
0001
0100
,
0010
1000
0010
0000
0220
0000
0330
0000
,
0001
1000
0100
0000
2200
0000
3300
0000
,
1000
0000
0001
0000
0010
0000
0001
0000
0100
0000
1000
0000
0100
0001
0010
0100
0010
0001
2000
0000
0000
3000
0000
0000
,
1100
0000
0001
0110
,
0000
0100
1001
0000
,
0101
0000
0001
0110
,
0100
0110
0010
1000
,
0110
0000
0001
0101
,
0000
1000
1100
0000
,
1000
1000
0001
0010
0100
0010
0001
0001
0100
0010
0010
1000
,
0100
1000
0010
0100
,
0001
0010
1000
0010
,
0001
0100
1000
0100
,
0001
0010
0001
0100
,
0010
1000
0100
0010
,
0100
1000
0001
0100
,
0202
0000
0000
0000
0303
0000
2020
0000
0000
0000
3030
0000
0010
1000
0001
0010
,
0100
1000
0010
1010
,
0100
0010
1000
1001
,
0001
0010
0100
1100
,
1000
0001
0100
0110
,
0010
0010
0100
1001
,
0001
0100
0010
1010
,
0002
0203
0320
0230
0301
1000
0001
0000
,
0010
0001
0010
0000
0010
0001
0100
0010
,
1000
0001
0010
0000
0100
1000
0100
0000
,
1000
0001
0100
0001
0010
0100
0010
0001
,
1000
0000
0001
0000
0100
0010
1000
0000
,
0001
0000
0001
0010
0100
0000
0100
0000
,
0100
0010
0001
1000
0200
0000
0000
0000
,
0020
0000
0000
0330
0010
0000
0001
0000
,
0100
0000
0010
0000
0100
0010
1000
0001
,
0010
0100
1000
0001
0010
0000
0001
0000
,
0100
0000
0010
0000
1000
0010
0100
0001
,
0010
0100
0010
0001
1000
0000
0001
0000
,
0010
0000
0001
0000
0100
0010
1000
0100
,
0010
1000
0010
0100
0010
1000
0010
1000
,
0010
1000
0010
0100
0001
0010
0100
1000
,
0100
0010
0001
1000
0001
0000
0001
0000
,
1000
0000
1000
0000
0001
0100
0010
1000
,
0001
0010
0100
0010
0001
0000
0001
0000
,
0010
0000
0010
0000
0010
0001
0100
1000
,
0100
0010
1000
0100
1000
0000
1000
0000
,
0010
0000
0010
0000
0100
0010
1000
0100
,
0010
0100
1000
0001
0010
0001
0010
0001
,
0010
0000
0100
1000
0100
1000
0010
0100
,
0001
0010
0100
1000
0001
1000
0200
0000
,
1300
0010
0200
0000
0310
1000
0001
0010
,
0100
0010
0001
1000
0100
1000
0020
0000
,
0130
0001
2000
0000
3001
0010
0100
0010
,
0001
1000
0010
0100
0010
1000
0200
0000
,
1300
0001
0020
0000
0031
0100
0010
1000
,
0100
0010
0100
1000
0001
0100
0020
0000
,
1030
0001
0010
1000
0010
0001
0100
1000
,
0100
0001
0010
0001
0011
0000
0110
0000
,
1100
0000
1001
0000
0001
0100
0010
1000
,
0100
0010
0100
1000
1100
0000
0110
0000
,
0011
0000
1001
0000
0001
0100
0010
1000
,
0100
0010
0100
1000
0001
0100
1000
0100
,
0100
0001
0010
0100
0010
0001
0100
0010
1000
0001
0010
0100
0010
0001
1000
0010
,
1000
0000
0000
0100
0000
0000
0010
0000
0000
0100
0000
0000
1000
0000
0000
0000
0000
0000
0001
0000
0000
0000
0000
0000
0110
0000
0000
0000
0010
0000
1000
0000
0000
0000
0001
0000
0100
0000
0000
0000
0010
0000
1000
0000
0000
0000
1000
0000
,
0100
0000
0010
0001
0000
0100
1000
0000
0010
0001
0000
0001
0100
0000
0010
1000
0000
0001
0100
0000
0010
1000
0000
0001
,
1000
0100
0010
0001
0010
0001
0011
0000
0110
0000
0000
1100
1000
0000
0001
0100
0000
0010
1000
0000
0100
0010
0000
0010
,
0001
0000
0010
0100
0000
0100
1000
0000
1000
0001
0000
0001
0100
0000
0010
1000
0000
1000
0001
0000
0001
0010
0000
0100
,
0010
0000
0002
0000
0000
0103
0220
0000
0000
0000
0000
0000
0000
0000
0000
0000
0000
0000
0000
0000
0000
0000
0000
0000
,
0000
0000
0000
0000
,
0330
0010
1000
0010
,
0100
0001
0010
0001
,
1000
0001
0100
0001
,
0010
0100
0010
0001
,
0100
0010
1000
0001
,
0010
0001
0100
0010
,
0001
1000
1000
0001
,
0001
0010
0100
1000
,
0010
0100
0100
0001
,
0001
1000
0001
0010
,
0100
1000
1000
0001
,
0001
1000
0100
0010
,
1000
0100
0010
0100
,
1000
0001
0100
0010
,
1000
0002
0203
0320
,
2030
3200
2300
3020
,
0230
0320
2030
3002
,
0023
0230
0320
0032
,
0203
0320
2030
3200
,
0302
0203
2300
3200
,
0302
0203
2300
3020
,
0230
0302
0023
0032
,
0203
0320
2030
3200
,
2300
3020
0230
0302
,
0023
0230
0320
0032
,
2003
3002
0203
0320
,
2030
3200
2300
3020
,
0230
0302
0023
0230
,
2300
3200
0320
0032
,
0203
0320
2030
3002
,
0023
0000
0000
0000
0031
0000
1000
0010
0100
0000
0010
0000
1000
0001
0010
0000
,
0010
0001
0100
0010
0000
0000
0100
0010
1000
0000
0001
0000
1000
0001
0010
0000
,
0010
0001
0100
0010
0000
0000
0100
0001
1000
0000
1000
0100
0010
0000
0100
1000
,
0001
0000
0000
0100
0000
0000
0010
0000
0000
1000
0000
0000
0100
0000
0000
0010
0000
0000
0001
0000
0000
0100
0000
0000
0010
0000
0000
1000
0000
0000
0001
0000
1000
0000
0001
0000
1000
0000
0001
0000
1000
0000
0001
0000
1000
0000
0001
0000
,
1000
0001
1000
0001
1000
0002
2000
0000
0000
0000
0000
0000
0000
0000
0000
0000
0000
0000
0000
0000
0000
0000
0000
0000
,
0000
3003
0000
0000
;

//---------------dance-single - xRGTMx----------------
#NOTES:
     dance-single:
     xRGTMx:
     Challenge:
     13:
     1.000,1.000,0.431,1.000,0.349:
0000
0000
0000
0000
,
0000
0000
0000
0000
,
0000
0000
0000
0000
,
0000
0000
0000
0000
,
0000
0000
0000
0000
,
0000
0000
0000
0000
,
2002
0000
0000
0000
0000
0000
0000
0000
0000
0000
0000
0000
0000
0000
0000
3000
,
1003
0100
0020
0000
0130
0000
2000
0000
,
3002
1003
2010
3010
,
0100
0001
0020
0000
0230
0000
0310
0000
,
0002
1003
0110
1001
,
1000
0010
0200
0000
0302
0000
0013
0000
,
0200
0310
1200
0310
,
0100
1000
0002
0000
0203
0000
0310
0000
,
1010
0000
1002
0000
1003
0100
0010
0000
,
0021
0100
0230
1000
,
1300
0100
0021
0130
,
1000
0001
0200
0000
0320
0000
0130
0000
,
0002
1003
1200
0310
,
0100
1000
0002
0000
0203
0000
0310
0000
,
0200
0301
0011
1100
,
1010
0000
0000
0000
0101
0000
0000
0000
0001
0010
0100
0010
0001
0000
1001
0000
,
1000
0100
0020
0000
0130
1000
0100
1000
,
0020
0100
0000
0130
0020
0000
1000
0000
,
1030
0001
0010
0000
0010
0001
0010
0100
,
1000
0000
1100
0000
0200
0010
0000
0320
,
0031
0010
0002
0000
0013
0100
0020
0000
,
0130
1000
0200
0000
1300
0001
2000
0000
,
3010
1000
0010
0100
0002
0010
0003
0010
,
1000
0010
0001
0100
0010
1000
0002
0000
,
1003
0100
0010
0000
2100
0000
0001
0000
,
3001
1000
0001
0000
0120
0000
1030
0000
,
1100
0000
0012
0000
0013
0100
1000
0000
,
1000
0010
0001
0000
0011
0000
1010
0000
,
1000
0100
0010
0100
2000
0001
0000
3001
,
1000
0001
0100
1000
0200
0001
0000
0301
,
0100
0000
0000
0000
1000
0000
0000
0000
0001
0000
0000
0000
0010
0000
0000
0000
1000
0000
0000
0000
0001
0000
0000
0000
0100
0000
0000
0010
0000
0000
1000
0000
0000
0001
0000
0000
2000
0000
0000
0000
0000
0000
0000
0000
0000
0000
0000
0000
,
3002
0000
0103
0010
1000
0000
2002
0000
,
0000
3000
2003
0000
3100
0010
0002
0000
,
2003
0000
3001
0100
0010
0000
0220
0000
,
0000
0030
0320
0000
0130
0001
2000
0000
,
3200
0000
0310
0001
0100
0000
2020
0000
,
3000
0000
0032
0000
0013
1000
0002
0000
,
1003
0100
0010
1000
0001
0100
1000
0010
0100
1000
0001
0010
,
2000
0000
3010
0100
0001
0000
2002
0000
,
0000
0003
3002
0000
0013
0100
2000
0000
,
3002
0000
1003
0010
0100
0000
0220
0000
,
0000
0300
0230
0000
0310
1000
0002
0000
,
0023
0000
0130
1000
0010
0000
0202
0000
,
0000
0003
2300
0000
3100
0001
2000
0000
,
3002
0000
0000
0000
0000
0000
2003
0000
0000
0000
0000
0000
3001
0010
0100
1000
,
0001
0000
0100
0010
1000
0000
0100
0010
,
0001
0011
1100
1010
,
0010
0000
0100
0001
0010
0000
0100
1000
,
0001
1100
0011
1100
,
0001
0000
0010
0100
1000
0000
0010
0100
,
0002
0010
1000
0100
,
0010
0100
1000
0013
0001
0000
0100
1000
,
0001
0000
1000
0100
0001
0000
1100
0000
,
0120
0000
0001
0000
0130
0000
0010
0001
,
0100
0000
1000
0001
0010
0000
1000
0000
,
0011
0000
1100
0000
0120
0000
0130
1000
,
0002
0000
0103
1000
0002
0000
2003
0000
,
3200
0302
2003
0000
,
3002
0000
2003
3002
,
2003
0000
3002
0000
0103
0010
1000
0100
,
0010
0100
1000
0001
0200
0000
0320
0000
,
0230
0000
0320
0000
0130
0001
0010
0100
,
1000
0001
0100
0010
2000
0000
3002
0000
,
2003
0000
3200
0000
0301
0100
1000
0001
,
0100
0010
1000
0001
0020
0000
0130
0010
,
0001
1000
0010
0100
0002
0000
0103
0010
,
1000
0100
0001
0100
2000
0000
3002
0000
,
2003
0000
3020
0000
0130
0001
0010
1000
,
0010
0001
0100
1000
0200
0000
0302
0000
,
2003
0000
3200
0000
0301
0100
1000
0001
,
0100
1000
0100
0001
2000
0000
3200
0000
,
0320
0000
0230
0000
1300
0010
0100
0001
,
0010
0100
1000
0001
1000
0100
0010
0100
,
1000
0100
0010
0100
1000
0001
0100
0010
,
0100
0001
0010
0100
2000
0000
3002
0000
,
2003
0000
3002
0000
0013
0100
1000
0010
,
0100
0010
1000
0001
0020
0000
0230
0000
,
0320
0000
0230
0000
0310
0001
0100
0010
,
1000
0001
0010
0100
2000
0000
3002
0000
,
2003
0000
3020
0000
0031
0010
1000
0001
,
0010
0100
1000
0001
0200
0000
0310
0100
,
0001
1000
0100
0010
0002
0000
0013
0100
,
1000
0010
0001
0010
2000
0000
3002
0000
,
2003
0000
3200
0000
0310
0001
0100
1000
,
0100
0001
0010
1000
0020
0000
0032
0000
,
2003
0000
3020
0000
0031
0010
1000
0001
,
0010
1000
0010
0001
1000
0010
0100
0001
,
0010
0100
0010
0100
1000
0100
0010
0001
0100
0010
0100
0010
1000
0001
1000
0001
,
0010
0000
0000
0100
0000
0000
0010
0000
0000
0100
0000
0000
1000
0000
0000
0001
0000
0000
1000
0000
0000
0001
0000
0000
1000
0000
0100
0000
0010
0000
0012
0000
0000
0000
1003
0000
0001
0000
0000
0000
0100
0000
0110
0000
0000
0000
0010
0000
,
1000
0001
0010
0100
1000
0001
0101
0000
2010
0000
0000
3001
1000
0010
0100
0102
0000
1003
0001
0000
0010
0110
0000
0100
,
1000
0001
0100
0010
1000
0001
0011
0000
2100
0000
0000
3001
1000
0100
0010
2010
0000
3010
0001
0000
0100
0120
0000
0031
,
0010
1000
0001
0010
1000
0001
0100
0000
0210
0000
0000
0310
0001
0100
0010
0012
0000
0013
1000
0000
0100
0120
0000
1030
,
0020
0032
0000
0000
,
0000
0100
0000
0000
,
0000
0203
0000
0000
,
0000
0010
0000
0000
,
0000
0320
0000
0000
,
0000
1000
0000
0000
,
0000
2030
0000
0000
,
0000
0001
0000
0000
,
0000
3002
0000
0000
,
0000
0010
0000
0000
,
0000
0023
0000
0000
,
0000
0100
0000
0000
,
0000
0230
0000
0000
,
0000
1000
0000
0000
,
0000
2300
0000
0000
,
0000
0002
0000
0000
,
3003
0000
1002
0000
1003
0100
0010
0100
,
1000
0001
0100
0010
0100
0001
1000
0100
,
0010
0001
1000
0010
0100
0001
0010
0100
,
0010
0001
1000
0010
0100
0010
1000
0100
,
0010
0100
1000
0001
0100
1000
0100
0001
,
1000
0100
0001
0100
1000
0010
0100
0001
,
0010
1000
0010
0001
0100
0010
0001
0010
,
0100
0001
1000
0100
0010
0100
1000
0001
,
0100
0010
1000
0100
0010
0100
1000
0010
,
0100
0001
0010
0100
1000
0100
0010
0100
,
1000
0001
0100
1000
0100
0001
1000
0100
,
0010
0100
1000
0010
0100
0001
0010
0100
,
0010
0001
0100
0010
1000
0100
0010
0100
,
1000
0001
0100
0010
1000
0100
0010
0001
,
0100
1000
0001
0010
1000
0100
0010
1000
,
0010
0001
0100
0010
1000
0100
0010
0001
,
1000
0000
0010
0000
0100
0001
0010
0100
1000
0000
0001
0100
0010
1000
0100
0000
,
0010
0100
1000
0000
0001
0100
0010
1000
0100
0000
0010
0100
1000
0010
0100
0000
,
0001
0100
0010
0000
1000
0100
0010
0100
1000
0000
0001
0100
0010
1000
0100
0000
,
0001
0000
0000
0100
0000
0000
1000
0000
0000
0000
0000
0000
0001
0000
0000
0100
0000
0000
0010
0000
0000
0000
0000
0000
1000
0000
0100
0000
1000
0000
0100
0000
0000
0000
0000
0000
0020
0000
0000
0000
0000
0000
0000
0000
0000
0000
0000
0000
,
0000
0130
0000
0000
;

//---------------dance-single - ----------------
#NOTES:
     dance-single:
     :
     Medium:
     9:
     0.642,1.000,0.423,0.228,0.053:
0000
0000
0000
0000
,
0000
0000
0000
0000
,
0000
0000
0000
0000
,
0000
0000
0000
0000
,
0000
0000
0000
0000
,
0000
0000
0000
0000
,
2002
0000
0000
3003
,
1000
0001
0010
0001
,
0100
0010
1000
0000
,
0010
1000
0010
0100
,
0001
0010
0100
0000
,
0100
0010
0001
1000
,
0001
0100
0001
0000
,
1000
0001
0010
0100
,
0020
0032
0203
0320
,
1030
0001
0010
0100
,
0010
0001
1000
0100
,
1000
0001
0100
0001
,
0010
0001
0100
0010
,
1000
0100
0010
0100
,
1000
0001
0100
0010
,
1000
0101
0001
1010
,
1000
0010
0100
0001
,
0010
0100
0010
0001
,
0100
0010
1000
0001
,
0010
0001
0100
0010
,
1000
0100
0010
0100
,
1000
0001
0100
0001
,
0010
0100
0010
0001
,
0100
0010
1000
0001
,
0010
0001
0100
0010
,
1000
0100
0010
0100
,
1000
0001
0100
0001
,
0010
0001
0100
0010
,
1000
0100
0010
0001
,
0010
0100
1000
0001
,
0200
0000
0000
0000
,
0310
0000
0000
0110
,
0000
0000
0010
1000
,
0000
0010
0000
0100
,
0010
1000
0001
0010
,
0100
0000
0100
1000
,
0000
0100
0000
1000
,
0010
0000
0000
0000
,
0110
0000
0000
0110
,
0000
0010
1000
0001
,
0000
0001
0000
1000
,
0001
0100
0001
0100
,
0001
0000
0001
0010
,
0000
0100
1000
0010
,
0100
0000
0000
0000
,
0110
0000
0101
0000
,
0001
0100
0010
1000
,
0000
1000
0000
1000
,
0010
0100
0001
1000
,
0001
0000
1000
0100
,
0000
1000
0000
1000
,
0010
0000
0110
0000
,
0110
0000
0010
1000
,
0001
0100
0000
0100
,
0000
0100
0001
0100
,
0010
1000
0100
0000
,
0100
0010
0000
0010
,
0001
0001
0020
0000
,
0000
0000
0031
0100
,
0010
0100
0001
1000
,
0100
0010
0100
1000
,
0001
0100
0001
0010
,
0100
0010
0001
0100
,
0010
1000
0001
0010
,
0001
0000
1000
0000
0100
0000
1000
0100
,
1000
0000
0100
0000
0010
0000
0001
0010
,
0001
0100
0110
0010
,
1000
0001
0010
1000
,
0010
0001
0100
0001
,
0010
0001
0100
1000
,
0100
0001
0010
0001
,
0100
0010
1000
0100
,
0010
0000
0100
0000
1000
0001
1000
0001
,
1000
0000
0001
1000
0001
1000
0001
1000
,
0001
0100
2010
3010
,
1020
1030
1000
0010
,
1000
0001
0021
0031
,
0012
0013
0001
1000
,
0100
0010
0120
0130
,
0210
0310
0010
0001
,
1000
0000
0100
0000
1000
0000
0001
1000
,
0001
0000
0100
0000
0110
0000
0010
1000
,
0100
0010
0021
0031
,
0012
0013
0001
0100
,
0010
1000
1002
1003
,
2001
3001
0001
0100
,
0010
1000
0200
2300
,
3020
0000
0000
0230
0000
0000
0000
0000
0302
0000
0000
0000
0000
0000
0000
0000
,
0013
0000
0000
0000
0011
0101
0011
0101
,
0110
0101
0110
0101
0110
1010
1100
0110
,
0011
0110
1100
1001
0101
1010
0110
1001
,
0101
1010
1100
0110
0011
1001
0101
1010
,
1001
0202
0000
0000
,
0000
0000
0000
0303
,
0000
0001
0000
1000
,
0000
0100
0000
1000
,
0000
0010
0000
0010
,
0000
0100
0000
0100
,
0000
0010
0000
1000
,
0000
0010
0000
0100
,
0000
0001
0000
0001
,
0000
1000
0000
1000
,
0000
0010
0000
0100
,
0000
0001
0000
0100
,
0000
0010
0000
0010
,
0000
0100
0000
0100
,
0000
0010
0000
1000
,
0000
0001
0000
1000
,
0000
1000
0010
0100
,
0001
0010
0001
0100
,
0010
0100
0001
1000
,
0100
0010
0100
1000
,
0010
0100
0001
0010
,
1000
0010
0001
0010
,
1000
0010
0001
0100
,
0010
1000
0100
1000
,
0010
0100
0001
0010
,
0001
0100
0010
1000
,
0100
0010
0100
1000
,
0001
1000
0010
0100
,
0001
0010
0001
0100
,
0010
1000
0100
0010
,
0001
0010
0100
1000
,
0010
0100
0001
1000
,
0100
0000
0000
0000
1000
0000
0001
1000
0001
0000
0100
0000
0010
1000
0100
0000
,
1000
0010
0200
0000
0300
0000
0010
1000
0001
0000
0010
0000
0001
0010
0001
0000
,
0001
0100
0002
0000
0003
0000
1000
0001
0010
0000
0001
0000
0100
0010
1000
0000
,
0001
0010
0100
0000
1000
0100
0000
0010
0001
0000
0001
0200
0000
0000
0000
0000
,
0000
0301
0000
0000
;

//---------------dance-single - ----------------
#NOTES:
     dance-single:
     :
     Easy:
     8:
     0.550,1.000,0.634,0.406,0.000:
0000
0000
0000
0000
,
0000
0000
0000
0000
,
0000
0000
0000
0000
,
0000
0000
0000
0000
,
0000
0000
0000
0000
,
0000
0000
0000
0000
,
2002
0000
0000
3003
,
1002
0000
0103
0000
,
2001
0000
3100
0000
,
1002
0000
0103
0000
,
0001
0010
0100
1000
,
2100
0000
3010
0000
,
2100
0000
3010
0000
,
2010
0000
3001
0000
,
0001
1000
0100
0010
,
0002
0000
0103
0000
,
0120
0000
1030
0000
,
0210
0000
0310
0000
,
0010
1000
0001
0010
,
0210
0000
0310
0000
,
1200
0000
1300
0000
,
1000
0000
0101
0000
0001
0100
0010
0100
,
1001
0000
0000
0000
,
0000
0010
1000
0001
,
0010
0000
0000
0000
,
0000
0010
0100
1000
,
0100
0000
0000
0000
,
0000
0100
1000
0001
,
0100
0000
0000
0000
,
0000
0001
0010
0100
,
0010
0000
0000
0000
,
0000
0010
0100
1000
,
0001
0000
0000
0000
,
0000
0001
0100
0010
,
1000
0000
0000
0000
,
0000
1000
0010
0200
,
0002
0000
0000
0303
,
0101
0000
0000
1100
,
0000
0000
0011
0000
,
0110
0000
0000
1001
,
0000
0000
0101
0000
,
1010
0000
0000
0101
,
0000
0000
1100
0000
,
0011
0000
0000
0000
,
0101
0000
0000
1001
,
0000
0000
1010
0000
,
0110
0000
0000
1001
,
0000
0000
1100
0000
,
0110
0000
0000
0011
,
0000
0000
0110
0000
,
1001
0000
0000
0000
,
0101
0000
0101
0000
,
1010
0000
1010
0000
,
0110
0000
0110
0000
,
1001
0000
1001
0000
,
0101
0000
1010
0000
,
1100
0000
0011
0000
,
1001
0000
0101
0000
,
1010
0000
0110
0000
,
1001
0000
0101
0000
,
1010
0000
1100
0000
,
1000
0100
0110
0000
,
1100
0000
1001
0000
,
1010
0000
0101
0000
,
0000
0000
0001
1000
,
0001
1000
0001
0000
,
0100
0000
0010
0100
,
0010
0100
0010
0000
,
1000
0000
0100
1000
,
0100
1000
0100
0000
,
1000
0000
0020
0000
,
0130
0000
0002
0000
,
0103
0000
0001
1000
,
0001
1000
0001
0000
,
0100
0000
0010
0100
,
0010
0100
0010
0000
,
0100
0000
0001
1000
,
0001
1000
0001
0000
,
0100
0000
0020
0000
,
1030
0000
0020
0000
,
0130
0000
0010
1000
,
0100
0010
0001
0000
,
0011
0000
0001
0010
,
0100
1000
0100
0000
,
1100
0000
1000
0010
,
0100
0001
1000
0000
,
1001
0000
0001
0001
,
1000
0000
0010
0010
,
0100
0000
0010
1000
,
0001
0100
0010
1000
,
0100
0000
0100
1000
,
0010
0100
0001
1000
,
0010
0000
2000
3002
,
0203
0320
2030
3200
,
0320
0000
0032
0000
0013
1100
0010
1100
,
0010
1100
0010
1100
0010
0101
0010
0101
,
0010
0101
0010
0101
0002
0203
2300
3200
,
0302
0023
2030
3020
0032
0023
0032
0203
,
0310
2002
0000
0000
,
0000
0000
0000
3003
,
0000
0001
0000
1000
,
0000
0001
0000
0100
,
0000
0010
0000
0010
,
0000
0100
0000
0100
,
0000
0010
1000
0010
,
0100
0001
0010
0100
,
1000
0100
0000
1000
,
0000
0010
0000
0100
,
0000
0001
0000
0001
,
0000
1000
0000
1000
,
0000
0010
0000
0100
,
0000
0001
0000
0010
,
0000
0100
1000
0010
,
0100
0001
1000
0010
,
0100
0201
0000
0310
,
0000
2010
0000
3100
,
0000
1002
0000
0103
,
0000
0021
0000
0130
,
0000
1200
0000
0310
,
0000
2100
0000
3001
,
0000
0102
0000
0013
,
0000
0120
0000
0130
,
0000
0100
1000
0100
,
0010
0001
0010
0001
,
0010
0001
1000
0001
,
0100
0001
0010
0100
,
0010
0001
1000
0100
,
0010
0100
1000
0001
,
0100
1000
0100
0001
,
0010
1000
0010
0001
,
1000
0000
0100
1000
0010
0000
0100
0001
,
1000
0100
0000
1000
0010
0000
0100
0001
,
0010
1000
0000
1000
1000
0000
1000
0010
,
0001
0100
0010
1000
0100
0010
0002
0000
,
0000
0103
0000
0000
;

//---------------dance-single - ----------------
#NOTES:
     dance-single:
     :
     Beginner:
     4:
     0.190,0.655,0.049,0.000,0.000: // measure 1
0000
0000
0000
0000
,  // measure 2
0000
0000
0000
0000
,  // measure 3
0000
0000
0000
0000
,  // measure 4
0000
0000
0000
0000
,  // measure 5
0000
0000
0000
0000
,  // measure 6
0000
0000
0000
0000
,  // measure 7
0000
0000
0000
0000
,  // measure 8
1000
0000
0000
0000
,  // measure 9
0000
0000
0000
0000
,  // measure 10
0001
0000
0000
0000
,  // measure 11
0000
0000
0000
0000
,  // measure 12
0100
0000
0000
0000
,  // measure 13
0000
0000
0000
0000
,  // measure 14
0010
0000
0000
0000
,  // measure 15
1000
0000
1000
0000
,  // measure 16
1000
0000
0000
0000
,  // measure 17
0000
0000
0000
0000
,  // measure 18
0001
0000
0000
0000
,  // measure 19
0000
0000
0000
0000
,  // measure 20
0010
0000
0000
0000
,  // measure 21
0000
0000
0000
0000
,  // measure 22
0100
0000
1000
0000
,  // measure 23
0110
0000
0000
0000
,  // measure 24
0000
0000
0000
0000
,  // measure 25
0010
0000
0000
0000
,  // measure 26
0000
0000
0000
0000
,  // measure 27
1000
0000
0000
0000
,  // measure 28
0000
0000
0000
0000
,  // measure 29
0001
0000
0000
0000
,  // measure 30
0000
0000
1000
0000
,  // measure 31
1000
0000
0000
0000
,  // measure 32
0000
0000
0001
0000
,  // measure 33
0001
0000
0000
0000
,  // measure 34
0000
0000
0100
0000
,  // measure 35
0100
0000
0000
0000
,  // measure 36
0000
0000
0010
0000
,  // measure 37
0010
0000
0000
0000
,  // measure 38
1000
0000
0000
1000
,  // measure 39
0000
0000
0001
0000
,  // measure 40
0100
0000
0000
0010
,  // measure 41
0000
0000
1000
0000
,  // measure 42
0100
0000
0000
0010
,  // measure 43
0000
0000
0001
0000
,  // measure 44
1001
0000
0000
0000
,  // measure 45
1000
0000
0000
1000
,  // measure 46
0000
0000
1000
0000
,  // measure 47
0001
0000
0000
0001
,  // measure 48
0000
0000
0001
0000
,  // measure 49
0100
0000
0000
0010
,  // measure 50
0000
0000
1000
0000
,  // measure 51
0100
0000
0000
0000
,  // measure 52
1000
0000
0000
0000
,  // measure 53
0001
0000
0000
0000
,  // measure 54
0100
0000
0000
0000
,  // measure 55
0010
0000
0000
0000
,  // measure 56
1000
0000
0000
0000
,  // measure 57
0001
0000
0000
0000
,  // measure 58
0010
0000
0100
0000
,  // measure 59
0000
0000
1000
0000
,  // measure 60
0000
0000
0010
0000
,  // measure 61
0000
0000
0100
0000
,  // measure 62
0000
0000
0001
0000
,  // measure 63
0000
0000
1000
0000
,  // measure 64
0000
0000
0010
0000
,  // measure 65
0000
0000
1000
0000
,  // measure 66
0000
0000
0001
0000
,  // measure 67
0000
0000
1000
0000
,  // measure 68
0000
0000
0010
0000
,  // measure 69
0000
0000
0100
0000
,  // measure 70
0000
0000
0010
0000
,  // measure 71
0000
0000
1000
0000
,  // measure 72
0001
0000
1000
0000
,  // measure 73
0001
0000
1000
0000
,  // measure 74
0000
0000
0001
0000
,  // measure 75
0000
0000
0010
0000
,  // measure 76
0000
0000
0100
0000
,  // measure 77
0000
0000
1000
0000
,  // measure 78
0000
0000
0010
0000
,  // measure 79
0000
0000
0100
0000
,  // measure 80
0001
0000
0100
0000
,  // measure 81
0010
0000
0100
0000
,  // measure 82
0000
0000
0010
0000
,  // measure 83
0000
0000
1000
0000
,  // measure 84
0000
0000
0001
0000
,  // measure 85
0000
0000
1000
0000
,  // measure 86
0000
0000
0001
0000
,  // measure 87
0000
0000
0100
0000
,  // measure 88
0010
0000
1000
0000
,  // measure 89
0100
0000
0010
0000
,  // measure 90
0000
0000
0010
0000
,  // measure 91
0000
0000
0001
0000
,  // measure 92
0000
0000
0010
0000
,  // measure 93
0000
0000
0110
0000
,  // measure 94
0000
0000
0000
0000
,  // measure 95
0000
0000
0100
1000
,  // measure 96
0010
0100
0001
1000
,  // measure 97
0001
0001
1000
1000
0010
0000
0100
0000
,  // measure 98
0001
1000
0100
0010
,  // measure 99
0110
0100
0000
0000
,  // measure 100
0000
0000
0000
0000
,  // measure 101
0000
0000
0000
0000
,  // measure 102
0000
0000
0000
0000
,  // measure 103
0000
0000
0000
0000
,  // measure 104
0000
0000
0000
0000
,  // measure 105
0000
0000
0000
0000
,  // measure 106
0000
0000
0000
0000
,  // measure 107
0000
1000
0000
0000
,  // measure 108
0000
0000
0000
0000
,  // measure 109
0000
0001
0000
0000
,  // measure 110
0000
0000
0000
0000
,  // measure 111
0000
0100
0000
0000
,  // measure 112
0000
0100
0000
0000
,  // measure 113
0000
0010
0000
0000
,  // measure 114
0000
1000
0000
0000
,  // measure 115
0000
0001
0000
0001
,  // measure 116
0000
0001
0000
0001
,  // measure 117
0000
1000
0000
1000
,  // measure 118
0000
1000
0000
1000
,  // measure 119
0000
0010
0000
0010
,  // measure 120
0000
0010
0000
0010
,  // measure 121
0000
0100
0000
0100
,  // measure 122
0000
0100
0000
0100
,  // measure 123
0000
0010
0000
0100
,  // measure 124
0000
0001
0000
1000
,  // measure 125
0000
0001
0000
1000
,  // measure 126
0000
0010
0000
1000
,  // measure 127
0000
0010
0000
1000
,  // measure 128
0000
0100
0000
0010
,  // measure 129
0000
0001
0000
0001
,  // measure 130
0000
0001
0000
0001
,  // measure 131
0000
1001
0000
0100
,  // measure 132
0000
0010
0000
1000
,  // measure 133
0000
0001
0000
1000
,  // measure 134
0000
0100
0010
0001
,  // measure 135
0000
1001
0000
0000
;
