#TITLE:Funky People;
#SUBTITLE:;
#ARTIST:vespers vs myagi;
#TITLETRANSLIT:;
#SUBTITLETRANSLIT:;
#ARTISTTRANSLIT:;
#CREDIT:;
#BANNER:bn.png;
#BACKGROUND:bg.png;
#LYRICSPATH:;
#CDTITLE:;
#MUSIC:Funky People.mp3;
#OFFSET:-0.245;
#SAMPLESTART:29.300;
#SAMPLELENGTH:12.000;
#SELECTABLE:YES;
#BPMS:0.000=132.000;
#STOPS:200.000=3.182
;
#BGCHANGES:0.000=SIMFPBGA.avi=1.000=1=0=1,
99999=-nosongbg-=1.000=0=0=0 // don't automatically add -songbackground-
;

//---------------dance-single - ----------------
#NOTES:
     dance-single:
     :
     Hard:
     7:
     0.376,0.419,0.251,0.217,0.000:
0000
0000
0000
0000
,
0000
0000
0000
0000
,
0000
0000
0000
0000
,
0000
0000
0000
0000
,
0001
0001
0001
0001
,
1000
1000
1000
1000
,
0001
0100
0010
1000
,
2200
0000
0000
3300
,
1000
0001
0100
0001
0000
0010
0000
0100
,
0000
0100
0010
0001
0000
1000
0000
0100
,
0000
1000
0010
0100
0000
0010
0000
0100
,
0000
0001
0010
0100
0000
0100
0010
0001
,
1000
0001
0100
0001
0000
1000
0000
0100
,
0000
1000
0010
0100
0000
0001
0000
0010
,
0000
0100
1000
0010
0000
0100
0000
0010
,
0110
0000
1001
0000
0101
0000
0010
1000
,
1002
0100
1000
0103
,
0001
1000
0100
1000
0000
0010
0000
1000
,
2001
0100
0001
3100
,
0010
1000
0001
0010
0000
0100
0000
1000
,
1002
0010
0100
0013
,
1000
0001
0100
0100
0000
0010
0000
1000
,
2001
0100
0010
3100
,
0011
0110
0200
0310
,
0001
0010
0001
0200
0000
0010
0000
0310
,
0000
0100
0010
2000
0000
0100
0000
3100
,
0000
0100
0010
0002
0000
0010
0000
0013
,
0000
0001
1000
0100
0000
0100
1000
0010
,
0100
0001
0010
0200
0000
0010
0000
0310
,
0100
0010
0001
2000
0000
0001
0000
3001
,
1000
0001
0100
0020
0000
1000
0000
1030
,
0010
0100
0002
0000
0023
0000
0230
0000
,
2300
0010
0010
0010
,
0000
0000
0000
0000
,
0001
0001
0001
0000
,
0000
0000
0000
0000
,
0100
0100
0100
0000
,
0000
0000
0000
0000
,
0010
0010
0010
0000
,
0000
0000
0000
3000
,
0201
0000
0310
0000
0010
1000
0001
0000
,
0021
0000
0130
0000
1000
0100
0001
0100
,
1200
0000
0310
0000
0001
0100
0010
0000
,
0201
0000
0310
0000
0100
0100
0010
1000
,
1002
0000
0100
0000
1000
1000
1003
0000
,
2001
0000
3100
0000
1000
0100
0010
0100
,
2100
0000
3010
0000
0100
0010
1000
0000
,
0102
0000
0013
0000
0001
0010
1000
0010
,
0001
1000
0001
1000
0001
1000
0001
1000
,
0001
1000
0001
1000
0001
1000
0001
1000
,
0001
0000
0010
1000
0100
1000
0000
1010
,
0000
1010
0000
0010
0100
0001
0000
0011
,
0000
0011
0000
0001
1000
0100
0000
1100
,
0000
0011
0000
0001
0010
0001
0000
0001
,
0100
0001
0000
0001
1000
0100
0000
1100
,
0000
0011
0000
0010
0100
1000
0000
1100
,
0000
0011
0000
0001
0100
0010
0000
1010
,
0000
0101
0001
1000
0100
1000
0010
1000
,
0100
0001
0200
0000
0000
0000
0000
0000
,
0300
0000
0000
0000
;

//---------------dance-single - ----------------
#NOTES:
     dance-single:
     :
     Medium:
     5:
     0.270,0.345,0.201,0.134,0.000:
0000
0000
0000
0000
,
0000
0000
0000
0000
,
0000
0000
0000
0000
,
0000
0000
0000
0000
,
0200
0000
0000
0000
,
0300
0000
0000
0000
0000
0000
0010
1000
,
0010
0000
0000
0000
,
0202
0000
0000
0303
,
1000
0000
0001
0000
0010
0000
0100
1000
,
0010
0000
0100
0000
0010
0000
0100
0001
,
0010
0000
0100
0000
0010
0000
0001
0100
,
0010
0000
1000
0000
0001
0010
0001
0100
,
0001
0000
1000
0000
0100
1000
0010
0000
,
0100
0000
0010
0000
1000
0100
1000
0000
,
0001
0000
0100
0000
0001
0010
0001
0000
,
0011
1100
0200
0310
,
0100
1000
0010
0100
0001
1000
0000
0000
,
0000
0000
0000
0000
,
1000
0001
0100
0001
0100
0000
0000
0000
,
0000
0000
0000
0000
,
0100
0010
1000
0001
0010
0100
0000
0000
,
0000
0000
0000
0000
,
0100
0010
0001
0010
0100
1000
0010
0000
,
1010
1010
0020
0030
,
0100
0001
1000
0001
,
0100
0010
1000
0100
,
0010
0100
1000
0001
,
0100
0000
0001
0000
1000
0000
0001
0010
,
0100
0010
0001
0100
,
0010
1000
0001
0100
,
0001
1000
0010
0100
,
0002
0203
0320
2030
,
3200
0000
0000
0000
,
0300
0000
0000
0000
,
0020
0000
0000
0000
,
0031
0000
0010
0000
0001
0010
0011
0000
,
0002
0000
0000
0003
,
0000
0000
0000
0000
,
0200
0000
0000
0300
,
0010
0000
0010
0000
0010
0010
0010
0000
,
0100
0000
0010
0000
0100
0010
0100
0000
,
0010
0000
1000
0000
0001
1000
0001
0000
,
1000
0000
0100
0000
0010
0001
0010
0000
,
0001
0110
0001
0110
,
0100
0000
1001
0000
0001
0100
0010
0000
,
0100
0000
0101
0000
0001
0100
0010
0000
,
1000
0000
1100
0000
0100
1000
0010
0000
,
0100
0010
1000
0001
,
2002
0000
0000
0000
,
0000
0000
0000
0000
,
3003
0000
0001
0000
1000
0000
0000
1001
,
0000
0110
0000
0000
0010
0000
0000
0101
,
0000
1010
0000
0000
0100
0000
0000
1100
,
0000
0110
0000
0000
0010
0000
0000
0010
,
0001
0010
0000
0000
0001
0000
0000
0011
,
0000
1100
0000
0000
0100
0000
0000
0110
,
0000
0011
0000
0000
0001
0000
0000
0101
,
0000
1010
0000
0000
1000
0000
0001
0000
,
0100
0001
0020
0000
0000
0000
0000
0000
,
0030
0000
0000
0000
;

//---------------dance-single - ----------------
#NOTES:
     dance-single:
     :
     Easy:
     3:
     0.232,0.296,0.142,0.201,0.000:
0000
0000
0000
0000
,
0000
0000
0000
0000
,
0000
0000
0000
0000
,
0000
0000
0000
0000
,
0002
0000
0000
0000
,
0003
0000
0000
0000
,
1000
0000
0000
0000
,
0110
0000
0000
0000
,
0010
0000
1000
0000
,
0001
0000
1000
0000
,
0100
0000
1000
0000
,
0010
0000
0100
0000
,
0001
1000
0200
0300
,
1000
0001
0200
0300
,
0001
1000
0020
0030
,
0100
0100
0100
0110
,
0102
0100
0200
0303
,
0000
0000
0000
0000
,
2100
0100
0200
3300
,
0000
0000
0000
0000
,
2001
0001
0002
3003
,
0000
0000
0000
0000
,
0210
0010
0020
0330
,
0010
0010
0200
0301
,
1000
0001
0100
0100
,
0001
1000
0100
0100
,
1000
0001
0100
0100
,
0001
1000
0100
0010
,
0001
1000
0010
0010
,
1000
0001
0010
0010
,
0001
1000
0010
0010
,
2000
0000
0020
3030
,
0120
0100
0200
0330
,
0000
0000
0000
0000
,
0001
0001
0002
0003
,
0001
0000
1010
0000
0010
1000
0100
0000
,
2200
0000
0000
3300
,
0000
0000
0000
0000
,
0002
0000
0000
0003
,
1000
0001
0100
0100
,
0001
0011
0001
0010
,
0100
0110
0100
1000
,
0010
0110
0010
1000
,
0001
0101
0001
0101
,
0001
0100
0010
1000
,
0100
1100
1000
0010
,
0100
0110
0010
1000
,
0001
0010
0100
1000
,
0220
0000
0000
0000
,
0000
0000
0000
0000
,
0330
1000
0001
0100
,
0100
0001
1000
0100
,
0100
1000
0001
0010
,
0010
0001
1000
0010
,
0010
0100
0001
0010
,
1000
0010
0001
0100
,
0001
0100
1000
0100
,
0010
0100
0010
1000
,
0001
0020
0000
0000
,
0030
0000
0000
0000
;

//---------------dance-single - ----------------
#NOTES:
     dance-single:
     :
     Beginner:
     1:
     0.065,0.122,0.033,0.008,0.000: // measure 1
0000
0000
0000
0000
,  // measure 2
0000
0000
0000
0000
,  // measure 3
0000
0000
0000
0000
,  // measure 4
0000
0000
0000
0000
,  // measure 5
0001
0000
0000
0000
,  // measure 6
0000
0000
0000
0000
,  // measure 7
1000
0000
0000
0000
,  // measure 8
0110
0000
0000
0000
,  // measure 9
1000
0000
0000
0000
,  // measure 10
1000
0000
0000
0000
,  // measure 11
1000
0000
0000
0000
,  // measure 12
1000
0000
0000
0000
,  // measure 13
0001
0000
0000
0000
,  // measure 14
0001
0000
0000
0000
,  // measure 15
0001
0000
0000
0000
,  // measure 16
0001
0000
1000
0000
,  // measure 17
0110
0000
0000
0000
,  // measure 18
0000
0000
0000
0000
,  // measure 19
0100
0000
0000
0000
,  // measure 20
0000
0000
0000
0000
,  // measure 21
0010
0000
0000
0000
,  // measure 22
0000
0000
0000
0000
,  // measure 23
1000
0000
0000
0000
,  // measure 24
0001
0000
1000
0000
,  // measure 25
0010
0000
0000
0000
,  // measure 26
0010
0000
0000
0000
,  // measure 27
0010
0000
0000
0000
,  // measure 28
0010
0000
0000
0000
,  // measure 29
0100
0000
0000
0000
,  // measure 30
0100
0000
0000
0000
,  // measure 31
0100
0000
0000
0000
,  // measure 32
0100
0000
0000
0000
,  // measure 33
1001
0000
0000
0000
,  // measure 34
0000
0000
0000
0000
,  // measure 35
0001
0000
0000
0000
,  // measure 36
0000
0000
0000
0000
,  // measure 37
1000
0000
0000
0000
,  // measure 38
0000
0000
0000
0000
,  // measure 39
0100
0000
0000
0000
,  // measure 40
0000
0000
0000
0000
,  // measure 41
1000
0000
0000
0000
,  // measure 42
0010
0000
0000
0000
,  // measure 43
1000
0000
0000
0000
,  // measure 44
1000
0000
0000
0000
,  // measure 45
0001
0000
0000
0000
,  // measure 46
0001
0000
0000
0000
,  // measure 47
0100
0000
0000
0000
,  // measure 48
0001
0000
0000
0000
,  // measure 49
2000
0000
0000
0000
,  // measure 50
3000
0000
0000
0000
,  // measure 51
0000
0010
0000
0000
,  // measure 52
0000
0100
0000
0000
,  // measure 53
0000
0001
0000
0000
,  // measure 54
0000
1000
0000
0000
,  // measure 55
1000
1000
0000
0000
,  // measure 56
0000
0010
0000
0000
,  // measure 57
0000
0100
0000
0000
,  // measure 58
0000
0001
0000
0000
,  // measure 59
0000
1001
0000
0000
;
