#TITLE:Exactly;
#SUBTITLE:;
#ARTIST:John O-Callaghan & Bryan Kearney;
#TITLETRANSLIT:;
#SUBTITLETRANSLIT:;
#ARTISTTRANSLIT:;
#CREDIT:;
#BANNER:exctbn.png;
#BACKGROUND:exct.png;
#LYRICSPATH:;
#CDTITLE:;
#MUSIC:Exactly.mp3;
#OFFSET:-0.049;
#SAMPLESTART:81.160;
#SAMPLELENGTH:12.000;
#SELECTABLE:YES;
#BPMS:0.000=142.000;
#STOPS:;
#BGCHANGES:;

//---------------dance-single - ----------------
#NOTES:
     dance-single:
     :
     Hard:
     8:
     0.436,0.492,0.061,0.044,0.312:
0000
0000
0000
0000
,
0000
0000
0000
0000
,
0000
0000
0000
0000
,
0000
0000
0000
0000
,
0000
0000
0000
0000
,
0000
0000
0000
0000
,
0000
0000
0000
0000
,
0000
0000
0000
0000
,
0010
0000
1000
0000
0001
0010
0000
0100
,
0000
0000
0010
0000
0000
0010
0000
0000
0001
0000
1000
0000
0000
0000
0100
0000
,
0000
0000
1000
0000
0000
1000
0000
0000
0001
0000
0100
0000
0000
0000
0010
0000
,
0000
0000
0100
0000
0000
0100
0000
0000
0010
0000
1000
0000
0000
0000
0001
0000
,
1000
0000
0100
0000
0000
0100
0000
0000
0100
0000
1000
0000
0000
0000
0010
0000
,
0000
0000
0100
0000
0000
0010
0000
0000
1000
0000
0001
0000
0000
0000
0010
0000
,
0100
0100
0010
0002
0000
0023
0000
0230
,
0000
2300
0000
3001
0100
0000
0000
0010
,
1001
1000
0000
0100
0000
0001
0000
0100
,
0000
1000
0000
0010
0000
0001
0000
0010
,
0000
1000
0000
1000
0000
0001
0000
0001
,
0000
0010
0000
0010
0000
0100
0000
0100
,
1000
0100
0000
0010
0000
0001
0000
0100
,
0010
1000
0000
0001
0000
0010
0000
0001
,
0100
0001
0000
0010
0000
0010
0000
0100
,
1000
0100
0000
0010
0001
0010
0000
0001
,
0100
0010
0000
0010
0000
0100
0010
1000
,
0001
0010
0000
0010
0000
0010
0001
0010
,
0100
0010
0000
0100
0000
0100
1000
0010
,
0100
0010
0000
0110
0000
0100
0000
1001
,
1000
0001
0010
0001
0000
0100
0000
0010
,
1000
0001
0010
0100
0000
0100
0000
0100
,
1000
0010
0000
0010
0000
0110
0000
0110
,
0000
0010
0000
1000
0000
1001
0000
0101
,
0001
0100
0001
0100
,
0001
0100
0001
0100
,
0001
1000
0001
1000
,
0001
0010
0001
0010
,
0100
0010
0100
0010
,
0100
0010
0100
0010
,
0100
1000
0100
1000
,
0010
0100
0001
1000
,
0100
0000
0100
0000
0010
0001
0010
0000
,
0001
0100
0001
0000
0010
1000
0010
0000
,
1000
0001
0100
0000
0001
1000
0100
0000
,
1000
0001
0100
0000
0001
1000
0100
0000
,
1000
0100
1000
0000
0010
0001
0010
0000
,
0001
0100
0001
0000
0010
1000
0010
0000
,
1000
0010
0001
0000
0001
0010
1000
0000
,
0001
0000
1000
0000
0001
0000
1000
0000
0001
1000
0001
1000
0001
0000
0100
0000
,
0010
0000
0100
0010
0000
0000
0100
0010
0000
0000
0100
0010
0000
0000
0100
0010
,
0000
0000
0100
0001
0000
0000
0100
0001
0000
0000
0100
0001
0000
0000
0100
0001
,
0000
0000
0100
0010
0000
0000
0100
0010
0000
0000
0100
0010
0000
0000
0100
0010
,
0000
0000
0100
0001
0000
0000
0010
1000
0000
0000
1000
0100
0000
0000
0010
0001
,
0000
0000
0001
0100
0000
0000
0001
0100
0000
0000
0001
0100
0000
0000
0001
0100
,
0000
0000
0010
1000
0000
0000
0010
1000
0000
0000
0010
1000
0000
0000
0010
1000
,
0000
0000
0001
0100
0000
0000
0010
1000
0000
0000
0001
0100
0000
0000
0010
1000
,
0000
0000
0001
0100
0000
0000
0010
1000
0000
0000
0001
0100
0000
0000
0010
1000
,
0000
0000
1000
0100
0000
0000
1000
0100
0000
0000
1000
0100
0000
0000
1000
0100
,
0000
0000
0010
0001
0000
0000
0010
0001
0000
0000
0010
0001
0000
0000
0010
0001
,
0000
0000
1000
0100
0000
0000
1000
0100
0000
0000
0010
0001
0000
0000
0010
0001
,
0000
0000
1000
0100
0000
0000
0010
0001
0000
0000
1000
0100
0000
0000
0010
0001
,
0000
0000
0100
0001
0000
0000
0010
1000
0000
0000
0001
0100
0000
0000
0010
1000
,
0000
0000
0010
0100
0000
0000
0001
1000
0000
0000
0010
0100
0000
0000
0001
1000
,
0000
0000
0001
0100
0000
0000
1000
0010
0000
0000
0010
1000
0000
0000
0010
0100
,
0000
0000
0001
0100
0000
0000
0010
1000
0000
0000
0001
0100
0000
0000
0010
1000
,
0200
0000
0000
0000
,
0000
0000
0000
0000
,
0300
0000
0000
0000
;

//---------------dance-single - ----------------
#NOTES:
     dance-single:
     :
     Medium:
     5:
     0.287,0.456,0.272,0.088,0.000:
0000
0000
0000
0000
,
0000
0000
0000
0000
,
0000
0000
0000
0000
,
0000
0000
0000
0000
,
0000
0000
0000
0000
,
0000
0000
0000
0000
,
0000
0000
0000
0000
,
0000
0000
0000
0000
0000
0000
0000
1000
,
0001
1000
0001
1000
0001
1000
0001
1000
,
0000
0001
0000
0000
1000
1000
0000
0001
,
0000
0100
0000
0000
0010
1000
0000
0010
,
0000
0100
0000
0000
0010
1000
0000
0100
,
1000
0000
0010
0000
0100
0010
0000
1000
,
0000
0001
0000
0000
1000
0001
0000
0100
,
0002
0000
0000
0000
,
0003
0000
0000
0000
,
2000
0000
0000
0000
,
3020
0000
0000
0000
,
0230
0000
0000
0000
,
0302
0000
0000
0000
,
2003
0000
0000
0000
,
3200
0000
0000
0000
,
2300
0000
0000
0000
,
3020
0000
0000
0000
,
0130
0001
0000
1000
,
0000
0001
0000
0010
,
0000
0100
0000
1000
,
0000
0010
0000
0100
,
0000
0001
0000
1000
,
0000
0010
0000
0100
,
0000
0001
0000
1000
,
0000
0001
0000
0100
,
0010
0100
0010
1000
,
0001
0010
0100
1000
,
0100
1000
0010
0100
,
0001
0001
1000
1000
,
0001
0100
0010
1000
,
0100
0010
0001
0010
,
0001
0100
0010
1000
,
0010
0100
0010
1000
,
0001
0001
1000
1000
,
0010
0010
0100
0100
,
0010
0100
0010
0100
,
0010
0001
0100
0010
,
1000
0001
1000
0001
,
1000
0001
1000
0001
,
0100
0010
1000
0010
,
0100
0000
0001
0000
0100
0001
0100
0001
,
0100
0001
0000
0100
0000
0010
0000
1000
,
0000
0010
0000
0100
0000
0010
0000
1000
,
0000
1001
0000
1001
0000
0110
0000
0110
,
0000
1001
0000
0110
0000
1001
0000
0110
,
0000
0100
0000
0100
0000
0010
0000
0010
,
0000
1000
0000
1000
0000
0001
0000
0001
,
0000
0101
0000
0101
0000
1010
0000
1010
,
0000
0101
0000
0101
0000
1010
0000
1010
,
0000
0010
0000
1000
0000
0100
0000
0010
,
0000
0100
0000
1000
0000
0001
0000
0100
,
0000
0101
0000
0101
0000
0011
0000
0011
,
0000
0101
0000
0101
0000
0011
0000
0011
,
0000
0010
0000
0100
0000
1000
0000
0100
,
0000
1000
0000
0010
0000
0100
0000
0001
,
0000
0101
0000
1010
0000
0110
0000
1001
,
0000
0101
0000
1010
0000
1100
0000
0100
,
2000
0000
0000
0000
,
3000
0000
0000
0000
;

//---------------dance-single - ----------------
#NOTES:
     dance-single:
     :
     Easy:
     3:
     0.189,0.399,0.035,0.351,0.000:
0000
0000
0000
0000
,
0000
0000
0000
0000
,
0000
0000
0000
0000
,
0000
0000
0000
0000
,
0000
0000
0000
0000
,
0000
0000
0000
0000
,
0000
0000
0000
0000
,
0000
0000
0000
0000
,
0100
0010
1000
0000
,
1000
0001
0100
0000
,
0001
0001
0010
0000
,
0001
1000
0100
0000
,
1000
1000
0100
0000
,
1000
0010
0100
0000
,
0020
0000
0000
0000
,
0030
0000
0100
0000
,
2002
0000
0000
3003
,
1000
0000
1000
0000
,
0002
0000
0000
0003
,
0100
0000
0010
0000
,
2000
0000
0000
3000
,
0100
0000
0010
0000
,
0200
0000
0000
0300
,
0010
0000
0001
0000
,
0200
0000
0000
0000
,
0310
0000
1000
0000
,
0200
0000
0000
0000
,
2000
0000
0000
3300
,
0200
0000
0000
0000
,
0310
0000
0001
0000
,
0200
0000
0000
0000
,
0020
0000
0000
0330
,
0020
0000
0000
0000
,
0000
0000
0000
0030
,
2000
0000
0000
0000
,
0002
0000
0000
3003
,
0200
0000
0000
0000
,
0000
0000
0000
0000
,
0320
0000
0000
0000
,
0002
0000
0000
0033
,
0000
0001
0000
0100
,
0000
1000
0000
0100
,
0000
0010
0000
1000
,
0000
0001
0000
1000
,
0000
0100
0000
1000
,
0000
0010
0000
0100
,
0010
0000
0010
0000
,
0010
0100
0110
0110
,
0020
0000
0000
0000
,
2030
0000
0000
0000
,
3002
0000
0000
0000
,
0023
0000
0000
0000
,
0230
0000
0000
0000
,
0320
0000
0000
0000
,
0032
0000
0000
0000
,
2003
0000
0000
0000
,
3020
0100
0100
0100
,
0230
0010
0010
0010
,
0320
0130
0200
0310
,
0020
0130
0200
0310
,
2000
0001
0001
3001
,
0002
0000
1000
0000
1000
0000
1000
0003
,
2000
3001
0002
1003
,
2000
3001
0002
1003
,
0220
0000
0000
0000
,
0330
0000
0000
0000
;

//---------------dance-single - ----------------
#NOTES:
     dance-single:
     :
     Challenge:
     9:
     0.542,0.685,0.114,0.097,0.219:
0000
0000
0000
0000
,
0000
0000
0000
0000
,
0000
0000
0000
0000
,
0000
0000
0000
0000
,
0000
0000
0000
0000
,
0000
0000
0000
0000
,
0000
0000
0000
0000
,
0000
0000
0000
0000
0000
0000
0000
0001
,
0100
1000
0100
0010
1000
0100
0010
0001
,
0000
0000
0001
0000
0000
1000
0000
0010
0100
0000
0001
0000
0000
0000
1000
0000
,
0000
0000
0010
0000
0000
0100
0000
0001
1000
0000
0100
0000
0000
0000
0010
0000
,
0000
0000
0100
0000
0000
0010
0000
0001
0010
0000
0001
0000
0000
0000
0100
0000
,
0010
1000
0001
0010
0100
0010
0001
1000
,
0000
0000
1000
0000
0000
0001
0000
0001
0010
0000
0100
0000
0000
0000
1000
0000
,
0100
0001
0100
0020
0000
1000
0000
0001
,
0000
0000
1000
0000
0030
0000
0001
0000
0010
0000
0100
1000
0010
0000
0100
0000
,
0101
0001
0100
0010
0000
0001
0100
0010
,
0000
0010
1000
0100
0000
0100
1000
0010
,
0000
0100
0010
0100
0000
0001
0100
0010
,
0000
0010
1000
0100
0000
0100
1000
0010
,
0100
0001
1000
0001
0000
0001
0100
0001
,
0000
0001
0010
0001
0000
0001
0100
0001
,
0000
0001
1000
0001
0000
1000
0100
1000
,
0000
0100
1000
0010
0000
0010
0100
0001
,
1000
0000
1000
0100
0000
0010
0001
0000
0000
0000
0001
0100
0000
0010
1000
0000
,
0000
0000
1000
0010
0000
0100
0001
0000
0000
0000
0001
1000
0000
1000
0100
0000
,
0000
0000
0100
0010
0000
0010
0001
0000
0000
0000
0001
1000
0000
1000
0010
0000
,
0000
0000
0100
0010
0000
0010
1000
0000
0000
0000
1000
0010
0000
0100
0010
0000
,
0100
0000
0010
1000
0000
1000
0100
0000
0000
0000
1000
0001
0000
0001
1000
0000
,
0000
0000
0001
0100
0000
0100
0010
0000
0000
0000
0100
0010
0000
0010
1000
0000
,
0000
0000
1000
0100
0000
0010
0001
0000
0000
0000
0001
0100
0000
0100
0010
0000
,
0000
0000
0100
0001
0000
0001
0010
0000
0000
0000
0010
0100
0000
0000
0100
1000
,
0200
0000
1300
0000
0100
1000
0010
0001
,
0020
0000
0130
0000
0010
1000
0001
0010
,
0200
0000
0310
0000
0010
0001
1000
0100
,
0020
0000
0130
0000
0100
1000
0010
0100
,
0002
0000
0013
0000
0001
0100
1000
0100
,
0020
0000
0130
0000
0010
1000
0100
0001
,
0200
0000
0301
0000
0001
0100
1000
0010
,
0200
0000
0310
0000
0010
1000
0001
0010
,
0001
0010
0011
0000
0010
0100
1100
0000
,
1000
0001
0101
0000
0001
0100
0110
0000
,
0010
1000
1100
0000
1000
0001
0101
0000
,
0001
1000
0110
0000
0010
0100
1001
0000
,
0001
0100
0010
1000
0100
0010
0011
0000
,
0001
0100
1000
0100
0001
0010
0011
0000
,
0001
0100
0000
0010
1000
0000
0100
0000
1000
0010
0000
0100
0001
0000
1000
0000
,
0001
0100
0010
0000
1000
0100
0010
0000
0001
0100
1000
0100
0010
0000
1010
0000
,
0010
0100
0010
0100
0010
0100
0010
0100
,
0001
1000
0001
1000
0001
1000
0001
1000
,
0010
0100
0010
0100
0001
1000
0001
1000
,
0010
0100
0010
0100
0001
1000
0001
1000
,
0001
0100
0001
0100
0001
0100
0001
0100
,
1000
0100
1000
0100
1000
0100
1000
0100
,
0001
0100
0001
0100
1000
0100
1000
0100
,
0001
0100
0001
0100
1000
0100
1000
0100
,
0010
0100
0010
0100
0010
0100
0010
0100
,
0001
1000
0001
1000
0001
1000
0001
1000
,
0010
0100
0010
0100
0001
1000
0001
1000
,
0010
0100
0010
0100
0001
1000
0001
1000
,
0100
1000
0100
1000
0100
1000
0100
1000
,
0100
0001
0100
0001
0100
0001
0100
0001
,
0100
1000
0100
1000
0100
0001
0100
0001
,
0100
0000
1000
0000
0100
0000
1000
0000
0001
0000
0100
0000
0001
0000
0100
0010
,
0220
0000
0000
0000
,
0330
0000
0000
0000
;

//---------------dance-single - ----------------
#NOTES:
     dance-single:
     :
     Beginner:
     1:
     0.069,0.225,0.044,0.000,0.000: // measure 1
0000
0000
0000
0000
,  // measure 2
0000
0000
0000
0000
,  // measure 3
0000
0000
0000
0000
,  // measure 4
0000
0000
0000
0000
,  // measure 5
0000
0000
0000
0000
,  // measure 6
0000
0000
0000
0000
,  // measure 7
0000
0000
0000
0000
,  // measure 8
0000
0000
0000
0000
,  // measure 9
0010
0000
0000
0000
,  // measure 10
0000
0000
0000
0000
,  // measure 11
0100
0000
0000
0000
,  // measure 12
0000
0000
0000
0000
,  // measure 13
0001
0000
0000
0000
,  // measure 14
0000
0000
0000
0000
,  // measure 15
1000
0000
0000
0000
,  // measure 16
0000
0000
0001
0000
,  // measure 17
1001
0000
0000
0000
,  // measure 18
0000
0000
0000
0000
,  // measure 19
0100
0000
0000
0000
,  // measure 20
0010
0000
0000
0000
,  // measure 21
1000
0000
0000
0000
,  // measure 22
0000
0000
0000
0000
,  // measure 23
1000
0000
0000
0000
,  // measure 24
0001
0000
0000
0000
,  // measure 25
0010
0000
0000
0000
,  // measure 26
0000
0000
0000
0000
,  // measure 27
0010
0000
0000
0000
,  // measure 28
0100
0000
0000
0000
,  // measure 29
1000
0000
0000
0000
,  // measure 30
0000
0000
0000
0000
,  // measure 31
0001
0000
0000
0000
,  // measure 32
0100
0000
0000
0000
,  // measure 33
0110
0000
0000
0000
,  // measure 34
0000
0000
0000
0000
,  // measure 35
0010
0000
0000
0000
,  // measure 36
0000
0000
0000
0000
,  // measure 37
1000
0000
0000
0000
,  // measure 38
0000
0000
0000
0000
,  // measure 39
0001
0000
0000
0000
,  // measure 40
0000
0000
0000
0000
,  // measure 41
0010
0000
0000
0000
,  // measure 42
0100
0000
0000
0000
,  // measure 43
1000
0000
0000
0000
,  // measure 44
0001
0000
0000
0000
,  // measure 45
0110
0000
0000
0000
,  // measure 46
0010
0000
0000
0000
,  // measure 47
1000
0000
0001
0000
,  // measure 48
1000
0001
1000
0001
,  // measure 49
1001
0000
0000
0000
,  // measure 50
0100
0000
0000
0000
,  // measure 51
0010
0000
0000
0000
,  // measure 52
0100
0000
0000
0000
,  // measure 53
0001
0000
0000
0000
,  // measure 54
1000
0000
0000
0000
,  // measure 55
1000
0000
0000
0000
,  // measure 56
0010
0000
0000
0000
,  // measure 57
0100
0000
0000
0000
,  // measure 58
0100
0000
0000
0000
,  // measure 59
0001
0000
0000
0000
,  // measure 60
1000
0000
0000
0000
,  // measure 61
0010
0000
0000
0000
,  // measure 62
0010
0000
0000
0000
,  // measure 63
0100
0000
0000
0000
,  // measure 64
0001
0000
0000
0000
,  // measure 65
1001
0000
0000
0000
;
