#TITLE:Bandito;
#SUBTITLE:;
#ARTIST:Remorse Code;
#TITLETRANSLIT:;
#SUBTITLETRANSLIT:;
#ARTISTTRANSLIT:;
#CREDIT:;
#BANNER:bn.png;
#BACKGROUND:bg.png;
#LYRICSPATH:;
#CDTITLE:;
#MUSIC:Bandito.ogg;
#OFFSET:0.000;
#SAMPLESTART:12.800;
#SAMPLELENGTH:12.000;
#SELECTABLE:YES;
#BPMS:0.000=150.000;
#STOPS:158.000=0.200
,158.500=0.200
,172.000=0.800
;
#BGCHANGES:;

//---------------dance-single - ----------------
#NOTES:
     dance-single:
     :
     Hard:
     8:
     0.501,0.509,0.095,0.028,0.047:
0000
0000
0000
0000
,
0000
0000
0000
0000
,
0000
0000
0000
0000
,
0000
0000
0000
0000
,
0100
0010
1000
1000
,
0001
0010
0001
0001
,
0100
0010
1000
1000
,
0001
0000
1000
0000
1001
0010
1001
0010
,
0101
0001
0010
0100
0000
0010
0001
1000
,
0100
0010
0100
1000
0000
0001
0100
0010
,
0100
0001
1000
0100
0000
1000
0001
0010
,
0100
0000
0010
0000
0001
0000
1000
0000
0010
1000
0000
1000
0001
0000
0010
0000
,
0001
1000
0100
0010
0000
0010
0001
0100
,
0001
0010
0100
0010
0000
0010
0001
0100
,
0010
0010
1000
0100
0000
0100
1000
0001
,
0010
0001
0100
0001
2000
0000
3020
0000
,
0130
0000
0010
1000
0000
0100
1000
0001
,
0010
0000
0001
1000
0000
0100
1000
0010
,
0100
0000
0001
0010
0000
0001
1000
0100
,
1000
0000
1000
0000
0000
0000
0001
0100
0001
0000
0001
0010
0001
0000
0010
0000
,
0100
0000
0010
0001
0000
0001
0100
0010
,
1000
0000
0001
0100
0000
0001
1000
0100
,
0010
0000
0100
1000
0000
1000
0001
0100
,
0001
1000
0001
0010
0000
0100
0010
0000
,
0001
0000
0000
0100
0100
0000
0000
0010
,
1000
0001
0010
1000
0010
0000
0000
0000
,
0100
0000
0000
0100
1000
0000
0000
1000
,
0010
0001
0010
0001
0011
0010
0110
0000
,
0100
0000
0000
0100
0010
0000
0000
1000
,
0001
0010
0001
0100
1000
0000
0000
0000
,
1000
0000
0000
0100
0001
0010
0000
0100
,
1000
0010
0100
1000
0100
0010
1000
0000
,
0001
0001
0010
0100
0000
0100
1000
0010
,
0100
0100
0010
1000
0000
0001
1000
0001
,
0010
0010
0001
0100
0000
0010
1000
0001
,
0010
0000
0010
0000
0100
0000
1000
0010
0000
0100
0000
0010
1000
0000
0001
0000
,
1000
1000
0010
0100
0000
0010
1000
0001
,
0100
0100
0010
0001
0000
0001
0010
1000
,
0001
0001
0100
0010
0000
0010
0100
1000
,
0100
0100
0010
1000
0100
1001
0001
0010
,
0001
0100
0000
0100
0010
0100
0001
0001
,
0100
0010
0000
0010
0001
0001
0010
1000
,
0010
0010
0000
0100
0010
0010
1000
0010
,
1000
0000
0001
0001
0100
0010
0000
0100
,
1000
0100
0010
0010
1000
0100
0000
0100
,
0010
0001
0100
0100
1000
0100
0000
0010
,
1000
0000
0001
0000
0010
0000
0001
0000
0100
0000
0010
1000
0000
0001
0000
1000
,
0100
0010
1100
0000
0000
1000
0010
0001
,
0000
0001
0010
1000
0010
0001
0010
0100
,
0010
0000
0101
0000
0000
1000
0001
0100
,
0000
0010
1000
0010
0001
0010
0001
0001
,
0001
0000
0110
0000
0000
0010
1000
0100
,
0000
0100
0010
0100
1000
0100
1000
0100
,
0001
0000
0110
0000
0000
0100
1000
0010
,
0000
0010
0100
0001
0100
1000
0100
0100
,
0100
0010
0100
0001
,
1000
0100
0001
0100
,
1000
0010
0001
0010
,
1000
0000
0100
1000
0010
0100
0001
0010
,
0001
0001
0000
1000
,
0000
0010
0010
0010
,
0000
0100
0000
0001
,
0000
0000
1000
0000
0001
0000
0010
0100
,
0002
0003
0000
0000
;

//---------------dance-single - ----------------
#NOTES:
     dance-single:
     :
     Medium:
     6:
     0.361,0.389,0.170,0.019,0.009:
0000
0000
0000
0000
,
0000
0000
0000
0000
,
0000
0000
0000
0000
,
0000
0000
0000
0000
,
0001
1000
0001
0001
,
1000
0100
0010
0010
,
0100
1000
0001
0001
,
0010
0000
0100
0000
0100
1000
0010
0100
,
0001
0000
0000
1001
0000
0001
1000
0100
,
0100
0000
0000
1100
0000
1000
0001
0010
,
0001
0000
0000
0011
0000
0001
0100
0010
,
0100
0100
0100
0000
0000
0000
0000
0000
,
0010
0000
0000
1001
0000
0001
1000
0001
,
1000
0000
0000
0011
0000
0001
0100
0010
,
0100
0000
0000
1010
0000
1000
0010
0100
,
0001
0000
0000
1000
0001
0000
2000
0000
,
3010
0000
1000
0000
0010
1000
0010
0000
,
1000
0000
0001
0000
0010
0001
0010
0000
,
0001
0000
0100
0000
0010
0100
0010
0000
,
0100
0000
0010
0000
0100
0010
1000
0001
,
0010
0000
0100
0000
1000
0100
1000
0000
,
0100
0000
1000
0000
0010
1000
0010
0000
,
0100
0000
0001
0000
1000
0001
0010
0000
,
0100
0000
1000
0000
0100
1000
0010
0000
,
0100
0000
0010
0000
,
0100
0010
1000
0000
,
0001
0000
1000
0000
,
0001
0000
1000
0000
0001
0001
0001
0000
,
0100
0000
0010
0000
,
0100
0010
1000
0000
,
0001
0000
1000
0000
,
1000
0000
0001
0000
0010
0100
1000
0000
,
0100
0000
0000
0011
0000
0001
0100
0010
,
1000
0000
0000
0101
0000
0001
0010
0100
,
0010
0000
0000
0011
0000
0001
0100
0010
,
1000
0000
0000
0000
0000
0000
0000
0001
0000
0001
0000
0000
0000
0000
0000
0000
,
1000
0000
0000
0011
0000
0001
0010
0100
,
1000
0000
0000
1010
0000
0100
0010
1000
,
0001
0000
0000
1001
0000
0001
0100
0010
,
1000
0000
0000
0100
,
0000
0110
0000
0100
0010
0001
0010
0000
,
0000
1100
0000
0100
1000
0010
0100
0000
,
0000
0101
0000
1000
0001
1000
0100
0010
,
0010
0000
0100
0000
0000
0011
0000
0001
,
0100
0010
1000
0000
0000
0101
0000
0001
,
1000
0100
0010
0000
0000
1100
0000
1000
,
0001
0010
0001
1000
0100
0000
0000
0000
,
0000
0000
1000
0000
0000
0001
0100
0000
,
0000
0100
0010
0000
1000
0000
0001
0000
,
0010
0000
0100
0000
0000
0100
1000
0000
,
0000
0100
1000
0000
0010
0000
0100
0100
,
0100
0000
0010
0000
0000
0100
0001
0000
,
0000
0100
0001
0000
0010
0000
0100
0000
,
0000
0000
0100
0000
0000
1000
0100
0000
,
0000
1000
0100
0000
0010
0000
0001
0010
,
0100
0010
0000
0001
,
0000
0100
0010
1000
,
0000
0001
0000
1000
,
0000
0000
0001
0000
0001
0000
1000
0001
,
1000
0100
0000
0010
,
0000
0001
0100
0010
,
0000
0100
0000
0010
,
0000
0000
0100
0000
0010
0000
1000
0001
,
0020
0030
0000
0000
;

//---------------dance-single - ----------------
#NOTES:
     dance-single:
     :
     Easy:
     4:
     0.238,0.270,0.028,0.028,0.000:
0000
0000
0000
0000
,
0000
0000
0000
0000
,
0000
0000
0000
0000
,
0000
0000
0000
0000
,
0000
0000
0000
0000
,
0000
0000
0000
0000
,
0000
0000
0000
0000
,
0000
0000
0110
1001
,
1000
0000
0000
1000
0000
0000
0001
0000
,
0100
0000
0000
0010
0000
0000
0100
0000
,
0010
0000
0000
1000
0000
0000
0001
0000
,
1000
0100
1000
1000
,
0010
0000
0000
0010
0000
0000
0100
0000
,
0001
0000
0000
1000
0000
0000
0100
0000
,
1000
0000
0000
0010
0000
0000
0100
0000
,
0001
1000
0000
0000
,
1000
0001
0100
0100
,
0001
1000
0010
0100
,
0001
0010
0100
0010
,
0001
0100
0010
0010
,
0100
0010
1000
0001
,
0010
0100
0010
0001
,
0100
0001
1000
0100
,
1000
0010
0100
0010
,
1000
0000
1000
0000
,
1000
0001
0100
0000
,
0001
0000
0001
0000
,
0001
0000
1000
0000
0100
0010
0100
0000
,
0100
0000
1000
0000
,
1000
0010
0100
0000
,
0010
0000
1000
0000
,
2002
0000
0000
3003
,
0001
0000
0000
0001
0000
0000
0100
0000
,
0010
0000
0000
0100
0000
0000
0010
0000
,
1000
0000
0000
0100
0000
0000
0010
0000
,
0100
1000
0000
0000
,
0001
0000
0000
0001
0000
0000
0100
0000
,
0001
0000
0000
0010
0000
0000
0100
0000
,
0010
0000
0000
0001
0000
0000
0100
0000
,
0010
0010
0000
0010
,
0000
1000
0000
0000
0001
0000
1000
0000
,
0000
0100
0000
0000
1000
0000
0010
0000
,
0000
0010
0000
0000
0100
0000
0001
1000
,
0001
0000
1000
0000
0000
0001
0000
0000
,
0010
0000
0001
0000
0000
0100
0000
0000
,
1000
0000
0100
0000
0000
0010
0000
0000
,
1000
0001
1000
0000
,
0000
0001
0000
1000
,
0000
0001
1000
0010
,
0100
0010
0000
1000
,
0000
0000
0010
0000
0100
0000
0010
0100
,
0010
0100
0000
0010
,
0000
1000
0001
0010
,
0000
0100
0000
1000
,
0000
0000
0100
0000
1000
0000
0010
1000
,
0010
0100
0000
0010
,
0000
1000
1000
1000
,
0000
0001
0000
0001
,
0000
0001
0100
0010
,
1000
0100
0000
0010
,
0000
0001
0001
0001
,
0000
0001
0000
1000
,
0000
0010
0100
0001
,
2000
3000
0000
0000
;

//---------------dance-single - ----------------
#NOTES:
     dance-single:
     :
     Beginner:
     1:
     0.097,0.179,0.019,0.000,0.000: // measure 1
0000
0000
0000
0000
,  // measure 2
0000
0000
0000
0000
,  // measure 3
0000
0000
0000
0000
,  // measure 4
0000
0000
0000
0000
,  // measure 5
0000
0000
0000
0000
,  // measure 6
0000
0000
0000
0000
,  // measure 7
0000
0000
0000
0000
,  // measure 8
0000
0000
0010
0010
,  // measure 9
0010
0000
0000
0000
,  // measure 10
1000
0000
0000
0000
,  // measure 11
0001
0000
0000
0000
,  // measure 12
0010
0000
0000
0000
,  // measure 13
0010
0000
0000
0000
,  // measure 14
0001
0000
0000
0000
,  // measure 15
1000
0000
0000
0000
,  // measure 16
0100
0000
0000
0000
,  // measure 17
1000
0000
0000
0000
,  // measure 18
0010
0000
0000
0000
,  // measure 19
0100
0000
0000
0000
,  // measure 20
0001
0000
0000
0000
,  // measure 21
1000
0000
0000
0000
,  // measure 22
1000
0000
0000
0000
,  // measure 23
0001
0000
0000
0000
,  // measure 24
0001
0000
0000
0000
,  // measure 25
0010
0000
0010
0000
,  // measure 26
0010
0010
0010
0000
,  // measure 27
0100
0000
0100
0000
,  // measure 28
0100
0100
0100
0000
,  // measure 29
1000
0000
1000
0000
,  // measure 30
1000
1000
1000
0000
,  // measure 31
0001
0000
0001
0000
,  // measure 32
1001
0000
0000
0000
,  // measure 33
0110
0000
0000
0000
,  // measure 34
0010
0000
0000
0000
,  // measure 35
1000
0000
0000
0000
,  // measure 36
0100
0000
0000
0000
,  // measure 37
0010
0000
0000
0000
,  // measure 38
0001
0000
0000
0000
,  // measure 39
1000
0000
0000
0000
,  // measure 40
0010
0000
0000
0100
,  // measure 41
0000
0000
0000
0010
,  // measure 42
0000
0000
0000
1000
,  // measure 43
0000
0000
0000
0001
,  // measure 44
0000
0001
0000
0000
,  // measure 45
0000
1000
0000
0000
,  // measure 46
0000
0010
0000
0000
,  // measure 47
0000
0100
0000
0000
,  // measure 48
0000
0010
0000
0000
,  // measure 49
0000
1000
0000
0000
,  // measure 50
0000
0001
0000
0000
,  // measure 51
0000
0010
0000
0100
,  // measure 52
0000
1000
0000
0000
,  // measure 53
0000
0001
0000
0000
,  // measure 54
0000
0100
0000
0000
,  // measure 55
0000
0010
0000
0010
,  // measure 56
0000
0100
0000
0000
,  // measure 57
0000
0001
0000
0000
,  // measure 58
0000
1000
0000
0000
,  // measure 59
0000
0100
0000
0100
,  // measure 60
0000
0100
0000
0000
,  // measure 61
0000
0000
0000
0000
,  // measure 62
0000
1000
0000
0000
,  // measure 63
0000
0000
0000
0000
,  // measure 64
0001
0000
0000
0000
;
