#TITLE:Bad Apple & Good Orange;
#SUBTITLE:;
#ARTIST:IOSYS;
#TITLETRANSLIT:;
#SUBTITLETRANSLIT:;
#ARTISTTRANSLIT:;
#CREDIT:Chewphoria~;
#BANNER:bn.png;
#BACKGROUND:bg.png;
#LYRICSPATH:;
#CDTITLE:./CDTITLES/Licensed Music.png;
#MUSIC:Bad Apple & Good Orange.mp3;
#OFFSET:-0.535;
#SAMPLESTART:14.445;
#SAMPLELENGTH:15.000;
#SELECTABLE:YES;
#DISPLAYBPM:138.000;
#BPMS:0.000=138.000;
#STOPS:28.000=0.217
,28.500=0.217
,29.000=0.217
,29.500=0.217
,90.000=1.304
,183.000=1.304
,187.500=0.217
,191.000=0.217
,194.500=0.870
;
#BGCHANGES:-1.500=Bad Apple & Good Orange.avi=1.000=1=0=1,
229.000=bg.png=1.000=1=0=1,
99999=-nosongbg-=1.000=0=0=0 // don't automatically add -songbackground-
;

//---------------dance-single - ----------------
#NOTES:
     dance-single:
     :
     Hard:
     8:
     0.487,0.600,0.305,0.114,0.219:
0000
0000
0000
0000
,
0000
0000
0000
0000
,
0000
0000
0000
0000
,
0000
0000
0000
0000
,
0010
0010
0001
0000
0100
0000
0010
0000
,
1000
1000
0100
0000
1000
0000
0001
0000
,
0100
0100
0010
0000
1000
1000
0001
0000
,
1000
0100
0010
1100
0001
1000
0100
0100
,
1000
0001
0100
0010
1000
0100
0010
0010
,
0100
1000
0001
0100
0001
0001
0010
0100
,
0010
0010
0001
0001
0100
0010
1000
0001
,
0010
0100
1000
0100
0000
0000
0000
0000
1000
0000
0001
0000
0100
0000
0100
0000
,
0001
1000
0100
0100
1000
0001
0010
0010
,
0001
0000
0000
1000
0000
0000
0010
0000
0000
0010
0000
0000
1000
0000
0010
0000
0100
0000
0001
0000
0010
0000
0100
0000
,
0010
0000
0001
0000
0100
0000
0010
0000
1000
0000
0100
0000
0110
0000
0000
0100
0000
0000
1000
0000
0000
0000
0000
0000
,
0011
0000
0010
0000
0100
0000
0000
0000
0000
0000
0000
1000
0000
0000
1000
0000
,
0000
0000
0000
0001
0000
0000
0001
0000
0000
0000
0000
0100
0000
0000
0100
0000
,
0000
0000
0000
0010
0000
0000
0010
0000
0000
0000
0000
1000
0000
0000
1000
0000
,
0000
0000
0000
1000
0000
0000
1000
0000
0000
0000
0000
0001
0000
0000
0001
0000
,
0000
0000
0000
1000
0000
0000
1000
0000
1001
0000
0000
0000
0010
0000
0000
0000
,
0010
0010
1001
0010
,
0010
0010
0101
0010
,
1100
0000
0010
0000
0011
0000
1000
0100
,
1000
0010
0100
1000
0010
0100
0002
0000
,
0000
0000
0003
0000
0000
1000
1000
0001
,
0010
1000
0010
0001
0100
0010
2000
0000
,
0000
0000
0000
0000
3100
0000
0000
0100
0000
0000
1000
0000
0010
0000
0100
0000
,
0010
1000
0001
0010
0001
0100
0002
0000
,
0000
0000
0000
0000
0000
0000
0000
0000
0000
0000
0000
0000
1003
0000
0000
1000
,
0000
0000
0001
0000
0010
0000
0000
0100
0000
0000
0010
0000
0001
0000
0000
0001
,
0000
0000
0001
0000
0000
0000
0000
0000
0000
0000
0000
0000
1001
0000
0000
1000
,
0000
0000
0100
0000
0000
0000
0100
0000
1000
0000
0010
0000
0100
0000
0000
0001
,
0000
0011
0000
0001
0010
1000
0000
1000
,
0010
0001
0000
0100
0010
1000
0000
0100
,
0010
0001
1000
0000
0202
0303
0100
0010
,
0010
1000
0001
0000
1001
0000
1000
0100
,
0010
0000
0100
0000
1000
0000
0000
0000
0011
0000
0000
0000
0001
0000
0000
0100
,
0000
0000
0010
0000
0000
1000
0000
0000
0100
0000
0010
0200
0000
0000
0000
0000
,
0000
0000
0000
0000
0000
0000
0000
0000
0000
0000
0000
0000
0310
0000
0000
0001
,
0000
0000
0001
0000
0000
0000
0001
0000
0100
0000
0010
0000
0100
0000
0000
0001
,
0000
0010
0000
0100
1000
0010
0000
0100
,
0001
1000
0000
0100
1000
0010
0000
0100
,
0001
0010
0100
0000
0000
0000
2000
0000
,
3100
0002
0013
0200
,
0310
0000
0000
0000
0001
0000
0000
0000
0100
0000
0001
0200
0000
0000
0000
0000
,
0000
0000
0000
0310
,
0000
0000
1001
0000
0000
0011
0000
0000
1100
0000
0000
0101
0000
0000
1001
0000
,
0101
0000
0000
0110
0000
0000
1010
0000
0000
1100
0000
0000
1001
0000
1100
0000
,
0000
0110
0000
0000
0011
0000
0000
0110
0000
0000
1001
0000
0101
0000
0000
0000
,
1010
0000
1000
0001
0010
0010
0001
1000
,
0100
0100
1000
0001
0100
0001
0010
0001
,
1000
0100
1000
0001
0100
0100
0001
1000
,
0010
0000
0010
0000
1000
0000
0001
0000
0010
0000
0010
0000
0100
1000
0010
0200
,
0000
0000
0000
0300
0010
0000
0100
0000
0001
0000
0001
0000
0100
0000
0010
0000
,
1000
1000
0010
0100
0001
0001
0100
0010
,
1000
0000
0000
1000
0000
0000
0010
0000
1000
0000
0100
0000
0010
0000
0100
0000
1000
0000
0001
0000
0010
0000
0100
0000
,
1000
0000
0010
0000
0100
0000
0101
0000
0000
0010
0000
0000
1000
0000
0000
0000
0000
0000
1100
0000
0000
0001
0000
0000
,
0020
0030
0000
0000
0000
0000
0000
0000
;

//---------------dance-single - ----------------
#NOTES:
     dance-single:
     :
     Medium:
     6:
     0.345,0.354,0.114,0.200,0.067:
0000
0000
0000
0000
,
0000
0000
0000
0000
,
0000
0000
0000
0000
,
0000
0000
0000
0000
,
0001
0001
0000
0000
0000
0000
0000
0000
,
1000
1000
0010
0000
0000
0000
0000
0000
,
0100
0100
0010
0000
0000
0000
0000
0000
,
1000
0001
0010
0100
1000
0010
0000
0100
,
0000
0001
0000
1000
0000
0100
0000
0001
,
0000
0100
0000
1000
0000
0010
0000
0001
,
0000
0010
0000
1000
0000
0001
0000
1000
,
0202
0000
0303
0000
0001
0010
0000
0100
,
0000
1000
0000
0100
0000
1000
0000
0010
,
0000
0100
0000
0001
2000
0000
3200
0000
,
0320
0000
0032
0000
0013
0001
0010
0000
,
0100
0010
0100
0000
0200
0000
0000
1300
,
0000
1000
0001
1000
0002
0000
0000
0013
,
0000
0001
0010
0001
0020
0000
0000
0130
,
0000
0100
1000
0100
2000
0000
0000
3010
,
0000
0100
0010
1000
1100
0000
0100
0000
,
0100
0100
0110
0010
,
0010
0010
0011
0000
,
1100
0000
1001
0010
,
1000
0000
0100
0000
1000
0010
0100
0000
,
0001
0000
1000
0000
0001
1000
0100
0000
,
1000
0000
0001
0000
0001
0010
0001
0000
,
0100
0000
0000
0000
0010
0000
0000
2002
0000
0000
3003
0000
1000
0000
0000
0000
,
0001
0000
0010
0000
0001
0010
0001
0000
,
0100
0000
0010
0000
0100
0010
0100
0000
,
0010
0000
1000
0000
0001
0000
1000
0001
,
0010
0000
0100
0000
0000
0000
0000
0000
0000
0000
0000
0000
0010
0000
0000
0001
,
0000
0000
0100
0000
0000
0000
0000
0000
0000
0000
0000
0000
0010
0000
0000
1000
,
0000
0001
0000
0000
0000
2000
0000
0000
,
0000
3002
0000
0000
0000
0023
0000
0000
,
0130
0000
0010
0000
2002
3003
1001
0000
,
0001
0100
0010
0100
,
0010
0000
0000
0000
1000
0000
0000
0000
0001
0000
0000
0000
0010
0000
0000
0010
,
0000
0000
0001
0000
0000
0100
0000
0000
0010
0000
0000
0110
0000
0000
0000
0000
,
0000
0000
0000
0000
0000
0000
0000
0000
0000
0000
0000
0000
0001
0000
0000
0001
,
0000
0000
0001
0000
0000
0000
0001
0000
1000
0000
0000
0000
0100
0000
0000
1000
,
0000
0010
0000
0100
0010
0100
0000
0010
,
0100
0010
0000
0100
0001
1000
0000
1000
,
0100
0010
0001
0000
0000
0000
0001
0000
,
1000
0100
0001
0100
,
1000
0010
0100
0002
,
0000
0000
0000
0003
,
0000
0000
1000
0000
0000
0001
0000
0000
0100
0000
0000
0001
0000
0000
0010
0000
,
0100
0000
0000
1000
0000
0000
0010
0000
0000
0100
0000
0000
1000
0000
0100
0000
,
0000
0010
0000
0000
0010
0000
0000
0100
0000
0000
0001
0000
0101
0000
0000
0000
,
1010
0000
0001
0100
0000
0010
0000
0100
,
0000
0010
0000
1000
0000
0001
0000
0010
,
0000
1000
0000
0010
0000
0001
0000
0100
,
0000
0001
0000
1000
0000
0100
0020
0000
,
0030
0000
0001
0010
0000
0100
0000
1000
,
0000
0100
0000
0001
0000
0100
0000
1000
,
0000
0010
0200
0000
0000
0000
0000
0000
,
0300
0000
0010
1000
0100
0000
0100
0010
,
0002
0003
0000
0000
0000
0000
0000
0000
;

//---------------dance-single - ----------------
#NOTES:
     dance-single:
     :
     Easy:
     3:
     0.271,0.326,0.153,0.267,0.000:
0000
0000
0000
0000
,
0000
0000
0000
0000
,
0000
0000
0000
0000
,
0000
0000
0000
0000
,
0001
0000
0000
0000
,
0100
0000
0000
0000
,
0010
0000
0000
0000
,
1000
0001
1000
1001
1000
0000
0001
0000
,
0100
0001
1000
0100
,
1000
0001
0100
0001
,
1000
0100
1000
0001
,
0202
0303
0001
1000
,
0010
1000
0001
0010
,
0001
1000
0020
0000
,
0000
0000
0030
0000
0100
0010
0100
0000
,
0100
0010
0100
0000
0020
0000
0000
0000
,
0030
0000
2000
0000
,
3000
0000
0002
0000
,
0003
0000
0200
0000
,
0300
0000
0010
0010
,
0010
0010
0100
0100
,
0100
0100
0110
0000
,
1001
0000
0101
0001
,
0001
1000
1000
0020
,
0000
0030
0000
0100
,
0010
1000
0100
0010
,
0000
0000
0200
1300
,
0100
0010
0100
2000
,
0000
3000
0000
1001
,
0000
0110
0000
1001
,
0000
0000
0000
0001
,
0001
0001
0001
1000
,
1000
1000
1000
0010
,
0010
0010
0010
0010
,
0010
0000
0010
0000
2002
3003
0001
0000
,
1000
0100
1000
0001
,
0100
0001
0010
0200
,
0000
0000
0000
0020
,
0000
0000
0330
0010
,
0001
0100
0010
1000
,
0100
0010
0100
1000
,
0001
0100
0001
0010
,
0100
1000
0000
1000
,
0000
0001
0000
0100
,
0000
0010
0000
2002
,
0000
0000
0000
3003
,
0000
2002
0000
0000
0000
0000
3003
0000
,
0220
0000
0000
0000
0000
0330
0000
2020
,
0000
0000
3030
1010
,
0101
0001
1000
0100
,
1000
0001
0100
0001
,
1000
0100
1000
0001
,
0100
0001
1000
0220
,
0330
0010
0001
0010
,
1000
0010
0001
0010
,
1000
0020
0032
0203
,
0320
0000
1030
0010
1000
0000
0010
1000
,
0010
0000
0000
0000
;

//---------------dance-single - ----------------
#NOTES:
     dance-single:
     :
     Challenge:
     9:
     0.578,0.655,0.239,0.258,0.544:
0000
0000
0000
0000
,
0000
0000
0000
0000
,
0000
0000
0000
0000
,
0000
0000
0000
0000
,
0100
0000
0100
0000
0110
0000
0000
0010
0000
0010
0000
0100
0010
0000
1000
0000
,
0001
0000
0010
0000
0110
0000
0000
0100
0000
1000
0000
1000
0010
0000
0100
0001
,
1000
0000
1000
0000
1001
0000
0000
0001
1000
0100
0010
0001
1000
0001
1000
0001
,
0020
0000
0000
0000
0000
0000
0000
0000
1000
0000
0000
0000
0000
0000
0000
0000
0001
0000
0000
0000
0000
0000
0000
0030
0110
0000
0000
0000
0000
0000
0000
0000
0010
0000
0000
0000
0000
0000
0000
0000
0001
0000
0000
0000
0100
0000
0000
0000
0000
0000
0000
0000
0000
0000
0000
0000
0100
0000
0000
0000
0010
0000
0000
0000
,
0000
0000
0010
1000
0000
0000
1000
0001
0000
0000
0001
0010
0000
0000
0010
0100
,
0000
0000
0100
1000
0000
0000
1000
0010
0000
0000
0100
0001
0000
0000
0001
0010
,
0000
0000
0010
0100
0000
0000
0100
1000
0000
0000
1000
0001
0000
0000
0001
0010
,
0100
0010
0002
2000
0000
0000
3003
0000
0010
0000
0100
0010
0000
0000
0010
1000
,
0000
0000
1000
0100
0000
0000
0100
0010
0000
0000
0010
0001
0000
0000
0001
1000
,
0000
0000
0000
0000
0000
0000
1000
0000
0000
0010
0000
0000
0000
0000
0000
0000
0000
0000
0100
0000
0000
0001
0000
0000
0010
0000
0000
0000
1000
0000
0000
0000
0010
0000
0000
0000
0001
0000
0000
0000
0100
0000
0000
0000
1000
0000
0000
0000
,
0100
0000
0000
0000
0001
0000
0000
0000
0010
0000
0000
0000
0001
0000
0000
0000
0100
0000
0000
0000
0010
0000
0000
0000
1000
0000
0000
0010
0000
0000
0000
0000
0000
0100
0000
0000
0001
0000
0000
0000
0000
0000
0001
0000
0000
0010
0000
0000
,
0000
0100
1000
0000
1000
0001
1000
0001
2000
0000
0000
0000
0000
0000
3100
0000
,
0000
1000
0100
0001
0200
0000
0000
0310
,
0000
0010
0001
0010
1000
0000
0000
1000
,
0000
1000
0100
0010
0002
0000
0000
0013
,
0000
0001
0100
0010
0110
0000
1001
0000
,
0101
1010
1100
0011
,
0110
0000
0000
0000
1001
0000
0000
0000
0102
0000
0000
0100
0000
0000
0103
0000
,
2100
0000
0000
0100
0000
0000
3100
0000
0110
0000
0000
0000
0010
0000
0001
0000
,
0100
1000
0100
1000
0100
0001
0010
0100
,
0010
0001
1000
0100
0010
0000
0010
0001
,
0100
0010
1000
0001
0010
0001
1000
0100
,
1000
0000
0010
0000
0100
0001
0010
0200
0000
0000
0300
0000
1000
0000
0001
0000
,
0100
0100
0001
1000
0010
0010
1000
0001
,
0010
0000
0000
0100
0000
0000
1000
0000
0000
0010
0000
0000
0100
0000
0000
0001
0000
0000
1000
0000
1000
0000
0001
0000
,
0010
0000
0000
0000
0000
0000
0000
0000
0000
0000
0000
0000
0100
0000
0000
0000
1000
0000
0000
0000
0010
0000
0000
0000
0100
0000
0000
0000
0000
0000
0000
0000
0000
0000
0000
0000
0110
0000
0000
0000
0000
0000
0000
0000
0000
1010
0000
0000
,
0000
0000
0101
0000
0000
0011
0000
0000
0020
0000
0230
0000
1300
0000
0000
0010
,
0000
0000
0100
0000
0000
0000
0100
0000
0010
0000
1000
0000
0001
0000
0000
0010
,
0000
1000
0000
1000
0010
0002
0000
0013
,
1000
0020
0000
0031
0100
0020
0000
1030
,
0001
0000
0100
0000
0010
0000
0000
0000
0202
0000
0303
0000
0001
0000
0000
0100
,
0000
0000
0010
0000
0000
0000
0010
0000
1000
0000
0100
0000
0010
0000
0000
0100
,
0000
0000
1000
0000
0000
0000
0000
0000
0010
0000
0100
0020
0000
0000
0000
0000
,
0000
0000
0000
0000
0000
0000
0130
0000
0001
0000
2000
0200
0000
0000
0000
0000
,
0000
0000
0000
0000
0000
0000
0000
0000
3300
0000
0000
0000
2100
0000
0000
0100
,
0000
0000
3100
0000
0000
0000
1000
0000
0100
0000
0010
0000
0012
0000
0000
0010
,
0000
0013
0000
0001
0100
1000
0000
1000
,
0100
0001
0000
0001
0010
1000
0000
1000
,
0010
0001
0100
0000
0200
0000
0310
0000
,
1000
0010
0001
0010
,
1000
0000
0000
0000
0100
0000
0000
0000
0010
0000
0002
0020
0000
0000
0000
0000
,
0000
0000
0000
0000
0000
0033
0000
0000
,
0000
0000
0001
0000
0001
0100
0000
0100
0010
0000
0010
1000
0000
1000
0100
0000
,
1000
0000
1000
0100
0000
0100
0010
0000
0010
0001
0000
0001
1000
0000
0001
0000
,
1000
0010
0000
0010
0100
0000
0100
0010
0000
0010
1000
0000
0011
0000
0000
0000
,
1100
0000
0000
0000
1001
0000
0001
0100
0000
0000
0010
1000
0000
0000
1000
0100
,
0000
0000
0010
0001
0000
0000
0001
1000
0000
0000
1000
0100
0000
0000
0100
0010
,
0000
0000
0010
0001
0000
0000
0001
0100
0000
0000
0100
0010
0000
0000
0010
1000
,
0000
0000
1000
0100
0000
0000
0100
0010
0000
0000
0010
0001
0010
0100
1000
0020
,
0000
0000
0000
0000
0130
0000
0010
1000
0000
0000
1000
0001
0000
0000
0001
0010
,
0000
0000
0010
0100
0000
0000
0100
1000
0000
0000
1000
0010
0000
0000
0100
0010
,
0000
0000
0000
0000
0000
0000
0010
0000
0000
1000
0000
0000
0010
0000
0000
0000
0100
0000
0000
0000
1000
0000
0000
0000
0100
0000
0000
0000
0001
0000
0000
0000
0100
0000
0000
0000
0020
0000
0000
0000
0000
0000
0000
0000
0000
0000
0000
0000
,
0030
0000
0000
0000
0100
0000
0010
1000
0000
1000
0100
0000
0100
0010
0000
0010
,
0001
0100
2000
0000
3000
0000
0000
0000
0000
0000
0000
0000
0000
0000
0000
0000
;

//---------------dance-single - ----------------
#NOTES:
     dance-single:
     :
     Beginner:
     1:
     0.085,0.108,0.019,0.019,0.000: // measure 1
0000
0000
0000
0000
,  // measure 2
0000
0000
0000
0000
,  // measure 3
0000
0000
0000
0000
,  // measure 4
0000
0000
0000
0000
,  // measure 5
0001
0000
0000
0000
,  // measure 6
1000
0000
0000
0000
,  // measure 7
0001
0000
0000
0000
,  // measure 8
0000
0000
0010
0000
,  // measure 9
0000
0000
1000
0000
,  // measure 10
0000
0000
0001
0000
,  // measure 11
0000
0000
0100
0000
,  // measure 12
0000
0000
0001
0000
,  // measure 13
0000
0000
1000
0000
,  // measure 14
0000
0000
0002
0000
,  // measure 15
0003
0000
1000
0000
,  // measure 16
0001
0000
0100
0000
,  // measure 17
0000
0000
0010
0000
,  // measure 18
0000
0000
1000
0000
,  // measure 19
0000
0000
0100
0000
,  // measure 20
0000
0000
0110
0000
,  // measure 21
0000
0000
0010
0000
,  // measure 22
0000
0000
0001
0000
,  // measure 23
1000
0000
0010
0100
,  // measure 24
0000
0000
0000
0000
,  // measure 25
0000
0000
0000
0001
,  // measure 26
0000
0000
0000
0000
,  // measure 27
0000
0000
0000
1000
,  // measure 28
0000
0000
0000
0000
,  // measure 29
0000
0000
0000
0010
,  // measure 30
0000
0010
0000
0010
,  // measure 31
0000
0000
0000
0100
,  // measure 32
0000
0000
0000
0010
,  // measure 33
0000
0000
0000
1000
,  // measure 34
0000
0001
0000
1000
,  // measure 35
0000
0001
0000
0100
,  // measure 36
0000
0000
0000
0010
,  // measure 37
0000
0000
0000
1000
,  // measure 38
0000
0000
0000
0000
,  // measure 39
0000
0000
0000
0001
,  // measure 40
0000
0000
0000
0001
,  // measure 41
0000
0000
0000
1000
,  // measure 42
0000
0000
0000
0010
,  // measure 43
0000
0000
0000
0100
,  // measure 44
0000
0000
0000
0010
,  // measure 45
0000
0000
0000
1000
,  // measure 46
0000
0000
0000
0000
,  // measure 47
0000
0001
0000
0000
0000
0000
0000
0000
,  // measure 48
1000
0000
0000
0000
0000
0000
0000
0010
,  // measure 49
0000
0000
0000
0100
,  // measure 50
0010
1001
0000
0000
,  // measure 51
0000
0001
0000
0000
,  // measure 52
0000
1000
0000
0000
,  // measure 53
0000
0001
0000
1000
,  // measure 54
0000
0010
0000
0000
,  // measure 55
0000
0100
0000
0000
,  // measure 56
0000
0020
0000
0000
,  // measure 57
0030
1000
0000
0001
;
