#TITLE:Apple Butter;
#SUBTITLE:;
#ARTIST:Good-Cool;
#TITLETRANSLIT:;
#SUBTITLETRANSLIT:;
#ARTISTTRANSLIT:;
#CREDIT:;
#BANNER:bn.png;
#BACKGROUND:bg.png;
#LYRICSPATH:;
#CDTITLE:;
#MUSIC:16 - good-cool - Apple Butter.mp3;
#OFFSET:1.040;
#SAMPLESTART:45.620;
#SAMPLELENGTH:12.000;
#SELECTABLE:YES;
#BPMS:0.000=170.000;
#STOPS:156.500=0.176
,157.000=0.353
,157.500=0.353
,158.000=0.353
,159.000=0.176
,159.500=0.353
;
#BGCHANGES:;

//---------------dance-single - ----------------
#NOTES:
     dance-single:
     :
     Hard:
     9:
     0.557,0.584,0.203,0.211,0.073:
0000
0000
0000
0000
,
0000
0000
0000
0000
,
0000
0000
0000
0000
,
0010
0000
1000
0100
0000
0001
0010
0000
,
0001
0100
0000
0010
1000
0100
1000
0001
,
0010
0000
0100
0010
0000
0010
0001
0000
,
0010
0100
0000
0010
0001
1000
0100
0000
,
1000
0000
0001
0100
0000
1000
0100
0000
,
0001
0100
0000
1000
0100
0010
0100
1000
,
0001
0000
0001
0010
0000
0010
1000
0000
,
0220
0000
0330
0000
,
0001
0100
0010
0100
,
0001
0000
1000
0001
0010
1000
0010
0001
,
1000
0001
1000
0010
1000
0100
1000
0000
,
0001
0010
0100
0010
0001
0000
0000
0000
,
1000
0000
0001
0000
0001
0010
0100
0000
,
2000
3010
0200
0301
,
1000
0000
0001
0100
0000
1000
0100
0000
,
1001
0000
0010
0100
0000
0010
1000
0010
,
0100
1000
0100
0010
,
1000
0000
0001
0100
0010
0001
0010
0100
,
0001
0100
0001
0010
0001
1000
0001
0000
,
0100
0010
1000
0010
0100
0000
0000
0000
,
0001
0000
0100
0000
0100
0010
1000
0000
,
0002
0000
0013
0000
0001
1000
0100
1000
,
0001
1000
0100
0010
,
0001
0001
1000
1000
0010
0010
0100
0100
,
0001
0010
0001
0010
0001
0010
0001
0000
,
0011
0000
1100
0000
1000
0100
1000
0100
,
1000
0100
1000
0000
1100
0000
1001
0000
,
0001
1000
0001
1000
0001
1000
0001
0000
,
1001
0000
0110
0000
0010
0100
0010
0100
,
0010
0100
0010
0000
0110
0000
1010
0000
,
1000
0010
1000
0010
1000
0010
1000
0000
,
1010
0000
0101
0000
0100
0001
0100
0001
,
0100
0001
0100
0000
0101
0000
0011
0000
,
0010
0001
0010
0001
0010
0001
0010
0000
,
0011
0000
1010
0000
1000
0010
1000
0010
,
1000
0010
1000
0000
0010
0000
1001
0000
,
0001
1000
0100
0010
1000
0001
0100
0010
,
2002
0000
0000
0000
,
0000
0000
0000
3003
,
1001
0000
0000
0001
0000
0001
1000
0000
0100
0000
0000
0000
,
2000
0000
0000
3002
0000
0000
0013
0000
0001
0100
0000
0010
,
1000
0000
0100
0000
0000
0000
1000
0000
0010
0100
0001
1000
,
0000
0000
0001
1000
0000
0001
1000
0000
0001
1000
0000
0000
,
0001
0100
0020
1030
,
0100
1000
0200
0310
,
0001
0001
1000
1000
,
0001
0010
0100
1000
,
1010
0000
0000
1000
0000
0001
0100
0000
0000
0010
0000
1000
,
0100
0000
1000
0000
0000
0001
0000
0000
0010
0001
0100
0010
,
0000
0101
0100
1010
,
0100
1001
0010
0101
,
0010
0010
0010
0010
,
0020
0100
0100
0100
,
0130
0010
1000
0001
,
0010
0100
0010
0001
,
0100
0000
0010
0000
,
1000
0000
0000
0001
0000
0020
0200
0330
,
0010
0001
0100
0010
1000
0001
0010
0100
,
0010
0000
0000
0010
0001
0010
0001
1000
,
0000
0000
0000
0000
0001
1000
0001
0001
,
0100
0010
1000
0001
0020
0000
0230
0000
,
0300
0000
0000
1000
0000
1000
0010
1000
,
0100
0010
0100
1000
0002
0000
0013
0000
,
0000
0000
0000
0001
0001
0100
0010
1000
,
0001
0100
0010
1000
0100
1000
0001
0100
,
0001
1000
0100
1000
0001
1000
0100
1000
,
0001
0000
0010
0200
0000
0000
0300
0010
,
0001
0000
1000
0001
0100
0000
0010
1000
,
0001
0010
0100
0010
0001
0000
0000
0000
,
0000
0000
0000
0000
1000
0001
0010
0001
,
1000
0010
0100
1000
0100
0010
1000
0001
,
0020
0130
0200
0310
,
0001
0010
0100
1000
0001
0010
0100
1000
,
0001
0001
0010
0001
0100
0020
0000
0000
,
0000
0000
0000
0000
0030
0010
0010
1000
,
0100
1000
0010
1000
0100
1000
0001
0010
,
0100
0010
0001
0010
0100
0010
0001
0100
,
0010
0010
0020
0000
2030
0200
0000
0000
,
0000
0000
0000
0000
0300
0001
0001
3001
,
1000
0001
0010
0001
1000
0100
1000
0001
,
0220
0000
0000
0000
,
0000
0000
0000
0000
0000
0000
0000
0030
0300
0000
0000
0000
0000
0000
0000
0000
;

//---------------dance-single - ----------------
#NOTES:
     dance-single:
     :
     Medium:
     7:
     0.393,0.550,0.203,0.098,0.000:
0000
0000
0000
0000
,
0000
0000
0000
0000
,
0000
0000
0000
0000
,
0001
0000
0000
1000
0000
0000
0010
0000
,
0000
0100
0000
0000
0001
0100
0001
0010
,
0100
0000
0000
1000
0000
0000
0100
0000
,
0000
1000
0000
0010
0100
0010
0100
0000
,
0010
0000
0000
1000
0000
0000
0001
0000
,
0000
0010
0000
0010
0100
1000
0100
0010
,
0001
0000
0000
0001
0000
0000
0100
0000
,
2002
0000
3003
0000
,
0001
0100
0010
0010
,
0100
0001
1000
0100
,
0010
0000
0100
0000
1000
0010
0100
0000
,
0010
1000
0010
1000
0100
0000
0000
0000
,
1000
0001
0010
0100
,
0010
0001
0100
1000
,
0100
0010
0100
0000
0010
0100
0010
0000
,
0100
0001
0010
1000
,
0010
0000
0010
0000
0001
0010
0001
0000
,
0100
0000
0010
0000
0100
0010
1000
0001
,
0010
0000
0100
0000
0100
1000
0010
0000
,
0100
0010
0100
0010
0100
0000
0000
0000
,
0010
1000
0001
0010
,
1000
0010
0001
0100
,
0001
1000
0100
0010
,
0001
0010
0100
1000
0001
0010
0100
1000
,
0001
0001
0001
0001
,
1001
1001
1000
1000
,
1000
1000
1001
1001
,
0010
0010
0010
0010
,
0110
0110
0100
0100
,
0100
0100
0110
0110
,
0010
0001
0100
0010
,
1010
1010
0010
0100
,
0001
1000
1001
1001
,
0001
0100
0010
1000
,
1100
1100
0100
1000
,
0100
1000
1010
1010
,
0010
1000
0001
1000
0001
1000
0001
1000
,
2002
0000
0000
0000
,
0000
0000
0000
3003
,
0010
0000
0100
0000
,
0010
0010
0010
0000
,
1000
0000
0001
0000
,
1000
0000
0100
0000
,
0010
0000
0100
0000
,
1000
0000
0001
0000
,
0100
0001
1000
0001
,
0100
1000
0100
0001
,
0011
0000
0001
0000
,
0100
0000
0010
0100
,
0000
0110
0000
0101
,
0000
1010
0000
0110
,
0100
0000
0000
0000
,
0010
0000
1000
0000
,
0001
0000
1000
0000
,
0010
1000
0010
0000
,
1000
0000
0100
0000
,
0001
0000
0000
0100
0000
0100
0100
0000
,
0010
0001
0100
0010
,
0100
0000
0000
0010
1000
0001
1000
0001
,
0000
0000
1000
0001
,
0100
0010
0100
0010
0200
0000
0310
0000
,
0000
0000
0010
1000
,
0100
0010
0001
0010
0100
0000
1000
0000
,
0000
0000
0100
1000
,
0010
1000
0010
0000
0010
1000
0010
0000
,
0100
0010
1000
0001
,
0010
0000
0100
1000
0000
0000
0000
0100
,
1000
0000
1000
0100
0010
0000
0010
0001
,
0100
0010
0000
0100
0100
0000
0000
0000
,
0000
0000
0010
1000
,
0001
0010
0100
0010
,
0001
0100
0010
1000
,
2002
0000
0000
3003
,
0001
0100
0010
1000
0200
2000
0000
0000
,
0000
0000
0000
0000
0000
3300
0000
0000
,
1000
0001
0100
0001
0100
0001
0100
0001
,
0100
0001
0100
0001
0100
0001
0100
0000
,
0001
0100
0010
0000
1000
0200
0000
0000
,
0000
0000
0300
0000
,
1000
0001
0100
0010
,
0202
0000
0000
0000
,
0000
0000
0303
0000
;

//---------------dance-single - ----------------
#NOTES:
     dance-single:
     :
     Easy:
     5:
     0.318,0.550,0.073,0.089,0.000:
0000
0000
0000
0000
,
0000
0000
0000
0000
,
0000
0000
0000
0000
,
0001
1000
0100
1000
,
0001
0100
0001
0001
,
1000
0010
0100
0001
,
0010
0100
0010
0010
,
0001
0100
0010
1000
,
0100
0010
0100
1000
,
0001
1000
0010
0100
,
0220
0000
0330
0000
,
0010
0000
0010
0000
,
1000
0000
0001
1000
,
0100
0000
1000
0000
,
0010
0010
0100
0000
,
0010
0000
1000
0001
,
0100
0000
0001
0000
,
1000
0000
1000
0000
,
0001
0000
1000
0010
,
0100
0100
0000
0000
,
0000
0000
0010
1000
,
0010
0001
0010
0010
,
0100
0100
0100
0000
,
0010
0000
1000
0001
,
0100
0001
0010
0100
,
1000
0000
0001
0000
,
0202
0000
0000
0303
,
0001
0100
0001
0100
0001
0100
0001
0000
,
0000
0000
0000
0000
0001
0100
0001
0100
,
0001
0100
0001
0000
0000
0000
0000
0000
,
0001
0100
0001
0100
0001
0100
0001
0000
,
0000
0000
0000
0000
0001
0100
0001
0100
,
0001
0100
0001
0000
0001
0000
0000
0000
,
1000
0010
1000
0010
1000
0010
1000
0000
,
0000
0000
0000
0000
1000
0010
1000
0010
,
1000
0010
1000
0000
0000
0000
0000
0000
,
1000
0010
1000
0010
1000
0010
1000
0000
,
0000
0000
0000
0000
1000
0010
1000
0010
,
1000
0010
1000
0000
0000
0000
0000
0000
,
1001
0000
0000
0000
,
0000
0000
0000
0000
,
0000
0000
0000
0000
,
0010
0000
0100
0000
,
0010
1000
0010
0000
,
0100
0000
0010
0000
,
1000
0000
0001
0000
,
0010
0000
0100
0000
,
0010
0000
0001
0000
,
1000
0000
0010
0000
,
0100
0100
0100
0000
,
0010
0000
1000
0000
,
0001
0000
0010
0000
,
0000
0110
0000
1001
,
0000
0110
0000
1001
,
0001
0000
0000
0000
,
1000
0010
0100
0010
,
1000
0001
0010
0100
,
0010
0001
1000
0001
,
0100
0000
0100
0000
,
0100
0000
0000
0100
0000
0000
0110
0000
,
0010
1000
0010
0001
,
0010
0000
0100
0000
,
0000
0000
0010
1000
,
0010
0100
0010
1000
,
0000
0000
0100
1000
,
0010
0100
0001
0001
,
0000
0000
0001
1000
,
0010
1000
0010
1000
,
0010
0100
0001
0010
,
0100
0010
0001
0000
,
1000
0000
0001
0000
,
0100
0000
0010
0000
,
0000
0000
0100
0010
,
1000
0001
0010
0100
,
0010
0001
1000
0010
,
0220
0000
0000
0330
,
0010
0100
0010
0100
0010
0200
0000
0000
,
0000
0000
0300
0000
,
0010
1000
0010
1000
0010
1000
0010
1000
,
0010
1000
0010
1000
0010
1000
0010
0000
,
1000
0001
1000
0000
2000
0002
0000
0000
,
0000
0000
3003
0000
,
0001
1000
0001
1000
0001
1000
0001
2000
,
0002
0100
0000
0000
,
0000
0000
3003
0000
;

//---------------dance-single - ----------------
#NOTES:
     dance-single:
     :
     Beginner:
     1:
     0.094,0.169,0.041,0.000,0.000: // measure 1
0000
0000
0000
0000
,  // measure 2
0000
0000
0000
0000
,  // measure 3
0000
0000
0000
0000
,  // measure 4
0010
0000
0000
0000
,  // measure 5
0000
0000
0000
0000
,  // measure 6
1000
0000
0000
0000
,  // measure 7
0000
0000
0000
0000
,  // measure 8
0001
0000
0000
0000
,  // measure 9
0000
0000
0000
0000
,  // measure 10
0010
0000
0000
0000
,  // measure 11
0110
0000
0000
0000
,  // measure 12
1000
0000
0000
0000
,  // measure 13
0000
0000
0001
0000
,  // measure 14
1000
0000
0000
0000
,  // measure 15
0100
0000
0000
0000
,  // measure 16
0000
0000
0001
0000
,  // measure 17
1000
0000
0000
0000
,  // measure 18
0010
0000
0000
0000
,  // measure 19
0100
0000
0000
0000
,  // measure 20
0001
0000
0000
0000
,  // measure 21
0000
0000
0000
0000
,  // measure 22
1000
0000
0000
0000
,  // measure 23
0001
0000
0000
0000
,  // measure 24
0010
0000
0100
0000
,  // measure 25
1000
0000
0000
0000
,  // measure 26
1000
0000
0000
0000
,  // measure 27
1001
0000
0000
0000
,  // measure 28
0100
0000
0000
0000
,  // measure 29
0000
0000
0010
0000
,  // measure 30
0000
0000
0000
0000
,  // measure 31
1000
0000
0000
0000
,  // measure 32
0000
0000
0001
0000
,  // measure 33
0000
0000
0000
0000
,  // measure 34
1000
0000
0000
0000
,  // measure 35
0000
0000
0010
0000
,  // measure 36
0000
0000
0000
0000
,  // measure 37
0100
0000
0000
0000
,  // measure 38
0000
0000
0001
0000
,  // measure 39
0000
0000
0000
0000
,  // measure 40
1000
0000
0000
0000
,  // measure 41
0000
0000
0000
0000
,  // measure 42
0000
0000
0000
0000
,  // measure 43
0001
0000
0000
0000
,  // measure 44
1000
1000
1000
0000
,  // measure 45
0000
0000
0010
0000
,  // measure 46
0000
0000
0000
0000
,  // measure 47
0100
0000
0000
0000
,  // measure 48
0010
0000
0000
0000
,  // measure 49
1000
0000
1000
0000
,  // measure 50
1000
0000
0000
0000
,  // measure 51
0001
0000
0000
0000
,  // measure 52
0100
0000
0000
0000
,  // measure 53
0000
0010
0000
0100
,  // measure 54
0000
0010
0000
1000
,  // measure 55
1000
0000
0000
0000
,  // measure 56
0001
0000
0000
0000
,  // measure 57
0010
0000
0000
0000
,  // measure 58
0100
0000
1000
0000
,  // measure 59
0010
0000
0000
0000
,  // measure 60
0000
0000
0000
0000
,  // measure 61
1001
0000
0000
0000
,  // measure 62
0001
0000
0000
0000
,  // measure 63
1000
0000
0000
0000
,  // measure 64
0010
0000
0000
0000
,  // measure 65
0100
0000
0000
0000
,  // measure 66
0010
0000
0000
0000
,  // measure 67
1000
0000
0000
0000
,  // measure 68
0001
0000
0000
0000
,  // measure 69
0010
0000
0000
0000
,  // measure 70
0100
0000
0000
0000
,  // measure 71
1000
0000
1000
0000
,  // measure 72
1000
0000
0000
0000
,  // measure 73
0000
0000
0010
0000
,  // measure 74
0100
0000
0100
0000
,  // measure 75
0010
0000
1000
0000
,  // measure 76
1001
0000
0000
0000
,  // measure 77
0001
0000
0000
0000
,  // measure 78
0000
0000
0000
0000
,  // measure 79
1000
0000
0000
0000
,  // measure 80
0000
0000
0000
0000
,  // measure 81
0010
0000
0000
0000
,  // measure 82
0000
0000
0000
0000
,  // measure 83
0100
0000
0000
0000
,  // measure 84
1001
0000
0000
0000
;
