#TITLE:APOCALYPSE;
#SUBTITLE:~dirge of swans~;
#ARTIST:Zektbach;
#TITLETRANSLIT:;
#SUBTITLETRANSLIT:;
#ARTISTTRANSLIT:;
#CREDIT:;
#BANNER:Apocalypse (dirge of swans)-banner.png;
#BACKGROUND:Apocalypse (dirge of swans)-bg.png;
#LYRICSPATH:;
#CDTITLE:MixMania II CD Title.png;
#MUSIC:APOCALYPSE ~dirge of swans~.mp3;
#OFFSET:-0.480;
#SAMPLESTART:11.720;
#SAMPLELENGTH:12.000;
#SELECTABLE:YES;
#BPMS:0.000=170.000;
#STOPS:160.500=0.353
,161.500=0.353
,162.500=0.353
,163.500=0.353
,164.500=0.353
,165.500=0.353
,166.500=0.353
,167.500=0.353
;
#BGCHANGES:;

//---------------dance-single - ----------------
#NOTES:
     dance-single:
     :
     Hard:
     9:
     0.526,0.600,0.157,0.165,0.404:
0000
0000
0000
0000
,
0000
0000
0000
0000
,
0000
0000
0000
0000
,
0000
0000
0000
0000
,
2002
0000
0000
0000
,
0000
0000
0000
0000
,
0000
0000
0000
0000
,
0000
0000
0000
3003
,
0100
0000
0010
1000
0010
0000
0100
0000
,
0001
0000
1000
0100
1000
0000
0010
0000
,
0100
0000
0001
1000
0100
0000
1000
0000
,
0010
1000
0100
0000
1000
0010
0100
0001
,
0010
0000
0001
0100
0010
0000
1000
0000
,
0001
0000
0010
0001
0100
0000
0010
0000
,
1000
0010
0100
0000
0010
1000
0001
0000
,
0001
0010
0100
0010
0001
0100
0010
1000
,
0001
1000
0100
0000
0011
0000
0000
0001
,
0100
0010
1000
0000
1100
0000
0000
1000
,
0100
0010
0100
0000
0011
0000
0000
0001
,
1000
0100
0010
0000
1100
0000
0000
1000
,
0001
0100
0001
0000
0011
0000
0100
0000
,
0001
0100
0010
0000
1001
0000
0101
0000
,
0001
0100
0010
0000
0100
0010
1000
0000
,
1000
0001
0010
0100
0010
0001
1000
0001
,
0010
0000
0000
0010
0100
0000
0000
0100
1000
0000
0000
1000
0001
0000
0000
0001
,
0100
0000
0000
0010
1000
0000
0000
1000
0001
0000
0000
0001
0010
0000
0000
0010
,
0100
0000
0000
0010
0001
0000
0000
0001
1000
0000
0000
1000
0100
0000
0000
0100
,
0010
0000
0000
0010
0001
0000
0000
0001
0010
0000
0000
0010
0100
0000
0000
0100
,
1000
0000
0000
1000
0001
0000
0000
0001
0100
0000
0000
0100
0010
0000
0000
0010
,
1000
0000
0000
1000
0001
0000
0000
0001
0010
0000
0000
0010
0100
0000
0000
0100
,
0010
0000
0000
0010
0001
0000
0000
0001
0010
0000
0000
0010
0100
0000
0000
0100
,
1000
0000
0000
1000
0001
0000
0000
0001
0010
0000
0000
0010
0100
0000
0000
0100
,
1000
0000
0000
1000
0001
0000
0000
0001
0100
0000
0000
0100
0010
0000
0000
0010
,
0100
0000
0000
0010
0100
0000
0000
0100
0010
0000
0000
0010
1000
0000
0000
1000
,
0001
0000
0000
1000
0010
0000
0000
0010
0100
0000
0000
0100
0001
0000
0000
0001
,
1000
0000
0000
1000
0010
0000
0000
0010
1000
0000
0000
1000
0001
0000
0000
0001
,
0100
0000
0000
0100
0010
0000
0000
0010
1000
0000
0000
1000
0001
0000
0000
0001
,
0100
0000
0000
0100
0010
0000
0000
0010
1000
0000
0000
1000
0001
0000
0000
0001
,
1000
0000
0000
1000
0010
0000
0000
0010
1000
0000
0000
1000
0001
0000
0000
0001
,
0100
0000
0000
0100
0010
0000
0000
0010
1000
0000
0000
1000
0001
0000
0000
0001
,
0100
0010
0010
0001
0100
0010
0001
0100
,
0010
1000
0100
0010
0001
0010
0010
0100
,
1001
0000
0000
0000
,
0000
0000
0000
0000
,
0101
0000
0000
0000
,
0000
0000
0000
0000
,
1100
0000
0000
0000
0000
0000
0000
0000
0001
0000
0000
0000
0000
0000
1000
0001
,
1000
0010
0100
0000
,
0110
0000
0000
0000
0001
0000
0000
0000
1000
0000
0000
0000
0100
0000
0010
0100
,
0010
0000
0000
0001
0000
0000
0100
0010
1000
0001
0010
0100
,
1000
0000
1000
0001
0020
0000
0130
0000
,
0110
0000
0010
0001
0200
0000
0310
0000
,
1001
0000
0001
0100
0020
0000
1030
0000
,
1010
0000
1000
0001
0020
0000
0031
0100
,
0020
0000
1030
0001
0020
0000
0130
0000
,
1100
0000
1000
0001
0020
0000
0130
0000
,
0011
0000
0001
1000
0200
0000
1300
0000
,
0011
0000
0001
0100
0020
0000
1030
0000
,
2001
0000
0001
0000
,
0001
0000
0001
0000
,
0001
0000
0001
0000
,
0001
0000
0002
0000
,
3000
0000
1000
0000
,
1000
0000
1000
1000
,
1000
0000
1000
0000
,
2000
0000
0000
0000
0000
0000
0000
0000
0000
0000
0000
0000
3003
0000
0000
0001
,
0100
0000
0000
0100
0010
0000
0000
0010
1000
0000
0000
1000
0001
0000
0000
0001
,
0010
0000
0000
0010
0100
0000
0000
0100
0010
0000
0000
0010
0001
0000
0000
0001
,
1000
0000
0000
1000
0100
0000
0000
0100
0010
0000
0000
0010
0001
0000
0000
0001
,
1000
0000
0000
1000
0100
0000
0000
1000
0010
0000
0000
0100
0001
0000
0000
0001
,
0010
0000
0000
0010
0100
0000
0000
0100
0010
0000
0000
0010
0001
0000
0000
0001
,
1000
0000
0000
1000
0100
0000
0000
1000
0010
0000
0000
0100
0001
0000
0000
0001
,
0010
0000
0000
0010
0100
0000
0000
0100
1000
0000
0000
0001
0010
0000
0000
0010
,
0100
0000
0000
0100
1000
0000
0000
1000
0001
0000
0000
0100
0001
0000
0000
0001
,
0010
0100
0010
0001
0100
0010
1000
0001
,
0010
0001
0100
0010
2000
0000
3010
0000
,
0100
0001
1000
0100
0001
0100
1000
0010
,
0100
0001
0010
1000
0020
0000
0031
0000
,
0001
0100
0010
1000
0100
0001
0100
1000
,
0010
0001
0010
1000
0001
0010
0100
0010
,
2001
0000
3002
0000
,
0203
0000
0320
0000
,
2030
0000
0000
0000
,
0000
0000
0000
0000
,
0000
0000
0000
0000
0000
0000
0000
3000
;

//---------------dance-single - ----------------
#NOTES:
     dance-single:
     :
     Medium:
     7:
     0.422,0.566,0.243,0.510,0.000:
0000
0000
0000
0000
,
0000
0000
0000
0000
,
0000
0000
0000
0000
,
0000
0000
0000
0000
,
2002
0000
0000
0000
,
0000
0000
0000
0000
,
0000
0000
0000
0000
,
0000
0000
0000
3003
,
0101
0001
0020
0230
,
2300
0000
3100
0000
1000
0100
0000
0010
,
0001
0101
0002
2003
,
3100
0000
1000
0000
0001
0100
1000
0100
,
0010
0000
0100
0000
0001
1000
0100
0000
,
1000
0000
0010
0000
0100
0010
1000
0000
,
0002
1003
2000
3100
,
0200
0310
0020
0031
,
0001
0000
0100
0000
1010
0000
0000
1000
,
0010
0000
0100
0000
0101
0000
0000
0001
,
1000
0000
0100
0000
0110
0000
0000
0010
,
0001
0000
0100
0000
0110
0000
0000
0100
,
0010
1000
1000
0010
,
0001
0000
0010
0100
0000
0100
0010
0000
,
0100
0010
1000
0001
,
1000
0010
0100
0010
1000
0001
1000
0001
,
0020
0001
0001
0001
,
0001
0031
0020
0031
,
0200
0010
0010
0010
,
0010
0010
0320
1030
,
0200
1000
1000
1000
,
2300
3010
0200
0310
,
0100
0000
0010
1000
0000
0001
0200
0000
,
0020
0000
0330
0000
,
0020
1000
1000
1000
,
2030
0000
0000
3002
0000
0000
0203
0000
,
0320
0000
0000
2030
0000
0000
3200
0000
,
0302
0000
0000
0203
0000
0000
2300
0000
,
3020
1000
1000
1000
,
2030
0000
0000
3020
0000
0000
0230
0000
,
0302
0000
0000
2003
0000
0000
3200
0000
,
0020
0000
0000
0330
,
0010
0001
0010
0001
0010
0001
0010
0001
,
0100
0001
0100
0010
0010
1000
1000
0100
,
0020
0000
0000
0000
,
0000
0000
0000
0030
,
0011
0000
0000
0000
,
0000
0000
0000
0000
,
1100
0000
0010
0000
,
1001
1001
1001
0000
,
0110
0110
0110
0000
,
0101
1010
0101
1010
,
0001
1000
0200
1300
,
0010
0100
0001
1000
,
0100
0010
0002
0013
,
0001
0000
0100
0000
0010
0000
0100
0001
,
1000
0001
0200
0310
,
0100
0010
1000
0100
,
1000
0010
0200
0301
,
1000
0000
0001
0000
0100
0000
0010
1000
,
0100
0000
2000
0000
,
3020
0000
0230
0000
,
0302
0000
0023
0000
,
0230
0000
2000
0000
,
3300
0000
2000
0000
,
3002
0000
0103
0001
,
0020
0000
0230
0000
,
2000
0000
0000
3300
,
1002
1000
1000
1003
,
2001
0001
0001
3001
,
1020
1000
1000
1030
,
0102
0000
0100
0000
0100
0000
0103
0001
,
0010
0010
0010
0010
,
0100
0100
0100
0100
,
0100
1000
0010
0000
0100
0010
1000
0000
,
0010
1000
0001
1000
0001
1000
0001
1000
,
0002
0103
2000
3100
,
1000
0100
0010
0001
0010
0000
0011
0000
,
0001
0100
0010
0000
0100
0010
1000
0000
,
0001
1000
0002
0103
,
0101
0010
1010
0100
,
0110
1001
0101
1010
,
2200
0300
0100
0000
,
0010
0000
0001
0000
,
0200
0000
0000
0000
,
0000
0000
0000
0000
,
0000
0000
0000
0000
0000
0000
0000
3300
;

//---------------dance-single - ----------------
#NOTES:
     dance-single:
     :
     Easy:
     4:
     0.239,0.600,0.102,0.235,0.000:
0000
0000
0000
0000
,
0000
0000
0000
0000
,
0000
0000
0000
0000
,
0000
0000
0000
0000
,
2002
0000
0000
0000
,
0000
0000
0000
0000
,
0000
0000
0000
0000
,
0000
0000
0000
3003
,
0000
0000
0001
0100
,
0010
0000
0000
0000
,
0000
0000
0100
0010
,
1000
0000
0000
0000
,
0000
0000
1000
0001
,
0100
0000
0000
0001
0000
0000
0010
0000
,
0200
0000
2300
0000
,
3020
0000
0230
0000
,
0300
0000
0010
1000
,
0001
0000
0000
0000
,
0000
0000
1000
0010
,
0100
0000
0000
0000
,
0000
0000
0010
1000
,
0001
0000
0000
1000
0000
0000
0002
0000
,
0200
0000
0000
0000
,
0303
0001
0100
1000
,
0200
0000
0000
0000
,
0000
0300
0010
1000
,
0200
0000
0000
0000
,
0300
0000
0100
0010
,
0002
0000
0000
0003
,
0010
0000
0001
0000
,
0100
0000
0000
0010
0000
0000
1000
0000
,
0100
0000
0000
0000
,
2000
0000
0000
3000
,
0001
0000
0000
1000
0000
0000
0010
0000
,
1000
0000
0000
0010
0000
0000
0100
0000
,
0001
0000
0000
0010
0000
0000
0100
0000
,
2000
0000
0000
3000
,
0010
0000
0000
1000
0000
0000
0010
0000
,
0100
0000
0000
0001
0000
0000
2000
0000
,
0002
0000
0000
3003
,
1001
0110
1001
0110
,
1001
0110
1001
0110
,
1001
0000
0000
0000
,
0000
0000
0000
0000
,
0100
0000
0000
0000
,
0000
0000
0000
0000
,
0010
0000
0000
0000
,
1000
0000
0000
0000
,
0001
0000
0000
0000
,
0010
0000
0000
0000
,
0100
1000
0020
0130
,
0010
1000
0001
0010
,
0100
0010
0002
0103
,
0001
1000
0100
1000
,
0010
0100
0020
1030
,
0010
0100
0001
0010
,
1000
0010
0002
0013
,
0001
0100
0010
1000
,
1001
0000
0001
0000
,
1000
0000
0100
0000
,
1000
0000
0010
0000
,
0100
0000
0001
0000
,
0000
0000
0001
0000
,
1000
0000
0010
1000
,
0100
0000
1000
0000
,
0010
0000
0100
0000
,
0110
0000
0020
0000
,
1030
0000
2000
0000
,
3100
0000
0000
1000
0000
0000
0010
0000
,
0200
0000
0301
0000
,
0000
0000
0002
0000
,
0013
0000
0000
0001
0000
0000
0010
0000
,
0200
0000
2300
0000
,
3020
0000
0000
0000
0230
0000
0000
0300
,
0001
1000
0001
1000
,
0001
0100
0020
1030
,
0010
0100
0001
0010
,
0100
1000
0200
1300
,
0100
1000
0010
0100
,
0001
0001
1000
0010
,
0110
0000
0010
0000
,
1000
0000
0100
0000
,
2000
0000
0000
0000
,
0000
0000
0000
0000
,
0000
0000
0000
0000
0000
0000
0000
3000
;

//---------------dance-single - ----------------
#NOTES:
     dance-single:
     :
     Beginner:
     1:
     0.092,0.161,0.039,0.016,0.000: // measure 1
0000
0000
0000
0000
,  // measure 2
0000
0000
0000
0000
,  // measure 3
0000
0000
0000
0000
,  // measure 4
0000
0000
0000
0000
,  // measure 5
1001
0000
0000
0000
,  // measure 6
0000
0000
0000
0000
,  // measure 7
0000
0000
0000
0000
,  // measure 8
0000
0000
0000
0000
,  // measure 9
1000
0000
0000
0000
,  // measure 10
0000
0000
0000
0000
,  // measure 11
0001
0000
0000
0000
,  // measure 12
0000
0000
0000
0000
,  // measure 13
0010
0000
0000
0000
,  // measure 14
0000
0000
0000
0000
,  // measure 15
0100
0000
0100
0000
,  // measure 16
0010
0000
0001
0000
,  // measure 17
1000
0000
0000
0000
,  // measure 18
1000
0000
0000
0000
,  // measure 19
0001
0000
0000
0000
,  // measure 20
0001
0000
0000
0000
,  // measure 21
0100
0000
0000
0000
,  // measure 22
0010
0000
0000
0000
,  // measure 23
1000
0000
0000
0000
,  // measure 24
0000
0000
0000
0000
,  // measure 25
0001
0000
0000
0000
,  // measure 26
0000
0000
1000
1000
,  // measure 27
1000
0000
0000
0000
,  // measure 28
0000
0000
0010
0010
,  // measure 29
0010
0000
0000
0000
,  // measure 30
0100
0000
0000
0000
,  // measure 31
0010
0000
0000
0000
,  // measure 32
1000
0000
0000
0000
,  // measure 33
1001
0000
0000
0000
,  // measure 34
0100
0000
0000
0000
,  // measure 35
0010
0000
0000
0000
,  // measure 36
1000
0000
0000
0000
,  // measure 37
0100
0000
0000
0000
,  // measure 38
1000
0000
0000
0000
,  // measure 39
0010
0000
0010
0000
,  // measure 40
0110
0000
0000
0000
,  // measure 41
0000
0000
0000
0000
,  // measure 42
0000
0000
0000
0000
,  // measure 43
0100
0000
0000
0000
,  // measure 44
0000
0000
0000
0000
,  // measure 45
0010
0000
0000
0000
,  // measure 46
0000
0000
0000
0000
,  // measure 47
1000
0000
0000
0000
,  // measure 48
0001
0000
0000
0000
,  // measure 49
1000
0000
0000
0000
,  // measure 50
0010
0000
0000
0000
,  // measure 51
0100
0000
0000
0000
,  // measure 52
0010
0000
0000
0000
,  // measure 53
1000
0000
0000
0000
,  // measure 54
0001
0000
0000
0000
,  // measure 55
1000
0000
0000
0000
,  // measure 56
0010
0000
0000
0000
,  // measure 57
0100
0000
0000
0000
,  // measure 58
1000
0000
0000
0000
,  // measure 59
0110
0000
0000
0000
,  // measure 60
0010
0000
0000
0000
,  // measure 61
1000
0000
0001
0000
,  // measure 62
0010
0000
0000
0000
,  // measure 63
0001
0000
0000
0000
,  // measure 64
1000
0000
0000
0000
,  // measure 65
0010
0000
0010
0000
,  // measure 66
0010
0000
0010
0000
,  // measure 67
0100
0000
0000
0000
,  // measure 68
0001
0000
0000
0000
,  // measure 69
1000
0000
0000
0000
,  // measure 70
0001
0000
0001
0000
,  // measure 71
0000
0000
1000
0000
,  // measure 72
0000
0000
0000
0000
,  // measure 73
0010
0000
0010
0000
,  // measure 74
0100
0000
0100
0000
,  // measure 75
0100
0000
0000
0000
,  // measure 76
0000
0000
0000
0000
,  // measure 77
0010
0000
0000
0000
,  // measure 78
1000
0000
0000
0000
,  // measure 79
0001
0000
0000
0000
,  // measure 80
1000
0000
0000
0000
,  // measure 81
2002
0000
0000
0000
,  // measure 82
0000
0000
0000
0000
,  // measure 83
3003
0000
0000
0000
;
