#TITLE:spiral galaxy;
#SUBTITLE:;
#ARTIST:D.J. Setup;
#TITLETRANSLIT:;
#SUBTITLETRANSLIT:;
#ARTISTTRANSLIT:;
#GENRE:;
#CREDIT:;
#BANNER:;
#BACKGROUND:;
#LYRICSPATH:;
#CDTITLE:;
#MUSIC:Spiral Galaxy.mp3;
#OFFSET:-0.399000;
#SAMPLESTART:39.360039;
#SAMPLELENGTH:10.909092;
#SELECTABLE:YES;
#BPMS:0.000000=154.000000
;
#STOPS:
;
#BGCHANGES:;
#KEYSOUNDS:;
#ATTACKS:;

//---------------dance-single - ----------------
#NOTES:
     dance-single:
     :
     Hard:
     9:
     0.578874,0.553182,0.121412,0.098647,0.303529,505.000000,16.000000,13.000000,0.000000,0.000000,0.000000,0.578874,0.553182,0.121412,0.098647,0.303529,505.000000,16.000000,13.000000,0.000000,0.000000,0.000000:
0000
0000
0000
0000
,
0000
0000
0000
0000
,
0000
0000
0000
0000
,
0000
0000
0000
0000
,
0000
0000
0000
0000
,
1000
0001
0010
0000
0100
0010
0001
1000
,
0010
0100
0001
0000
0010
1000
0100
0010
,
0100
0010
0001
0000
0010
0100
1000
0010
,
0100
0010
0001
0000
0001
0010
0100
0001
,
1000
0000
0001
0000
0010
0000
0100
1000
0000
0000
0010
0000
0100
0000
1000
0000
,
0100
0000
0010
0000
1000
0000
0001
0010
0000
0000
0100
0000
0010
0000
0001
0000
,
1000
0000
0100
0000
0010
0000
0001
0100
0000
0000
0010
0000
1000
0000
0100
0000
,
0010
0000
0001
0000
0010
0000
0100
1000
0000
0100
1000
0000
0010
0000
0100
0000
,
0001
0010
0011
0000
0100
0000
0110
0000
,
0100
1000
1010
0000
0010
0000
0101
0000
,
0001
1000
1010
0000
0001
0000
0011
0000
,
2002
0000
0000
3003
,
1000
0000
0010
0000
1000
0000
0000
0000
0100
0000
0000
0010
0001
0000
0000
0000
,
0100
0000
0010
0000
1000
0000
0000
0000
0100
0000
0000
0010
0001
0000
0000
0000
,
0100
0000
0010
0000
1000
0000
0000
0000
0100
0000
0000
0010
0001
0000
0000
0000
,
0010
0000
0100
0000
1000
0000
0000
0000
0100
0000
0000
0010
0001
0000
0000
0000
,
1000
0001
1000
0001
1000
0001
1000
0001
,
0100
0001
0100
0001
0100
0001
0100
0001
,
0010
0001
0010
0001
0010
0001
0010
0001
,
0010
0100
1000
0100
0010
0001
0010
0100
,
0000
0010
0100
0010
0000
0100
0010
0100
,
0000
0010
0001
1000
0000
1000
0010
0100
,
0000
0001
0100
0001
0000
0100
0001
0100
,
0000
0001
0100
0010
0000
0010
1000
0100
,
0010
0100
1000
0100
0000
1000
0100
1000
,
0000
0100
0010
0001
0000
0001
0010
0100
,
0010
0001
1000
0010
0000
0010
1000
0001
,
2000
0000
0000
0000
,
3001
0000
0000
1000
0000
0000
0100
0000
1000
0000
0000
0010
0000
0000
0100
0000
,
0001
0000
0010
0000
1000
0000
0010
0000
0100
0000
1000
0100
0000
1000
0100
0000
,
1000
0000
0000
0010
0000
0000
0100
0000
0001
0000
0000
0010
0000
0000
0100
0000
,
0010
0000
0001
0000
1000
0000
0010
0000
1000
0010
0000
0100
0001
0000
0010
0001
,
1000
0000
0000
1000
0000
0000
0010
0000
0100
0000
0000
0010
0000
0000
0100
0000
,
0001
0000
0010
0000
0100
0000
0010
0000
0001
0000
0010
0100
0000
0100
1000
0000
,
0100
0000
0000
1000
0000
0000
0010
0000
0100
0000
0000
0001
0000
0000
0010
0000
,
0100
0000
0001
0000
0100
1000
0000
1000
0010
0000
0010
0100
0000
0100
0001
0000
,
1020
0000
0130
0001
0020
0000
0130
0000
,
0010
0001
0100
0000
0010
1000
0001
0000
,
2010
0000
3100
1000
0020
0000
0130
0000
,
0102
0000
0000
0013
0000
0000
0000
0000
0000
0000
0000
0000
0000
0000
0000
0000
,
2001
0000
3001
0100
0020
0000
1030
0000
,
0110
0010
1000
0001
,
0011
0000
0010
0100
2100
0000
3010
0000
,
0001
0100
0001
1000
0010
0100
0001
1000
,
0001
0000
1000
0000
0010
0000
0100
0000
0001
0000
0010
0100
0000
0100
1000
0000
,
0100
0000
1000
0000
0010
0000
0100
0000
0001
0000
0100
0001
0000
0100
0001
0000
,
1000
0000
0010
0000
0100
0000
0001
0000
1000
0000
0100
1000
0000
0100
1000
0000
,
0100
0000
0010
0000
0001
0000
1000
0001
0000
0001
1000
0000
0010
0000
0100
0000
,
0001
0000
1000
0000
0100
0000
0010
0001
0000
0010
0001
0000
0010
0000
0100
0000
,
1000
0000
0010
0000
0100
0000
0001
0100
0000
0001
0100
0000
0001
0000
1000
0000
,
0001
0000
1000
0000
0100
0000
0010
0100
0000
0010
0100
0000
0010
0000
0001
0000
,
1000
0000
0000
0000
,
0001
0000
1000
0000
0010
0000
0100
0010
0000
0000
0100
0010
0100
0000
0000
0000
,
0010
0000
1000
0000
0001
0000
1000
0100
0000
0000
0010
0001
0010
0000
0000
0000
,
0001
0000
0100
0000
0010
0000
1000
0010
0000
0000
0001
0100
0001
0000
0000
0000
,
0100
0000
0010
0000
1000
0000
0001
0010
0000
0000
0100
1000
0100
0000
0000
0000
,
1000
0000
0010
0000
0100
0001
0000
1000
0000
0000
0001
0100
0001
0000
0000
0000
,
1000
0000
0010
0000
0100
0001
0000
1000
0000
0000
0100
1000
0100
0000
0000
0000
,
0010
0000
0001
0000
0010
0100
0000
1000
0000
0000
0100
0010
0100
0000
0000
0000
,
2002
0000
0000
3003
,
0001
0000
0000
0100
0000
0000
0001
0000
0100
0000
0010
0000
1000
0000
0000
0000
,
0010
0000
0000
0100
0000
0000
0001
0000
0010
0000
0010
0000
0100
0000
0000
0000
,
1000
0000
0000
0100
0000
0000
1000
0000
0010
0000
0010
0000
0100
0000
0000
0000
,
0001
0000
0000
1000
0000
0000
0100
0000
0010
0000
0010
0000
0001
0000
0000
0000
,
0010
0000
0000
0100
0000
0000
0010
0000
0001
0000
0001
0000
1000
0000
0000
0000
,
0010
0000
0000
0100
0000
0000
0001
0000
1000
0000
1000
0000
0100
0000
0000
0000
,
1000
0000
0000
0001
0000
0000
0010
0000
0100
0000
0100
0000
0010
0000
0000
0000
,
0001
0000
0000
1000
0000
0000
0100
0000
0010
0000
0010
0000
0100
0000
0000
0000
,
1000
0000
0000
0100
0000
0000
1000
0000
0010
0000
0010
0000
0100
0010
0000
0000
,
0010
0000
0000
0100
0000
0000
0001
0000
1000
0000
1000
0000
0001
1000
0000
0000
,
0001
0000
0000
1000
0000
0000
0100
0000
0010
0000
0010
0000
0100
0010
0000
0000
,
0010
0000
0000
0001
0000
0000
0010
0000
0001
0000
0010
0000
0100
1000
0000
0000
,
0100
0000
0000
1000
0000
0000
0010
0000
0100
0000
0100
0000
0010
0100
0000
0000
,
0010
0000
0000
1000
0000
0000
0001
0000
0010
0000
0010
0000
0100
0010
0000
0000
,
0010
0001
1000
0000
0100
1000
0001
0000
,
0000
1000
0100
0001
0100
1000
0010
0100
,
1001
0000
0000
0000
;

//---------------dance-single - ----------------
#NOTES:
     dance-single:
     :
     Medium:
     6:
     0.428193,0.399520,0.197294,0.075882,0.060706,359.000000,26.000000,10.000000,0.000000,0.000000,0.000000,0.428193,0.399520,0.197294,0.075882,0.060706,359.000000,26.000000,10.000000,0.000000,0.000000,0.000000:
0000
0000
0000
0000
,
0000
0000
0000
0000
,
0000
0000
0000
0000
,
0000
0000
0000
0000
,
0000
0000
0000
0000
,
1000
0100
0010
0010
,
0100
1000
0010
0010
,
0100
0001
0010
0010
,
0100
0010
0001
0001
,
1000
0001
0100
0000
0001
0000
0101
0000
,
0100
0010
1000
0000
0001
0000
1001
0000
,
1000
0100
0010
0000
0100
0000
0110
0000
,
0100
1000
0100
0000
0010
0100
0010
0000
,
0001
0011
0010
0110
,
0100
1100
1000
1010
,
0010
0110
0100
0101
,
2002
0000
0000
3003
,
0001
0100
1000
0000
0100
0000
0110
0000
,
0010
1000
0001
0000
0010
0000
0110
0000
,
0100
0010
0001
0000
1000
0000
0101
0000
,
0001
0010
1000
0000
0010
0000
0110
0000
,
0100
0010
0001
0000
1000
0000
0101
0000
,
0001
0010
0100
0000
1000
0000
0110
0000
,
0100
0010
1000
0000
0001
0000
1100
0000
,
0100
0010
1000
0000
0010
0000
0001
0000
,
0000
1000
0001
0100
0000
0001
1000
0100
,
0000
1000
0000
0100
0000
0010
0000
0001
,
0000
1000
0010
0100
0000
0100
0001
0010
,
0000
0100
0000
0010
0000
0001
0000
1000
,
0000
0001
0100
0010
0000
0100
0010
1000
,
0000
0001
0000
1000
0000
0100
0000
1000
,
0000
0010
0100
0001
0000
1000
0001
0010
,
0200
0000
0000
0000
,
0310
0100
1000
0010
,
0100
0000
0001
0000
1000
0001
0100
0001
,
0010
0100
0010
0001
,
1000
0000
0100
0000
0010
0100
1000
0010
,
0100
0001
1000
0010
,
0100
0000
0001
0000
1000
0001
0010
0001
,
1000
0010
0100
0001
,
0010
0000
0100
0000
0010
0100
1000
0010
,
0100
0000
0010
1000
0001
0000
1001
0000
,
1000
0001
0100
0001
,
0010
0000
0100
1000
0010
0000
0100
0000
,
0001
0000
0000
1000
0000
0000
0010
0000
0100
0000
0000
0000
0001
0000
0000
0000
,
1100
0000
0100
0010
0001
0000
0010
0000
,
0110
0010
0001
1000
,
1001
0000
0001
1000
1001
0000
0110
0000
,
0001
1000
0010
0000
1000
0001
0010
0000
,
0200
0010
0000
1000
,
0000
0010
0000
1300
,
0010
0001
1000
0000
0000
0000
0001
0000
,
0000
0100
0000
0010
,
0200
0010
0000
0001
,
0000
0000
1000
0000
0000
0000
0010
0300
,
0100
1001
0001
0000
1000
0100
1000
0000
,
0020
0000
0000
0030
,
0200
0001
0001
0001
,
0010
0010
0010
0310
,
0001
1000
0010
0000
0100
0000
0001
0000
,
1000
0100
0010
0000
0001
0000
0010
0000
,
0002
1000
0100
1000
,
0100
1000
0100
1003
,
1000
0001
0010
0000
0100
0000
0010
0000
,
2002
0000
0000
3003
,
1000
0000
0000
0010
0000
0000
0100
0000
0001
0000
0100
0000
0001
0000
0000
0000
,
0100
0000
0000
0010
0000
0000
1000
0000
0100
0000
0010
0000
0100
0000
0000
0000
,
0010
0000
0000
0001
0000
0000
0010
0000
0100
0000
0010
0000
0100
0000
0000
0000
,
0100
0000
0000
1000
0000
0000
0010
0000
0100
0000
0001
0000
1000
0000
0000
0000
,
0100
0000
0000
0010
0000
0000
0001
0000
0010
0000
0100
0000
1000
0000
0000
0000
,
0100
0000
0000
1000
0000
0000
0010
0000
0100
0000
0001
0000
1000
0000
0000
0000
,
0001
0000
0000
0010
0000
0000
0001
0000
0100
0000
0001
0000
1000
0000
0000
0000
,
0100
0000
0000
0010
0000
0000
0100
0000
1000
0000
0010
0000
0100
0000
0000
0000
,
0001
0000
0000
0100
0000
0000
0010
0000
1000
0000
1000
0000
0010
0000
0000
0000
,
0100
0000
0000
0001
0000
0000
1000
0000
0100
0000
0100
0000
0010
0000
0000
0000
,
0100
0000
0000
0010
0000
0000
0001
0000
1000
0000
1000
0000
0001
0000
0000
0000
,
0100
0000
0000
0001
0000
0000
0100
0000
0010
0000
1000
0000
0010
0000
0000
0000
,
0100
0000
0000
0001
0000
0000
0010
0000
0100
0000
1000
0000
0100
0000
0000
0000
,
1000
0000
0000
0010
0000
0000
0100
0000
0001
0000
1000
0000
0001
0000
0000
0000
,
1000
0000
0000
0100
0000
0000
0010
0000
0100
0000
1000
0000
0001
0000
0000
0000
,
0000
1000
0001
1000
0001
1000
0001
1000
,
1001
0000
0000
0000
;

//---------------dance-single - ----------------
#NOTES:
     dance-single:
     :
     Easy:
     4:
     0.307865,0.307323,0.121412,0.129000,0.000000,251.000000,16.000000,17.000000,0.000000,0.000000,0.000000,0.307865,0.307323,0.121412,0.129000,0.000000,251.000000,16.000000,17.000000,0.000000,0.000000,0.000000:
0000
0000
0000
0000
,
0000
0000
0000
0000
,
0000
0000
0000
0000
,
0000
0000
0000
0000
,
0000
0000
0000
0000
,
1000
0001
2000
3000
,
0001
1000
0002
0003
,
1000
0001
2000
3000
,
1000
0001
2000
3000
,
0010
0110
0100
0001
,
1000
1100
0100
0010
,
0001
1001
0001
1000
,
0010
0010
0100
0100
,
0001
1001
0000
0110
,
0000
0101
0000
1010
,
0000
1100
0000
0011
,
2002
0000
0000
3003
,
0001
0010
0000
0001
,
1000
0010
0000
0100
,
0001
0010
0000
0100
,
0010
0001
0000
1000
,
0001
0100
0001
0100
,
0010
0100
0010
0100
,
0010
1000
0010
1000
,
0010
0100
0001
1000
,
0001
1000
0000
0001
,
0000
0100
0000
0001
,
0000
1000
0000
0100
,
0000
1000
0000
0010
,
0100
0001
0000
0010
,
0000
1000
0000
0010
,
0000
0100
0000
0010
,
2002
0000
0000
3003
,
0001
1000
0100
1000
,
0001
0100
0001
0001
,
1000
0100
0010
0100
,
0010
0001
1000
1000
,
0001
0100
0010
1000
,
0100
0010
0100
0100
,
0010
0001
0010
0100
,
0010
0001
1000
1000
,
0001
0000
0100
0010
0100
0000
0010
0000
,
0100
0001
1000
0100
,
0010
0000
0001
0010
0001
0000
0010
0000
,
0200
0300
0000
0000
,
0010
0000
0001
0010
0010
0000
0001
0000
,
0100
1000
0100
0010
,
0100
0000
0100
1000
0010
0000
0100
0000
,
1001
0000
0000
0000
,
0002
0000
0000
0000
,
0000
0000
0000
0000
,
1003
0001
0100
0000
0000
0000
0001
0000
,
0000
1000
0000
0100
,
0020
0000
0000
0000
,
0000
0000
0000
0000
,
0130
0010
0001
0000
0000
0000
1000
0000
,
1001
0000
0000
0000
,
0102
0100
0000
0100
,
0000
0100
0000
0000
,
0103
0010
2000
0000
0000
0000
3010
0000
,
0000
0200
0000
0310
,
0020
1000
0000
0100
,
0000
1000
0000
0130
,
0010
1000
0001
0000
1000
0000
0010
0000
,
2002
0000
0000
3003
,
0001
1000
0100
0100
,
1000
0001
0100
0100
,
0001
0010
0100
0100
,
0010
0001
0100
0100
,
0001
1000
0010
0010
,
1000
0001
0010
0010
,
0001
0100
0010
0010
,
0100
1000
0100
0100
,
0010
0000
1000
0000
0001
0100
0001
0000
,
0100
0000
0010
0000
1000
0010
1000
0000
,
0010
0000
0100
0000
0001
1000
0001
0000
,
0100
0000
0010
0000
1000
0100
1000
0000
,
0100
0000
0010
0000
0001
0010
0100
0000
,
0010
0000
0001
0000
1000
0010
0100
0000
,
0010
0000
1000
0000
0001
0100
0010
0000
,
1000
0000
0001
0000
0100
0010
1000
0001
,
1001
0000
0000
0000
;

//---------------dance-single - ----------------
#NOTES:
     dance-single:
     :
     Challenge:
     11:
     0.823865,0.768309,0.265588,0.113823,0.918176,710.000000,35.000000,15.000000,0.000000,0.000000,0.000000,0.823865,0.768309,0.265588,0.113823,0.918176,710.000000,35.000000,15.000000,0.000000,0.000000,0.000000:
0000
0000
0000
0000
,
0000
0000
0000
0000
,
0000
0000
0000
0000
,
0000
0000
0000
0000
,
0000
0000
0000
0000
,
0001
0000
1000
0000
0000
0100
0000
0010
0001
0000
0010
0000
0100
0000
1000
0000
,
0001
0000
1000
0000
0000
0100
0000
0010
0001
0000
0010
0000
0100
0000
1000
0000
,
0001
0000
1000
0000
0000
0100
0000
0010
0001
0000
0010
0000
0100
0000
1000
0000
,
0001
0000
1000
0000
0000
0100
0000
0010
0001
0000
0010
0000
0100
0000
1000
0000
,
0001
0000
0100
0000
1010
0000
1000
0001
0000
0000
1000
0000
0100
0000
0001
0000
,
0100
0000
0010
0000
0001
0000
1000
0010
0000
0000
0100
0000
0001
0000
0100
0000
,
0010
0000
1000
0000
0001
0000
0010
0100
0000
0000
0010
0000
0001
0000
1000
0000
,
0001
0000
1000
0100
1000
0000
0010
1000
0010
0000
0100
0001
0100
0000
0001
0000
,
0010
0100
1100
0000
1000
0010
1010
0000
,
0010
0100
0101
0000
0001
0010
0011
0000
,
0010
0100
1100
0000
0100
0010
0011
0000
,
2002
0000
0000
0000
0000
0000
0000
3003
,
0001
0000
0100
0000
0110
0000
0100
0000
0010
0000
1000
0001
1000
0000
0000
0000
,
1000
0000
0100
0000
0110
0000
0010
0000
0001
0000
1000
0010
1000
0000
0000
0000
,
0010
0000
0100
0000
0101
0000
0001
0000
0010
0000
0100
1000
0100
0000
0000
0000
,
1000
0000
0010
0000
0110
0000
0100
0000
0001
0000
1000
0010
0100
0000
0001
0000
,
1000
0100
1000
0000
0100
0010
0100
0000
0010
0001
0010
0000
0001
0100
0001
0000
,
0100
0010
0100
0000
0010
1000
0010
0000
1000
0001
1000
0000
0001
1000
0001
0000
,
0001
0010
0001
0000
0010
0100
0010
0000
0100
1000
0100
0000
1000
0010
1000
0000
,
0010
0100
0010
0000
0100
0001
0100
0000
0001
1000
0001
0000
1000
0001
1000
0001
,
1000
0100
0001
0100
0010
0001
1000
0010
,
0100
0000
0001
0000
1000
0100
0000
0010
0000
0001
0100
0000
0010
0000
1000
0000
,
0001
0100
0010
1000
0001
0100
0010
1000
,
0001
0000
0010
0000
0100
1000
0000
0100
0000
1000
0100
0000
0010
0000
0001
0000
,
1000
0000
0100
0000
1100
0000
0100
0000
0010
0000
0001
1000
0010
0000
0100
0000
,
0001
0000
1000
0000
0010
0100
0000
0001
0000
0010
0100
0000
1000
0000
0010
0000
,
0100
0000
0001
0000
1001
0000
1000
0000
0001
0000
0100
0010
1000
0000
0001
0000
,
0010
0100
1000
0000
0100
0010
0000
0001
0100
0000
0010
1000
0000
0001
0010
0100
,
1000
0100
1000
0100
1000
0100
1000
0100
1000
0000
0100
0010
0000
0010
0001
0000
,
0001
1000
0001
1000
0010
0000
0010
0100
0001
0000
1000
0010
0000
0100
0001
0000
,
1000
0001
1000
0001
1000
0001
1000
0001
0100
0000
0010
0100
0000
0010
0100
0000
,
0001
0010
0100
1000
0100
0000
0010
0100
1000
0000
0001
0100
0000
0010
0100
0000
,
1000
0001
1000
0001
1000
0001
1000
0001
0100
0000
0001
0100
0000
0010
1000
0000
,
1000
0100
0010
0001
1000
0000
0010
1000
0010
0000
0100
1000
0000
0001
1000
0000
,
0100
0010
0100
0010
0100
0010
0100
0010
0001
0000
1000
0001
0000
0100
0010
0000
,
1000
0100
0010
0100
1000
0000
0001
0010
0100
0000
1000
0001
0000
0100
0010
0000
,
1020
0000
0130
0001
1002
0000
0103
0000
,
0001
0000
0100
0000
0010
0000
0000
0000
0100
0000
0010
1000
0001
0000
0000
0000
,
1020
0000
0130
0001
1002
0000
0103
0000
,
2001
0000
0000
3100
0000
0000
0000
0000
0010
0000
0001
0010
0100
0000
0000
0000
,
1002
0000
0103
0001
1020
0000
0130
0000
,
0110
0000
0010
0000
1000
0000
0000
0000
0001
0000
1000
0001
0010
0000
0000
0000
,
2001
0000
3001
1000
0210
0000
0301
0000
,
0100
0010
1000
0001
0010
0100
1000
0001
,
1000
0000
0001
0000
0100
0010
0000
1000
0000
0010
0100
0001
1000
0000
0000
0000
,
0001
0000
0010
0000
0100
1000
0000
0100
0000
1000
0100
0010
0001
0000
0000
0000
,
1001
0000
1001
0000
0001
0000
1000
0010
0000
0100
0010
1000
0001
0000
0000
0000
,
1002
0103
2001
3100
,
0001
0000
0010
0000
0100
0010
0000
0001
0000
1000
0010
0100
0001
0000
0000
0000
,
1000
0000
0010
0000
0100
0001
0000
0010
0000
0100
0010
0001
1000
0000
0000
0000
,
0101
0000
0101
0000
0100
0010
0000
1000
0000
0001
0010
0100
1000
0000
0000
0000
,
0001
0000
0010
0000
0100
0010
0001
1000
0000
0010
0100
0001
0010
0100
1000
0001
,
1000
0000
0001
0000
0010
0001
0000
0100
0000
0010
1000
0010
0100
0000
0000
0000
,
0010
0000
1000
0000
0001
0010
0000
0100
0000
0010
0001
1000
0010
0000
0000
0000
,
1100
0000
1100
0000
0100
0010
0000
0001
0000
0010
0100
1000
0001
0000
0000
0000
,
1000
0000
0010
0000
0001
0010
0000
0100
0000
0100
1000
0100
0001
0000
0010
0000
,
0100
0000
0010
0000
0001
1000
0000
0010
0000
0100
0001
0010
0100
0000
0000
0000
,
0010
0000
0100
0000
1000
0100
0000
0010
0000
0100
1000
0001
0100
0000
0000
0000
,
0101
0000
0101
0000
0100
0000
0001
0100
0000
0010
1000
0001
0010
0000
0100
0000
,
2002
0000
0000
0000
0000
0000
0000
0000
0000
0000
0000
0000
3003
0000
0000
1000
,
0001
0000
1000
0001
0000
1000
0001
0000
0100
0000
0010
0000
1000
0010
0000
0100
,
0001
0000
0001
0010
0000
0010
0100
0000
1000
0000
0100
0000
0010
0001
0000
0010
,
0100
0000
0100
1000
0000
1000
0001
0000
0100
0000
0010
0000
1000
0010
0000
0100
,
0001
0000
0001
0010
0000
0010
0100
0000
0100
1000
0001
1000
0001
0010
0000
0100
,
1000
0000
0100
0010
0000
0010
0001
0000
1000
0000
0010
0000
1000
0010
0000
1000
,
0001
0000
0010
0100
0000
0100
1000
0000
0010
0000
1000
0000
0001
0010
0000
0100
,
0010
0000
0001
0100
0000
0010
1000
0000
0001
0000
0010
0000
0001
0100
0000
0010
,
1000
0000
0001
0010
0000
0100
1000
0100
0010
0001
1000
0000
0001
1000
0000
1000
,
0001
0000
1000
0001
0000
1000
0001
0100
0001
0000
0100
0000
0010
0100
0000
0010
,
1000
0001
1000
0100
0000
0010
0100
1000
0001
0000
1000
0000
0010
0100
0000
0010
,
1000
0001
1000
0001
0000
0100
0001
0100
0001
0000
0100
0000
0010
1000
0000
0001
,
0100
0010
0100
0001
0000
1000
0100
0010
0001
0000
1000
0000
0010
1000
0000
0001
,
1000
0001
1000
0001
0000
0010
0100
1000
0010
0000
0100
0000
0010
1000
0000
0001
,
1000
0001
0010
0100
0000
0100
1000
0001
0100
0000
0010
0000
0100
0010
0000
0100
,
0001
1000
0001
1000
0000
1000
0100
0010
0001
0000
1000
0000
0010
1000
0000
1000
,
0001
0010
0100
1000
0000
1000
0010
1000
0010
0100
0010
0100
0001
0100
0001
1000
,
0001
0000
0000
0000
;

//---------------dance-single - ----------------
#NOTES:
     dance-single:
     :
     Beginner:
     1:
     0.120328,0.184394,0.037941,0.030353,0.000000,102.000000,5.000000,4.000000,0.000000,0.000000,0.000000,0.120328,0.184394,0.037941,0.030353,0.000000,102.000000,5.000000,4.000000,0.000000,0.000000,0.000000:
// measure 0
0000
0000
0000
0000
,  // measure 1
0000
0000
0000
0000
,  // measure 2
0000
0000
0000
0000
,  // measure 3
0000
0000
0000
0000
,  // measure 4
0000
0000
0000
0000
,  // measure 5
1000
0000
0000
0000
,  // measure 6
0000
0000
0000
0000
,  // measure 7
1000
0000
0000
0000
,  // measure 8
0000
0000
0000
0000
,  // measure 9
0001
0000
0000
0000
,  // measure 10
0001
0000
0000
0000
,  // measure 11
0001
0000
0000
0000
,  // measure 12
0001
0000
0000
0000
,  // measure 13
0000
1000
0000
0001
,  // measure 14
0000
1000
0000
0001
,  // measure 15
0000
1000
0000
0001
,  // measure 16
1001
0000
0000
0000
,  // measure 17
0000
0010
0000
0000
,  // measure 18
0000
0010
0000
0000
,  // measure 19
0000
0010
0000
0000
,  // measure 20
0000
0010
0000
0000
,  // measure 21
0100
0000
0000
0000
,  // measure 22
0001
0000
0000
0000
,  // measure 23
1000
0000
0000
0000
,  // measure 24
0001
0000
0000
0000
,  // measure 25
1000
0000
1000
0000
,  // measure 26
1000
0000
0000
0000
,  // measure 27
0001
0000
0001
0000
,  // measure 28
0001
0000
0000
0000
,  // measure 29
0100
0000
0100
0000
,  // measure 30
0100
0000
0000
0000
,  // measure 31
0010
0000
0010
0000
,  // measure 32
0010
0000
0000
0000
,  // measure 33
1000
1000
1000
0000
,  // measure 34
0001
0000
0000
0000
,  // measure 35
0100
0100
0100
0000
,  // measure 36
0010
0000
0000
0000
,  // measure 37
0010
0010
0010
0000
,  // measure 38
1000
0000
0000
0000
,  // measure 39
0001
0001
0001
0000
,  // measure 40
0100
0000
0000
0000
,  // measure 41
0010
0000
0100
0100
,  // measure 42
0000
0000
0000
0000
,  // measure 43
0010
0000
0100
0100
,  // measure 44
0001
0000
0000
0000
,  // measure 45
0100
0000
0010
0010
,  // measure 46
0000
0000
0000
0000
,  // measure 47
0100
0000
0010
0010
,  // measure 48
1000
0000
0000
0000
,  // measure 49
0002
0000
0000
0000
,  // measure 50
0000
0000
0000
0000
,  // measure 51
0003
0000
0000
0000
,  // measure 52
1001
0000
0000
0000
,  // measure 53
2000
0000
0000
0000
,  // measure 54
0000
0000
0000
0000
,  // measure 55
3000
0000
0000
0000
,  // measure 56
0001
0000
1000
0000
,  // measure 57
0020
0000
0000
0000
,  // measure 58
0000
0000
0000
0000
,  // measure 59
0030
0000
0000
0000
,  // measure 60
0110
0000
0000
0000
,  // measure 61
0200
0000
0000
0000
,  // measure 62
0000
0000
0000
0000
,  // measure 63
0300
0000
0000
0000
,  // measure 64
1001
0000
0000
0000
,  // measure 65
0001
0000
0000
0000
,  // measure 66
1000
0000
0000
0000
,  // measure 67
0100
0000
0000
0000
,  // measure 68
1000
0000
0000
0000
,  // measure 69
0010
0000
0000
0000
,  // measure 70
0100
0000
0000
0000
,  // measure 71
0001
0000
0000
0000
,  // measure 72
1000
0000
0000
0000
,  // measure 73
0001
0000
1000
1000
,  // measure 74
0000
0000
0001
0001
,  // measure 75
0000
0000
0100
0100
,  // measure 76
0000
0000
0010
0010
,  // measure 77
0010
0000
0100
0100
,  // measure 78
0001
0000
0100
0100
,  // measure 79
0010
0000
1000
0000
,  // measure 80
0001
1000
0010
0100
,  // measure 81
1001
0000
0000
0000
;
