#VERSION:0.83;
#TITLE:otorii INNOVATED -[i]3-;
#SUBTITLE:;
#ARTIST:NAOKI underground;
#TITLETRANSLIT:;
#SUBTITLETRANSLIT:;
#ARTISTTRANSLIT:;
#GENRE:;
#ORIGIN:;
#CREDIT:;
#BANNER:otorii INNOVATED -[i]3-.png;
#BACKGROUND:otorii INNOVATED -[i]3--bg.png;
#PREVIEWVID:;
#JACKET:otorii INNOVATED -[i]3--jacket;
#CDIMAGE:;
#DISCIMAGE:;
#LYRICSPATH:;
#CDTITLE:;
#MUSIC:otorii INNOVATED [i]3.mp3;
#OFFSET:-0.375000;
#SAMPLESTART:0.340000;
#SAMPLELENGTH:13.714286;
#SELECTABLE:YES;
#DISPLAYBPM:*;
#BPMS:0.000=210.000,
232.000=220.000,
301.000=110.000,
309.000=240.000,
434.000=120.000,
439.000=480.000,
462.000=240.000;
#STOPS:232.000=0.818,
387.000=0.125,
387.500=0.125,
400.000=0.063,
400.250=0.063,
400.500=0.063,
400.750=0.063,
401.000=0.063,
401.250=0.063,
401.500=0.063,
401.750=0.063,
434.000=1.500,
441.000=0.375,
444.000=0.250,
455.000=0.125;
#DELAYS:;
#WARPS:;
#TIMESIGNATURES:0.000=4=4;
#TICKCOUNTS:0.000=4;
#COMBOS:0.000=1;
#SPEEDS:0.000=1.000=0.000=0;
#SCROLLS:0.000=1.000;
#FAKES:;
#LABELS:0.000=Song Start;
#BGCHANGES:;
#KEYSOUNDS:;
#ATTACKS:
;

//---------------dance-single - ----------------
#NOTEDATA:;
#CHARTNAME:;
#STEPSTYPE:dance-single;
#DESCRIPTION:;
#CHARTSTYLE:;
#DIFFICULTY:Hard;
#METER:14;
#RADARVALUES:1.033962,1.542988,0.478589,0.103081,0.872504,983.000000,918.000000,65.000000,14.000000,0.000000,0.000000,6.000000,0.000000,0.000000,1.033962,1.542988,0.478589,0.103081,0.872504,983.000000,918.000000,65.000000,14.000000,0.000000,0.000000,6.000000,0.000000,0.000000;
#CREDIT:;
#NOTES:
0000
0000
0000
0000
,
0000
0000
0000
0000
,
0000
0000
0000
0000
,
0000
0000
0000
0000
,
0002
0013
0002
1003
,
0000
0100
0010
0010
0002
0000
2003
0000
,
3010
0000
0000
1000
0000
0000
0001
0000
0100
0000
0000
0001
0000
0000
1000
0000
,
0100
0000
0010
0000
0001
0000
1000
0000
0010
0100
0010
0100
0001
1000
0001
1000
,
0001
0000
1000
0010
1000
0000
1010
0000
,
0101
0000
0001
0010
0001
0000
0011
0000
,
1100
0000
1000
0001
1000
0000
1001
0000
,
0001
0001
0100
0010
0010
0100
0010
1000
,
0100
0000
0010
0001
0100
0000
0101
0000
,
1010
0000
1000
0010
0100
0000
0110
0000
,
1010
0000
1000
0001
0010
0000
0110
0000
,
0100
0100
0010
0001
0001
1000
0010
0100
,
0001
1000
0010
1000
0000
0001
1000
0100
,
1000
0000
0001
0000
0010
0000
0001
0000
1000
0001
0010
0001
1000
0010
1000
0001
,
1000
0010
1000
0001
0010
0001
1000
0100
,
0000
0000
1000
0000
0001
0000
0100
0000
0010
0100
0010
0100
0001
1000
0001
1000
,
0100
1000
0010
0100
0000
0010
0100
0001
,
1000
0000
0000
0000
0010
0000
0000
0000
1000
0001
0100
0001
1000
0100
1000
0001
,
1000
0001
0010
0001
1000
0010
1000
0100
,
0000
0000
1000
0000
0010
0000
0100
0000
0001
1000
0010
1000
0001
0010
0001
0100
,
0001
1000
0100
0001
0100
0010
0001
0100
,
1000
0100
0010
1000
0001
0010
1000
0010
,
0100
1000
0001
0100
0001
0010
0100
1000
,
0001
1000
1010
0000
0011
0000
1000
0001
,
0101
0100
0001
0000
0010
0000
0110
0000
,
1100
1001
1010
1001
,
1000
0001
0000
0010
0001
0000
1000
0000
0010
1000
0000
1000
0001
0000
0010
0000
,
0100
0000
0000
0100
0000
0000
0010
0001
0100
0010
1000
0001
,
0010
0100
0000
1000
0010
0100
0001
0100
0010
0100
0000
0010
1000
0000
0100
0000
,
0010
0000
0000
0000
0000
0000
0100
0000
0000
0010
0000
0000
0000
0000
0000
0001
0000
0000
0000
0000
0000
1000
0000
0000
0010
0000
0000
0000
1000
0000
0000
0000
0010
0000
0000
0000
0100
0000
0000
0000
0001
0000
0000
0000
0100
0000
0000
0000
,
0110
0000
0000
1001
0000
0000
0001
0100
0010
1000
0100
0010
,
0011
0000
0000
0101
0000
0000
0100
0001
0010
0001
1000
0100
,
0110
0000
0000
1100
0000
0000
0100
0010
0001
1000
0010
0100
,
0101
0000
0000
1100
0000
0000
0100
1000
0010
0100
0001
0010
,
0110
0000
0000
1100
0000
0000
0100
0010
0001
0100
0010
1000
,
1010
0000
0000
1001
0000
0000
0001
0010
0001
0100
0010
1000
,
1100
0000
0000
0011
0000
0000
0010
0001
0100
0001
1000
0100
,
1000
0010
0001
0010
1000
0010
0001
0100
1000
0100
0001
0100
,
1000
0100
0010
0100
,
2000
0000
3001
0010
0001
1000
0100
1000
,
0001
0010
0100
0010
0001
1000
0010
0100
,
0002
0000
1003
0001
0100
0010
0100
0001
,
1000
0001
0010
0100
0010
0001
1000
0010
,
0200
0000
0310
0100
0001
0010
0100
1000
,
0001
0010
0100
0010
0001
0100
0010
1000
,
0020
0000
0130
0001
1000
0100
0010
0100
,
1000
0100
0010
0100
1000
0100
0010
0100
1000
0001
0010
0100
,
1000
0001
0100
0001
1000
0100
1000
0001
0010
0001
1000
0010
,
0100
0001
0010
0001
0100
0010
0100
0001
0010
0100
1000
0001
,
0100
0001
0100
0010
1000
0010
1000
0001
0010
0001
0010
0100
,
1000
0001
1000
0010
1000
0001
0100
0010
0100
0010
1000
0001
,
0010
0100
0010
0001
0100
0010
1000
0100
1000
0010
0100
0001
,
1000
0001
0100
0001
1000
0100
1000
0001
0100
0001
1000
0100
,
0010
0100
1000
0000
0100
1000
0010
0000
0100
0001
0010
0000
0100
1000
0010
0100
,
1000
0000
0000
0000
0001
0100
0000
0100
0001
0000
1000
0000
0010
0100
0010
0000
,
1001
0000
1000
0001
0010
0001
1000
0010
,
1000
0001
1000
0010
0100
0001
0000
0001
,
0100
0010
1000
0100
1000
0001
0100
0001
,
1000
0100
0010
0100
1000
0001
0010
0100
,
0010
0001
1000
0001
0010
0001
1000
0010
,
1000
0100
1000
0010
0100
0001
0000
0001
,
0100
0000
0010
0000
4000
0004
0000
0000
0000
0000
0000
0000
0000
0000
0000
0000
,
0000
3003
0000
0001
0010
1000
0010
0100
,
0010
0000
0001
0000
1000
0010
0100
0001
1000
0100
0010
0000
0100
0000
1000
0000
,
0001
0100
0010
1000
0100
0010
0000
0010
,
0100
1000
0001
1000
0100
1000
0001
0100
,
0010
1000
0001
0010
1000
0010
0100
1000
,
0100
0001
0100
0010
0100
1000
0001
0100
,
0010
1000
0001
1000
0100
1000
0000
0001
,
0100
0000
0010
0000
4000
0004
0000
0000
0000
0000
0000
0000
0000
0000
0000
0000
,
0000
3003
0000
1000
0010
0001
0100
1000
,
0001
0100
4004
0000
0000
0000
0000
0000
,
0000
0000
0000
0000
,
3003
0000
0000
0000
1000
0010
1000
0000
0000
0010
1000
0010
1000
0000
0010
1000
,
0010
1000
0010
0000
0000
1000
0010
1000
0010
1000
0010
0000
0000
0000
0000
0000
,
0000
0000
0000
0000
0100
0001
0100
0000
0000
0001
0100
0001
0100
0000
0001
0100
,
0001
0100
0001
0000
0000
0100
0001
0100
0001
0100
0010
0000
0000
0000
0000
0000
,
0000
0000
0000
0000
1000
0100
1000
0000
0000
0100
1000
0100
1000
0000
0100
1000
,
0100
1000
0100
0000
0000
1000
0100
1000
0100
1000
0100
0000
0000
0000
0000
0000
,
1000
0001
1000
0000
0010
1000
0010
0000
0000
1000
0010
1000
0010
0000
1000
0010
,
1000
0000
0000
0010
0000
0000
1000
0000
0000
0000
0000
0000
0000
0000
0000
0010
0000
0000
1000
0000
0000
0010
0000
0000
1000
0000
0000
0010
0000
0000
1000
0000
0000
0000
0000
0000
0010
0000
0000
0000
0100
0000
0000
0000
0010
0000
0000
0000
,
0100
0000
0010
0000
0100
0000
0001
0000
0000
1000
0000
0000
0010
0000
0000
1000
0000
0000
0001
0000
0000
0010
0000
0000
,
0001
1000
0010
1000
0001
0010
0110
0000
,
0011
0000
1000
0001
0100
0001
1000
0100
,
1000
0001
0100
0001
1000
0100
0110
0000
,
1100
0000
1000
0010
0001
0010
1000
0010
,
0001
0010
1000
0010
0001
0010
1010
0000
,
0011
0000
0001
0100
1000
0100
0001
0100
,
1000
0000
0100
0000
0010
0100
0010
0100
0010
0100
0010
0100
0010
0100
0010
0100
,
0010
1000
0010
0100
0001
0000
1000
0000
0010
0000
1000
0000
0001
0000
0010
0000
,
0100
0010
0001
1000
0010
1000
0001
1000
,
0100
0010
0100
1000
0010
0100
0001
0010
,
0100
0000
0010
0000
0001
1000
0001
1000
0001
1000
0001
1000
0001
0000
0110
0000
,
1000
0001
0100
0001
0010
0100
0010
0001
,
1000
0010
0100
0001
1000
0010
0100
0001
,
1000
0000
0001
0000
1000
0000
0001
0000
0010
0100
0010
0100
0010
0100
0010
0100
,
0020
0032
0203
2300
3100
0010
1000
0001
0010
0001
0100
0010
1000
0001
0100
0010
,
1000
0100
0010
0100
1000
0001
0100
1000
,
0100
0001
0010
0100
0010
0001
0100
0010
,
1000
0010
0001
0010
0100
0001
0010
1000
,
0010
0100
1000
0010
1000
0100
0001
0100
,
1000
0010
0001
0010
0100
0001
0010
1000
,
0010
0000
0100
0000
0010
0000
0001
0000
0100
0001
1000
0001
1000
0001
1000
0001
,
0100
0001
1000
0001
1000
0001
1000
0001
0100
0010
1000
0001
0010
0001
1000
0010
,
1000
0000
0001
0000
0100
0000
0010
0000
1000
0000
0100
0000
0010
0000
0001
0000
1000
0000
0000
0000
0000
0000
0000
0000
1000
0100
0010
0001
1000
0100
0010
0001
,
1000
0010
0100
0001
0010
1000
0010
0100
0010
0001
1000
0100
0110
0000
0000
0000
,
0011
1100
1100
0011
,
1001
0101
1010
1100
,
1001
0101
0011
0110
,
1100
1001
0101
0110
,
1010
0101
0011
0110
,
1100
0110
2002
0000
,
0000
0000
0000
0000
,
0000
0000
0000
0000
,
0000
0000
0000
0000
,
0000
0000
0000
3003
;

//---------------dance-single - ----------------
#NOTEDATA:;
#CHARTNAME:;
#STEPSTYPE:dance-single;
#DESCRIPTION:;
#CHARTSTYLE:;
#DIFFICULTY:Easy;
#METER:8;
#RADARVALUES:0.430204,0.661281,0.257702,0.088355,0.000000,409.000000,374.000000,35.000000,12.000000,0.000000,0.000000,0.000000,0.000000,0.000000,0.430204,0.661281,0.257702,0.088355,0.000000,409.000000,374.000000,35.000000,12.000000,0.000000,0.000000,0.000000,0.000000,0.000000;
#CREDIT:;
#NOTES:
// measure 0
0000
0000
0000
0000
,  // measure 1
0000
0000
0000
0000
,  // measure 2
0000
0000
0000
0000
,  // measure 3
0000
0000
0000
0000
,  // measure 4
2000
3100
0020
0031
,  // measure 5
0100
0010
1000
0001
,  // measure 6
0002
0013
0200
1300
,  // measure 7
0001
0100
0010
1000
,  // measure 8
0001
0000
1000
0010
1000
0000
0001
0000
,  // measure 9
0010
0000
0100
1000
0100
0000
0010
0000
,  // measure 10
0001
0000
1000
0010
1000
0000
0100
0000
,  // measure 11
0010
0000
0000
0100
0000
0000
1000
0000
,  // measure 12
0001
0000
0010
0100
0010
0000
0001
0000
,  // measure 13
1000
0000
0010
0100
0010
0000
1000
0000
,  // measure 14
0001
0000
0010
0100
0010
0000
0001
0000
,  // measure 15
1000
0000
0000
0010
0000
0000
0100
0000
,  // measure 16
0001
0000
0000
0010
0000
0000
0100
0000
,  // measure 17
0010
0001
1000
0010
,  // measure 18
1000
0000
0100
0000
0010
0000
0000
0100
,  // measure 19
0000
0010
0100
1000
,  // measure 20
0001
0000
0000
0100
0000
0000
0010
0000
,  // measure 21
1000
0001
0010
0001
,  // measure 22
1000
0000
0100
0000
0010
0000
0000
0100
,  // measure 23
0000
1000
0010
0100
,  // measure 24
0001
1000
0010
1000
,  // measure 25
0001
0100
0001
1000
,  // measure 26
0010
1000
0001
0010
,  // measure 27
0001
1001
1001
0010
,  // measure 28
0110
0110
0100
0101
,  // measure 29
0101
1000
1010
1010
,  // measure 30
0001
0100
0001
1000
,  // measure 31
0100
0100
1000
0010
,  // measure 32
0100
0001
1000
0100
,  // measure 33
1000
1000
0010
0100
,  // measure 34
0101
1010
0000
0000
,  // measure 35
1100
0011
0000
0000
,  // measure 36
1001
0110
0000
0000
,  // measure 37
1010
1100
0000
0000
,  // measure 38
1100
0101
0000
0000
,  // measure 39
0011
1010
0000
0000
,  // measure 40
0110
1001
0000
0000
,  // measure 41
0101
1010
0101
1010
,  // measure 42
0001
0000
1000
0000
,  // measure 43
1100
0000
0000
0000
,  // measure 44
1000
0000
0010
0100
,  // measure 45
0101
0000
0000
0000
,  // measure 46
0010
0000
0100
0000
,  // measure 47
1001
0000
0000
0000
,  // measure 48
0001
0000
0010
0001
,  // measure 49
0101
0000
0110
0000
,  // measure 50
1000
0010
1000
0010
,  // measure 51
0100
0010
0100
0010
,  // measure 52
0100
0001
0100
0001
,  // measure 53
0010
0001
0010
0001
,  // measure 54
0010
0100
1000
0100
,  // measure 55
1000
0010
0100
0001
,  // measure 56
1000
0001
0100
0010
,  // measure 57
1000
0001
1000
0001
1000
0001
1000
0001
,  // measure 58
0100
0000
0000
0000
,  // measure 59
0000
0010
0100
0001
,  // measure 60
0100
0010
1000
0000
,  // measure 61
0100
1000
0010
0100
,  // measure 62
0001
0010
0100
0010
,  // measure 63
0001
1000
0100
1000
,  // measure 64
0001
0010
0100
0000
,  // measure 65
0010
0002
0000
0000
,  // measure 66
0000
0003
0000
0000
0010
0000
0100
0000
,  // measure 67
1000
0001
0100
0010
,  // measure 68
1000
0100
0010
0000
,  // measure 69
0010
0100
1000
0010
,  // measure 70
0100
0001
0010
0001
,  // measure 71
1000
0001
0100
0001
,  // measure 72
0010
0100
0010
0000
,  // measure 73
0100
0020
0000
0000
,  // measure 74
0000
0030
0000
0000
0100
0000
0010
0000
,  // measure 75
0001
0200
0000
0000
,  // measure 76
0000
0000
0000
0000
,  // measure 77
0000
0310
0000
1000
,  // measure 78
0001
0000
0100
0000
,  // measure 79
0000
0010
0000
1000
,  // measure 80
0010
0000
1000
0000
,  // measure 81
0000
0010
0000
0100
,  // measure 82
0001
0000
0010
0000
,  // measure 83
0100
0010
0000
0001
,  // measure 84
1000
0000
0010
0000
,  // measure 85
0000
1000
0001
1000
,  // measure 86
0001
1000
0001
1000
,  // measure 87
1001
0001
0100
0001
,  // measure 88
0100
0001
0100
0001
,  // measure 89
0101
0100
0010
0100
,  // measure 90
0010
0100
0010
0100
,  // measure 91
0110
0010
1000
0010
,  // measure 92
1000
0010
1000
0010
,  // measure 93
1010
0001
1000
0100
,  // measure 94
1000
0001
0100
0001
,  // measure 95
0010
0100
0010
0001
,  // measure 96
0100
0000
0010
0000
1000
0000
0001
1000
,  // measure 97
0001
0100
0001
0010
,  // measure 98
0100
0010
0001
1000
,  // measure 99
0010
0100
0001
1000
,  // measure 100
0200
0000
0320
0130
,  // measure 101
0010
0001
0100
0010
,  // measure 102
1000
0001
0010
0001
,  // measure 103
0100
0010
1000
0100
,  // measure 104
0010
0100
1000
0001
,  // measure 105
0100
0010
1000
0001
,  // measure 106
0010
0100
0010
0001
,  // measure 107
0100
0000
0010
0000
1000
0001
1000
0001
,  // measure 108
0100
0010
0100
0010
0000
0000
0200
0000
,  // measure 109
0310
1000
0001
1000
,  // measure 110
0000
0100
1000
0000
,  // measure 111
0010
0000
0100
0000
,  // measure 112
0010
0000
1000
0000
,  // measure 113
0001
0000
0010
0000
,  // measure 114
0000
0100
0000
0010
,  // measure 115
0000
0002
2000
0000
,  // measure 116
0000
0000
0000
0000
,  // measure 117
0000
0000
0000
0000
,  // measure 118
0000
0000
0000
0000
,  // measure 119
0000
0000
0000
3003
;

//---------------dance-single - ----------------
#NOTEDATA:;
#CHARTNAME:;
#STEPSTYPE:dance-single;
#DESCRIPTION:;
#CHARTSTYLE:;
#DIFFICULTY:Medium;
#METER:11;
#RADARVALUES:0.740498,1.013964,0.294516,0.176710,0.080992,704.000000,664.000000,40.000000,24.000000,0.000000,0.000000,4.000000,0.000000,0.000000,0.740498,1.013964,0.294516,0.176710,0.080992,704.000000,664.000000,40.000000,24.000000,0.000000,0.000000,4.000000,0.000000,0.000000;
#CREDIT:;
#NOTES:
0000
0000
0000
0000
,
0000
0000
0000
0000
,
0000
0000
0000
0000
,
0000
0000
0000
0000
,
0002
0103
0020
1030
,
0000
0100
0010
0100
2000
0000
3002
0000
,
0013
0000
0000
0001
0000
0000
0100
0000
0010
0000
0000
1000
0000
0000
0001
0000
,
0100
0000
0010
0000
1000
0010
0200
0000
,
0301
0000
0001
0100
0001
0000
0100
0000
,
0010
0000
1000
0010
1000
0000
0100
0000
,
0010
0000
0001
0010
0001
0000
0010
0000
,
0100
0000
1000
0010
0000
0100
0001
0000
,
1000
0000
0001
1000
0010
0000
0100
0000
,
0001
0000
0010
0100
1000
0000
0100
0000
,
1000
0000
0010
0100
0001
0000
1000
0000
,
0001
0000
1000
0010
0000
0010
0100
0000
,
0010
1000
0100
0010
0000
0100
1000
0010
,
0100
0001
1000
0100
0010
0100
1000
0001
,
0100
0010
1000
0100
0010
0100
1000
0010
,
0000
0100
0010
1000
0001
0100
0001
1000
,
0010
1000
0100
0010
0000
0100
1000
0010
,
0100
0000
0001
0000
0010
0001
0100
0010
,
1000
0001
0100
0001
1000
0100
0010
0100
,
0000
0010
0100
1000
0001
0100
0010
1000
,
0001
1000
0001
1000
0100
0010
0001
1000
,
0001
1000
0010
0100
0001
1000
0001
0010
,
0100
1000
0001
0100
0010
1000
0100
0100
,
0010
0001
0011
0000
0101
0000
0001
0000
,
0011
1100
0010
1001
,
1010
0101
0011
1100
,
1001
0000
0100
0010
1000
0000
0001
0000
,
0011
0000
1100
0000
0100
0010
0001
0100
,
0010
1010
1000
1001
,
0001
0000
0011
0000
0010
0001
0100
0010
,
1010
0101
0001
0010
,
0110
1100
0100
1000
,
1010
0110
0100
0001
,
0011
0110
0100
0010
,
0011
1010
1000
0100
,
1100
0101
0001
0100
,
0110
1001
0001
0100
,
0101
1010
1100
0011
,
1000
0001
0100
0010
,
1000
0000
0010
0000
0100
0010
1000
0001
,
0010
0100
0010
0001
,
1000
0000
0001
0100
0001
1000
0001
1000
,
0010
0100
0010
1000
,
0100
0000
1000
0001
1000
0001
0010
0100
,
1000
0100
0010
0100
,
1000
0000
0010
1000
0001
0010
0100
0010
,
0001
0000
0000
0000
0100
0000
0000
0000
0010
0000
0000
1000
0000
0000
0010
0000
,
0100
0000
0000
0000
0001
0000
0000
0000
0010
0000
0000
0100
0000
0000
0010
0000
,
0001
0000
0000
0000
1000
0000
0000
0000
0010
0000
0000
1000
0000
0000
0010
0000
,
0100
0000
0000
0000
0001
0000
0000
0000
0010
0000
0000
0100
0000
0000
1000
0000
,
0001
0000
0000
1000
0000
0000
0010
0000
1000
0000
0000
0100
0000
0000
0010
0000
,
0001
0000
0000
0100
0000
0000
0010
0000
1000
0000
0000
0001
0000
0000
1000
0000
,
0010
0100
0010
0100
0010
0100
0010
0100
,
0001
0100
0010
1000
0001
0100
0010
1000
,
1001
0000
0000
0000
,
0000
0000
0001
0100
0010
0100
0001
1000
,
0100
0010
0100
1000
0001
0010
0000
0100
,
0010
0001
1000
0010
0100
0001
0010
0001
,
0100
0010
1000
0001
0010
0100
0010
0001
,
1000
0100
0010
0001
0010
0100
1000
0010
,
0100
0010
0100
0010
1000
0001
0000
0001
,
1000
0001
4004
0000
0000
0000
0000
0000
,
0000
3003
0000
0001
0100
1000
0100
0010
,
1000
0001
0100
0001
0010
0100
0010
0001
,
1000
0010
1000
0001
1000
0010
0000
0010
,
1000
0001
0010
0100
0010
0001
0100
0010
,
1000
0100
1000
0010
1000
0001
1000
0100
,
1000
0001
0100
0010
1000
0001
0010
0100
,
0010
0001
0100
0010
1000
0001
0000
1000
,
0001
0100
0440
0000
0000
0000
0000
0000
,
0000
0330
0000
0001
0010
1000
0010
0001
,
1000
0001
0220
0000
0000
0000
0000
0000
,
0000
0000
0000
0000
,
0000
0330
1000
0001
0000
0001
0100
0000
,
0100
0010
0000
0010
1000
0001
0000
0000
,
0000
0000
0010
0100
0000
0010
0001
0000
,
0010
0100
0000
0010
0001
1000
0000
0000
,
0000
0000
0001
0100
0000
0100
1000
0000
,
1000
0100
0000
0100
0010
1000
0000
0000
,
0100
0000
1000
0010
0000
0010
0001
0000
,
0001
0010
0000
0010
1000
0000
0010
0001
,
0100
0010
2000
0000
3001
0100
0020
0000
,
0130
0001
2000
0000
3001
0100
0020
0000
,
1000
0000
0230
0000
0310
1000
0200
0000
,
0310
0001
0200
0000
0310
1000
0200
0000
,
0010
0000
2300
0000
3001
1000
0020
0000
,
1030
0001
0020
0000
0031
1000
0020
0000
,
0100
0000
1030
0001
1000
0001
1000
0001
,
1000
0001
1000
0100
0010
0001
1000
0100
,
0010
0001
1000
0001
0010
0001
0100
0010
,
1000
0100
1000
0010
0100
0001
0010
0100
,
0010
0001
1000
0001
0010
0001
1000
0010
,
0100
0001
0010
0100
1000
0010
0110
1001
,
0001
0100
0010
1000
0100
1000
0001
0100
,
0010
1000
0100
0010
0100
1000
0010
0100
,
0001
0010
0100
1000
0100
0010
0001
1000
,
0010
0100
0010
0100
0001
1000
0001
1000
0001
0000
0100
0000
1000
0000
0100
0000
,
0001
0100
0010
1000
0001
0010
0100
0010
,
0001
1000
0010
0100
0001
0010
1000
0010
,
0001
0010
0100
1000
0001
1000
0010
1000
,
0100
0010
0001
1000
0001
0010
1000
0010
,
0001
0100
0010
1000
0001
0010
0001
1000
,
0010
0100
0001
1000
0001
0100
1000
0100
,
0001
0100
1000
0100
0001
0100
0010
0001
,
0100
0000
1000
0000
0100
0000
0010
0000
0000
0000
0000
0000
0100
0010
1000
0001
,
0010
0100
0010
0001
0100
0010
1000
0001
0010
0100
1000
0001
0100
0000
0000
0000
,
0001
0020
0130
1000
,
0002
1003
0010
1000
,
0001
0010
0100
0010
,
0001
0100
0010
2000
,
3010
0100
0001
0010
,
0100
1000
2002
0000
,
0000
0000
0000
0000
,
0000
0000
0000
0000
,
0000
0000
0000
0000
,
0000
0000
0000
3003
;

//---------------dance-single - ----------------
#NOTEDATA:;
#CHARTNAME:;
#STEPSTYPE:dance-single;
#DESCRIPTION:;
#CHARTSTYLE:;
#DIFFICULTY:Beginner;
#METER:4;
#RADARVALUES:0.173554,0.340166,0.073629,0.000000,0.000000,165.000000,155.000000,10.000000,0.000000,0.000000,0.000000,0.000000,0.000000,0.000000,0.173554,0.340166,0.073629,0.000000,0.000000,165.000000,155.000000,10.000000,0.000000,0.000000,0.000000,0.000000,0.000000,0.000000;
#CREDIT:;
#NOTES:
// measure 0
0000
0000
0000
0000
,  // measure 1
0000
0000
0000
0000
,  // measure 2
0000
0000
0000
0000
,  // measure 3
0000
0000
0000
0000
,  // measure 4
1001
0000
0000
0000
,  // measure 5
0000
0001
0001
0000
,  // measure 6
1000
0000
0001
0000
,  // measure 7
0100
0000
0010
0010
,  // measure 8
1001
0000
0000
0000
,  // measure 9
1000
0000
0000
0000
,  // measure 10
0001
0000
0000
0000
,  // measure 11
0100
0000
0010
0000
,  // measure 12
0100
0000
0000
0000
,  // measure 13
0010
0000
0000
0000
,  // measure 14
1000
0000
0001
0000
,  // measure 15
1000
0000
0000
0000
,  // measure 16
1001
0000
0000
0000
,  // measure 17
0010
0000
0000
0000
,  // measure 18
0100
0000
0000
0000
,  // measure 19
0010
0000
1000
0000
,  // measure 20
0001
0000
0000
0000
,  // measure 21
0100
0000
0000
0000
,  // measure 22
0001
0000
1000
0000
,  // measure 23
0001
0000
1000
0000
,  // measure 24
0010
0000
0000
1000
,  // measure 25
0000
0000
0001
0000
,  // measure 26
0000
0100
0000
0000
,  // measure 27
0000
0010
0010
0000
,  // measure 28
1000
1000
0000
0001
,  // measure 29
1000
0001
0100
0010
,  // measure 30
1000
0000
0010
0000
,  // measure 31
0100
0100
0000
0000
,  // measure 32
0010
0000
1000
0000
,  // measure 33
0001
0001
0000
0000
,  // measure 34
1000
1000
0000
0000
,  // measure 35
0010
0010
0000
0000
,  // measure 36
0100
0100
0000
0000
,  // measure 37
0001
0001
0000
0000
,  // measure 38
1000
1000
0000
0000
,  // measure 39
0001
0001
0000
0000
,  // measure 40
0100
0100
0000
0000
,  // measure 41
0010
0010
0000
0000
,  // measure 42
1001
0000
0000
0000
,  // measure 43
0000
0000
0000
0000
,  // measure 44
0010
0000
0000
0000
,  // measure 45
0000
0000
0000
0000
,  // measure 46
1000
0000
0000
0000
,  // measure 47
0000
0000
0000
0000
,  // measure 48
0001
0000
0000
0000
,  // measure 49
0000
0000
0000
0000
,  // measure 50
0010
0000
0000
0000
,  // measure 51
0001
0000
0000
0000
,  // measure 52
0100
0000
0000
0000
,  // measure 53
0010
0000
0000
0000
,  // measure 54
1000
0000
0000
0000
,  // measure 55
0100
0000
0000
0000
,  // measure 56
1000
0000
0000
0000
,  // measure 57
0001
0000
0000
0000
,  // measure 58
0110
0000
0000
0000
,  // measure 59
0000
0010
0000
0000
,  // measure 60
0000
1000
0000
0000
,  // measure 61
0000
0001
0000
0000
,  // measure 62
0000
1000
0000
0001
,  // measure 63
0000
1000
0000
0000
,  // measure 64
0000
0010
0000
0000
,  // measure 65
0000
0100
0000
0000
,  // measure 66
0000
0000
0010
0010
,  // measure 67
0000
1000
0000
0000
,  // measure 68
0000
0001
0000
0000
,  // measure 69
0000
0010
0000
0000
,  // measure 70
0000
0001
0000
0100
,  // measure 71
0000
0010
0000
0000
,  // measure 72
0000
0100
0000
0000
,  // measure 73
0000
0001
0000
1000
,  // measure 74
0000
0000
0001
1000
,  // measure 75
0010
0000
0000
0000
,  // measure 76
0000
0000
0000
0000
,  // measure 77
0000
1001
0000
0000
,  // measure 78
0000
0000
0000
0000
,  // measure 79
0000
1001
0000
0000
,  // measure 80
0000
0000
0000
0000
,  // measure 81
0000
0110
0000
0000
,  // measure 82
0000
0000
0000
0000
,  // measure 83
0000
0110
0000
0000
,  // measure 84
0000
0000
0000
0000
,  // measure 85
0000
1000
0000
1000
,  // measure 86
0000
1000
0000
1000
,  // measure 87
0000
0001
0000
0001
,  // measure 88
0000
0001
0000
0001
,  // measure 89
0000
0100
0000
0100
,  // measure 90
0000
0100
0000
0100
,  // measure 91
0000
0010
0000
0010
,  // measure 92
0000
0010
0000
0010
,  // measure 93
0000
1000
0000
0000
,  // measure 94
0000
0001
0000
0000
,  // measure 95
0000
0100
0000
0000
,  // measure 96
0000
0010
0000
0000
,  // measure 97
1000
0000
0000
0000
,  // measure 98
0001
0000
0000
0000
,  // measure 99
0100
0000
0000
0000
,  // measure 100
0010
0000
0100
0000
,  // measure 101
0000
0000
0010
0000
,  // measure 102
0000
0000
1000
0000
,  // measure 103
0000
0000
0001
0000
,  // measure 104
0000
0000
1000
0000
,  // measure 105
0001
0000
0100
0000
,  // measure 106
0010
0000
1000
0000
,  // measure 107
0001
0000
0000
1000
,  // measure 108
0100
0010
0001
0100
,  // measure 109
0000
0000
0000
0010
,  // measure 110
0000
1000
0000
0000
,  // measure 111
1000
0000
0001
0000
,  // measure 112
1000
0000
0001
0000
,  // measure 113
0001
0000
1000
0000
,  // measure 114
0000
0001
0000
1000
,  // measure 115
0000
0000
0110
0000
;
