#VERSION:0.83;
#TITLE:onslaught;
#SUBTITLE:;
#ARTIST:PHQUASE;
#TITLETRANSLIT:;
#SUBTITLETRANSLIT:;
#ARTISTTRANSLIT:;
#GENRE:;
#ORIGIN:;
#CREDIT:;
#BANNER:;
#BACKGROUND:;
#PREVIEWVID:;
#JACKET:;
#CDIMAGE:;
#DISCIMAGE:;
#LYRICSPATH:;
#CDTITLE:;
#MUSIC:20. PHQUASE - onslaught.mp3;
#OFFSET:-0.780000;
#SAMPLESTART:0.755000;
#SAMPLELENGTH:11.881188;
#SELECTABLE:YES;
#BPMS:0.000=202.000,
89.000=101.000,
89.500=202.000,
92.500=101.000,
93.000=202.000,
258.000=404.000,
302.000=202.000,
305.000=404.000,
378.000=202.000;
#STOPS:257.500=1.931,
377.000=1.040;
#DELAYS:;
#WARPS:;
#TIMESIGNATURES:0.000=4=4;
#TICKCOUNTS:0.000=4;
#COMBOS:0.000=1;
#SPEEDS:0.000=1.000=0.000=0;
#SCROLLS:0.000=1.000;
#FAKES:;
#LABELS:0.000=Song Start;
#BGCHANGES:;
#KEYSOUNDS:;
#ATTACKS:
;

//---------------dance-single - ----------------
#NOTEDATA:;
#CHARTNAME:;
#STEPSTYPE:dance-single;
#DESCRIPTION:;
#CHARTSTYLE:;
#DIFFICULTY:Hard;
#METER:13;
#RADARVALUES:0.985196,1.333090,0.294199,0.242282,0.938841,797.000000,763.000000,34.000000,28.000000,0.000000,0.000000,0.000000,0.000000,0.000000,0.985196,1.333090,0.294199,0.242282,0.938841,797.000000,763.000000,34.000000,28.000000,0.000000,0.000000,0.000000,0.000000,0.000000;
#CREDIT:Pandemonium X;
#NOTES:
0000
0000
0000
0000
,
0000
0000
0000
0000
,
0000
0000
0000
0000
,
0000
0000
0000
0000
,
0001
0000
0001
0000
1000
0010
1000
0010
1000
0010
1000
0100
0010
0000
0010
0000
,
0001
0010
0001
0010
0001
0010
0001
0010
0100
0000
0100
0000
1000
0100
1000
0100
,
1000
0100
1000
0010
0100
0000
0100
0000
0010
1000
0010
1000
0010
1000
0010
1000
,
0001
1001
0000
1000
1010
0000
0010
0110
,
0000
0000
0000
0100
0000
0000
1001
0000
1000
0000
0100
0000
0010
0000
0001
0000
0100
0000
1000
0000
0100
0000
0001
0000
,
0100
0010
1000
0002
0000
0000
0000
0000
0000
0000
0000
0000
0000
0000
0000
0000
,
0003
0000
1002
0000
0103
0020
0000
0130
,
0002
0000
1000
0000
1000
0000
1003
0001
,
0010
0000
0001
0000
0100
0000
0000
0010
1000
0000
0000
1000
0001
0000
0000
0001
,
0010
0000
0000
0001
0100
0000
0000
0100
0010
0000
0000
0010
1000
0000
0000
1000
,
0001
0000
0000
0001
0010
0000
0100
0000
1000
0000
0100
0000
1000
0000
0010
0000
,
0001
0010
0000
0100
0010
0001
0100
1000
,
0100
0000
0010
0000
1000
0000
0001
0100
0010
0000
1000
0000
0100
0000
0001
0000
,
0100
0010
0000
0100
0010
0001
1000
0010
,
1000
0001
1000
0001
2000
0000
0000
0000
3100
0000
0020
0000
0000
0000
0130
0000
,
2000
0000
0001
0000
0001
0000
3001
0100
,
0010
0000
1000
0000
0001
0000
0000
1000
0100
0000
0000
0100
0010
0000
0000
0010
,
0001
0000
0000
0001
0100
0000
0000
0100
0010
0000
0000
0010
1000
0000
0000
1000
,
0001
0000
0000
0001
2000
0000
3000
0000
0001
0000
0010
0000
0001
0000
0010
0000
,
0100
2000
3000
0100
1000
0100
0010
0001
,
2000
0100
0010
3002
,
0203
1000
0010
0001
,
0310
0000
0000
0000
0000
0000
0000
0000
0000
0000
0000
0000
0100
0000
0000
0000
0010
0000
0000
0000
1000
0000
0000
0000
0001
0000
0000
1000
0000
0000
0001
0000
0000
0000
0000
0000
1000
0000
0000
0100
0000
0000
0010
0000
0000
0001
0000
0000
,
1000
0100
0010
0001
1000
0000
0000
0000
0101
0000
0000
0000
0011
0000
0000
0000
,
0010
0000
0000
0000
0100
0000
0000
0000
1000
0000
0000
0000
0010
0000
0000
0100
0000
0000
0001
0000
0000
0000
0000
0000
0000
0000
0000
0000
0000
0000
0001
0000
0000
0010
0000
0000
0100
0000
0000
1000
0000
0000
0001
0000
0000
0010
0000
0000
,
0100
0000
1100
0000
0100
0000
0000
0000
0010
0001
1000
0001
0100
0000
0010
0000
,
1000
0001
0010
0100
0010
0001
1000
0010
,
0100
0000
0001
0000
1000
0000
0010
1000
0010
0000
0100
0010
0100
0000
0010
0000
,
1000
0001
1000
0010
1000
0100
0010
0001
,
0100
0000
0010
0000
0100
0000
0001
0000
1000
0000
0010
0000
1000
0000
0001
1000
,
0001
0000
1000
0000
0010
0000
0100
0000
0010
0000
1000
0000
0001
0000
0010
0100
,
1000
0000
0000
0000
0000
0000
0100
0000
0000
0000
0000
0000
1000
0000
0000
0000
0000
0000
0010
0000
0000
0000
0000
0000
0100
0000
0000
0000
0010
0000
0000
0000
1000
0000
0000
0000
0001
0000
0000
0000
0000
0000
1000
0000
0000
0100
0000
0000
,
0010
0000
0000
0100
0000
0000
1000
0000
0000
0010
0000
0000
0100
0000
0000
0001
0000
0000
0011
0000
0000
0000
1100
0000
,
0000
0000
0011
0000
0000
0000
1100
0000
0000
0000
0011
0000
0000
0000
0000
0000
0000
0000
1000
0000
0000
0001
0000
0000
,
0010
0100
1000
0010
0100
0010
1000
0001
,
1000
0000
0100
0000
0010
0000
0001
0010
0001
0000
1000
0001
1000
0000
0001
0000
,
0010
0100
0010
0001
1000
0010
0100
0001
,
1000
0001
1000
0100
0010
0001
1000
0001
,
0010
0000
0100
0010
0100
0000
0010
0000
0001
0000
1000
0000
0001
0000
0010
0000
,
0100
0000
1000
0010
0100
0000
0010
0000
1000
0000
0001
0000
1000
0000
0001
0000
,
0010
0000
0100
1000
0001
0000
1000
0000
0010
0000
0100
0001
0010
0000
0001
0000
,
1000
0100
0010
0001
1000
0100
0010
0001
1000
0010
0000
0000
,
0010
0000
0000
0000
0100
0000
0000
0000
0001
0000
0000
0000
1000
0000
0000
0001
0000
0000
1000
0000
0000
0000
0000
0000
0001
0000
0000
0010
0000
0000
0100
0000
0000
1000
0000
0000
0001
0000
0000
0010
0000
0000
0100
0000
0000
1000
0000
0000
,
0001
0000
0000
1010
0000
0000
1100
0000
0000
0100
0010
0001
,
0100
0010
1000
0000
0000
0000
1000
0100
0010
0001
1000
0010
0100
0000
0000
0000
,
0110
0000
0000
0000
0000
0000
0000
0000
0000
0000
0000
0000
0001
0000
0000
1000
0000
0000
0010
0000
0000
0100
0000
0000
0001
0000
0000
0000
0000
0000
0000
0000
0000
0000
0000
0000
1000
0000
0000
0000
1000
0000
0000
0000
0001
0000
0000
0000
,
0100
0010
1000
0000
0001
0100
0010
1000
0100
0010
0001
0000
0011
0000
0000
0000
,
1100
0000
0000
0000
0000
0000
0000
0000
0000
0000
0000
0000
1001
0000
0000
0000
0000
0000
0000
0000
0000
0000
0000
0000
0001
0000
0000
0000
0001
0000
0000
0000
0100
0000
0000
0000
0010
0000
0000
1000
0000
0000
0001
0000
0000
0000
0000
0000
,
1000
0010
0100
0001
0010
0100
1000
0001
0010
0000
0000
0000
1100
0000
0000
0000
,
0001
1000
0001
1000
0001
1000
0001
1000
0001
0100
0010
1000
0001
0000
0000
0000
,
1000
0010
0100
0001
1000
0010
1000
0001
0010
0000
0000
0000
0100
0010
0001
0100
,
1000
0100
0010
1000
0001
0000
0000
0000
1000
0001
0010
0000
0000
0000
0001
1000
,
0010
0000
0000
0000
1000
0001
0010
0000
1000
0001
0010
0000
0110
0000
0000
0000
,
0000
0000
0000
1010
0000
0000
0000
0000
0000
0000
0101
0000
0101
0000
0000
0000
,
0000
0000
0000
0000
0000
1001
0000
0000
,
0000
0011
0000
0000
0000
0000
0000
0000
1010
0000
1010
0000
0000
0000
0000
0000
,
0000
0000
0000
2002
0000
3003
0000
1000
,
0000
0000
0001
0000
0000
0000
1000
0000
0000
0000
0001
0000
0000
1000
0000
0000
,
0001
0000
0000
0000
0000
0000
0000
0000
0000
1000
0000
0000
0000
0000
0000
0000
0000
0000
0001
0000
0000
0000
0000
0000
0000
0000
1000
0000
0000
0000
0000
0000
0000
0001
0000
0000
0000
0000
0000
1000
0000
0000
0000
0000
0000
0001
0000
0000
,
0000
0000
0000
1000
0000
0000
0000
0000
0000
0001
0000
0000
0000
0000
0000
1000
0000
0000
0000
0000
0001
0000
0000
0000
1000
0000
0000
0000
0001
0000
0000
0000
0000
0000
1000
0000
0000
0000
0001
0000
0000
0000
1000
0000
0000
0000
0001
0000
,
1000
0001
1000
0001
1000
0001
1000
0000
2002
0000
0000
0000
3003
0000
0000
0000
,
0001
0000
0100
0001
0100
0000
0010
0000
,
1000
0100
1000
0000
0100
0000
0010
0000
,
0001
0000
0100
0000
0010
0000
1000
0010
,
1000
0000
0010
0000
0100
0001
0100
0000
,
0001
0010
0100
1000
,
0001
0000
0000
0000
1000
0000
0000
0000
0100
0000
0000
0000
0010
0000
0000
0000
0000
0000
0100
0000
0000
1000
0000
0000
,
0010
0000
0100
0000
0001
0010
0100
0000
,
0010
0001
0100
0010
,
1000
0000
0000
0010
0000
0000
0100
0000
0000
0001
0000
0000
0010
0000
0000
0000
0100
0000
0000
0000
1000
0000
0000
0000
,
0001
0000
1000
0000
0001
0000
0010
0000
0001
0000
1000
0000
,
0100
0010
0001
0100
0001
0010
1000
0010
,
0001
0100
0010
0000
1000
0000
0001
0000
0010
0000
0000
0000
0100
0000
0000
0000
,
1000
0010
0100
0000
0001
0000
1000
0000
,
0001
0000
0100
0000
0001
0000
1000
0100
,
0010
0000
0001
0000
0100
0010
1000
0000
,
0010
0000
0100
0000
0001
0000
1000
0010
,
1000
0000
0000
0010
0000
0000
0100
0000
0000
0000
0010
0000
0000
0000
1000
0000
0000
0000
0001
0000
0000
0000
0000
0000
,
0100
0010
1000
0000
0001
0000
0010
0100
,
1000
0100
1000
0010
,
0100
0000
0000
0000
0000
0000
0001
0000
1000
0000
0001
0000
1000
0000
0000
0001
0000
0000
1000
0000
0000
0000
0100
0000
,
0000
0010
0000
0001
0000
0100
0000
0010
0000
1000
0000
0100
,
0010
0001
0100
0010
1000
0001
0010
0000
,
1000
0010
0001
0100
,
1000
0000
0100
0010
1000
0001
0010
0000
,
1000
0010
0001
0100
,
1000
0000
0100
0010
1000
0001
0010
0000
,
0200
0000
0000
2000
0000
0300
0002
0000
,
3000
2000
0000
0000
0000
0000
0003
0002
0000
0000
0000
3000
0000
0000
0020
0000
,
0000
0000
0003
0200
0000
0000
0000
0000
,
0000
0000
0000
0000
0330
0000
0000
0000
0100
0000
0100
0000
1000
0001
1000
0001
,
1000
0001
1000
0001
0010
0000
0010
0000
0100
1000
0100
1000
0100
1000
0100
1000
,
0000
0000
2002
0000
0000
3003
0000
0000
0001
0000
0001
0000
1000
0100
1000
0100
,
1000
0100
1000
0100
0010
0000
0010
0000
0001
1000
0001
1000
0001
1000
0001
1000
,
0000
0000
0000
0001
0200
0000
0000
0000
0310
0000
0010
0000
1000
0010
1000
0001
,
0010
0100
1000
0001
0100
0000
0100
0000
0010
0100
0001
1000
0100
0010
0001
1000
,
0010
0000
0010
0000
0100
0010
1000
0001
0010
0100
1000
0001
0010
0000
0010
0000
,
0100
0010
0001
1000
0001
0010
0100
1000
0001
0000
1001
0000
0000
0000
1000
0000
,
1010
0000
0000
0000
0000
0000
0010
0000
0000
0110
0000
0000
0000
0000
0000
0100
0000
0000
0001
0000
1000
0000
0001
0000
,
0100
0000
0000
0000
0001
0000
0000
0000
1000
0000
0000
0000
0010
0000
0000
0000
1000
0000
0000
0000
0001
0000
0000
0000
0010
0000
0000
0100
0000
0000
1000
0000
0000
0001
0000
0000
0000
0000
0000
0000
0000
0000
0000
0000
0000
0000
0000
0000
,
0000
0000
0000
0000
0000
0000
0000
0000
0000
0000
0000
0000
0000
0000
0000
0000
0000
0000
0000
0000
0000
0000
0000
0000
0000
0000
0000
0000
0000
0000
0000
0000
0000
0000
0000
0000
0000
0000
0000
0000
0000
0000
0000
0000
0000
0000
0000
0000
0000
0000
0000
0000
0000
0000
1000
0000
0000
0000
0000
0000
0000
0000
0000
0000
0000
0000
0000
0000
0001
0000
0000
0000
0000
0000
0000
0000
0000
0000
0000
0000
0000
0000
0000
0000
1000
0000
0000
0000
0000
0000
0000
0000
0000
0000
0000
0000
0000
0000
0000
0000
0010
0000
0000
0000
0000
0000
0000
0000
0000
0000
0000
0000
0000
0000
0000
0000
1000
0000
0000
0000
0000
0000
0000
0000
0000
0000
0000
0000
0000
0000
0000
0000
0001
0000
0000
0000
0000
0000
0000
0000
0000
0000
0000
0000
0000
0000
0000
0000
0100
0000
0000
0000
0000
0000
0000
0000
0000
0000
0000
0000
0000
0000
0000
0000
0001
0000
0000
0000
0000
0000
0000
0000
0000
0000
0000
0000
0000
0000
0000
0000
1000
0000
0000
0000
0000
0000
0000
0000
0000
0000
0000
0000
,
0100
0010
0001
2000
0002
0000
0000
0000
0000
0000
0000
0000
0000
0000
0000
0000
,
0000
3003
0000
0000
;

//---------------dance-single - ----------------
#NOTEDATA:;
#CHARTNAME:;
#STEPSTYPE:dance-single;
#DESCRIPTION:;
#CHARTSTYLE:;
#DIFFICULTY:Medium;
#METER:9;
#RADARVALUES:0.582218,0.827435,0.415340,0.328811,0.047591,471.000000,423.000000,48.000000,38.000000,0.000000,0.000000,0.000000,0.000000,0.000000,0.582218,0.827435,0.415340,0.328811,0.047591,471.000000,423.000000,48.000000,38.000000,0.000000,0.000000,0.000000,0.000000,0.000000;
#CREDIT:Pandemonium X;
#NOTES:
0000
0000
0000
0000
,
0000
0000
0000
0000
,
0000
0000
0000
0000
,
0000
0000
0000
0000
,
0001
0000
1000
0010
0100
0001
0010
0000
,
0100
0010
0001
1000
0010
0000
0100
0010
,
1000
0001
0010
0000
0100
0010
0001
1000
,
0010
1000
0000
0100
0001
0000
0001
0010
,
0000
0100
2000
0000
0000
0000
0000
0000
,
0000
3000
0000
0000
,
0020
0000
0130
0000
0001
1000
0000
1000
,
0200
0000
0000
0000
,
0000
0300
0020
0032
,
0203
0320
2030
3002
,
2003
0000
3010
1000
0001
0010
0100
1000
,
0001
1000
0000
1000
0100
0010
0001
1000
,
0001
1000
0000
0001
0010
0100
1000
0001
,
1000
0001
0000
1000
0100
0010
0001
1000
,
0020
0000
0130
0000
0001
0100
0000
0010
,
2000
0000
0000
0000
,
0000
3000
0002
0203
,
0320
2030
3200
0320
,
0032
0000
1003
0000
0001
0010
0100
1000
,
0001
1000
0000
1000
0100
0010
0001
1000
,
0002
0000
0100
0000
0100
0000
0103
0010
,
2000
0001
0001
3001
,
1001
0000
0001
0100
0010
1010
0000
1000
,
0001
0100
0101
0000
0011
0000
1001
0000
,
0001
1000
0100
1100
0000
1000
0001
0010
,
0110
1001
0210
0301
,
0100
0010
1000
0100
,
0001
0000
0100
0000
0010
0001
1000
0000
,
0001
0100
1000
0100
,
0010
0000
0001
0000
0010
0000
1000
0100
,
0010
0001
1000
0001
1000
0010
0000
0100
,
0010
1000
0001
0010
0001
0000
0000
1000
,
0001
0000
0000
0010
0000
0000
0100
0000
0000
1000
0000
0000
0002
0000
0000
0000
0000
0000
0103
0000
0000
0000
0001
0000
,
0000
0100
0000
0010
0000
1000
0000
0000
0000
0001
0000
0000
,
0010
0100
0010
0001
,
1000
0000
0010
0000
0100
0001
0100
0000
,
0010
1000
0100
0001
,
0100
0010
0001
1000
,
0000
0001
0100
0010
1000
0001
0000
0000
,
0000
1000
0100
0010
0001
1000
0001
0000
,
0000
1000
0001
0100
0001
0010
0000
0000
,
0100
1000
0010
0101
,
0001
0100
0010
1010
0000
1000
0001
1000
,
1001
0000
0110
0000
0101
0000
0001
1000
,
0100
0110
0000
0010
0001
1000
1001
0000
,
0101
0000
1002
0000
0103
0000
0010
1000
,
0001
0011
0000
0010
0100
1000
1001
0000
,
0110
0000
1001
0000
0001
1000
0010
1010
,
0000
1000
0001
0100
0101
0000
1010
0000
,
1002
0000
1003
0100
1000
0100
0010
0000
,
0001
0100
0001
0100
0010
0000
1000
0001
,
1000
0001
0010
0000
1100
0000
0000
0011
,
0000
1001
1010
0110
,
0000
0000
0000
0101
0000
0000
0000
0000
0000
0000
1001
0000
1001
0000
0000
0000
,
0000
0000
0000
0000
0000
0011
0000
0000
,
0000
1100
0000
0000
0000
0000
0000
0000
1001
0000
1001
0000
0000
0000
0000
0000
,
0000
0000
0000
0220
0000
0000
0000
0000
,
0000
0000
0000
0000
,
0000
0000
0000
0000
,
0000
0000
0000
0000
,
0000
0000
0330
0000
,
0001
0000
0100
0001
,
0000
0100
0010
1000
,
0001
0010
0100
0000
,
1000
0100
0000
1000
,
0010
0100
0001
1000
,
0001
0010
0100
0010
,
0001
1000
0000
0001
,
1000
0100
1000
0001
,
0100
0001
0020
0000
,
0230
0000
2300
0000
,
3001
0000
1000
0000
0010
0100
0001
1000
,
0010
0100
0001
0000
0000
0000
1000
0000
,
0100
0000
0010
0001
,
0100
0001
1000
0100
,
0000
0010
0100
0000
,
0010
0001
1000
0010
,
1000
0002
0000
1003
,
0000
0100
0010
0000
,
0100
0010
0001
1000
,
0010
0200
0000
0301
,
0000
1000
0000
0000
0000
0010
0000
0000
0000
0100
0000
0000
,
0000
0001
0000
0000
0000
1000
0000
0000
0000
0001
0000
0000
,
1000
0010
1000
0100
,
0010
0000
0000
0001
,
1000
0010
1000
0001
,
0010
0000
0000
0010
,
0100
0000
0000
1000
0000
0000
0001
0000
,
0000
1000
0000
0000
0000
0000
0000
0001
0000
0000
0000
0000
0000
0000
0020
0000
,
0000
0000
0000
0200
0000
0000
0000
0000
,
0000
0000
0330
0000
0010
0110
0000
0000
,
0000
0000
1000
1001
0000
0000
0000
0000
,
0000
0201
0000
0300
1000
1010
0000
0000
,
0000
0000
0001
0101
0000
0000
0000
0000
,
0001
0000
2000
0000
3100
0100
0010
0001
,
1000
0010
0100
0100
0010
1000
0001
0010
,
0100
0100
0010
0001
1000
0001
0010
0010
,
0100
1000
0100
0010
0001
1001
0000
1000
,
1001
0000
0010
0110
0000
0100
0001
0010
,
0100
1000
0100
0010
0100
1000
0000
0000
,
0000
0000
0100
0010
0100
1000
0100
0010
,
0001
0100
2002
0000
0000
0000
0000
0000
,
0000
3003
0000
0000
;

//---------------dance-single - ----------------
#NOTEDATA:;
#CHARTNAME:;
#STEPSTYPE:dance-single;
#DESCRIPTION:;
#CHARTSTYLE:;
#DIFFICULTY:Challenge;
#METER:14;
#RADARVALUES:1.206463,1.470995,0.623010,0.692233,1.323896,976.000000,904.000000,72.000000,80.000000,0.000000,0.000000,0.000000,0.000000,0.000000,1.206463,1.470995,0.623010,0.692233,1.323896,976.000000,904.000000,72.000000,80.000000,0.000000,0.000000,0.000000,0.000000,0.000000;
#CREDIT:;
#NOTES:
0000
0000
0000
0000
,
0000
0000
0000
0000
,
0000
0000
0000
0000
,
0000
0000
0000
0000
,
1100
0000
0101
0000
1000
0100
0010
0001
0010
0100
1000
0001
1000
0000
1001
0000
,
1000
0010
0100
0001
0100
0010
1000
0001
1000
0000
1001
0000
0001
0010
1000
0010
,
0001
1000
0001
0100
0010
0000
1001
0000
1000
0100
0001
0100
1000
0001
1000
0010
,
1010
2020
3030
0101
0202
0303
0011
0022
,
0033
0000
0000
1100
0000
0000
1100
0000
0010
0000
0010
0000
0100
0000
0001
0000
0001
0000
0010
0000
0100
0000
0100
0000
,
1000
0010
0100
0001
0000
0000
0000
0000
0000
0000
0000
0000
0000
0000
0000
0000
,
1001
0000
2100
0000
3001
0102
0000
1003
,
1002
0000
0000
0000
0010
0000
0010
0000
0100
0000
0103
0000
1000
0010
0100
0000
,
0001
0000
1000
0000
0100
0000
0000
0000
0001
0010
0001
0000
1000
0100
1000
0000
,
0001
0100
0001
0000
1000
0010
1000
0000
0001
0010
0100
0000
1000
0100
0010
0000
,
0001
1000
0001
0000
1001
0000
1000
0010
0001
0000
0010
0000
0100
0000
0020
0000
,
1030
0000
0001
0000
1001
0000
0001
0100
1000
0000
0100
0000
0010
0000
0200
0000
,
0301
0000
1000
0000
0001
0000
0010
1000
0001
0000
0100
0000
1000
0000
0010
0000
,
0001
0000
1000
0000
0100
0000
0001
1000
0010
0000
0100
0000
0001
1000
0100
0000
,
0010
0001
0010
0001
2000
0000
0000
0000
3001
0000
0012
0000
0000
0000
1003
0000
,
1002
0000
0000
0000
0100
0000
0100
0000
0010
0000
0013
0000
1000
0100
0010
0000
,
0001
0000
1000
0000
0010
0000
0000
0000
0001
0100
0001
0000
1000
0010
1000
0000
,
0001
0010
0001
0000
1000
0100
1000
0000
0001
0100
0010
0000
1000
0010
0100
0000
,
0001
1000
0001
0000
2002
0000
3000
0000
1003
0100
0001
0000
0100
0000
0010
0000
,
0100
0000
2002
0000
0003
0000
3001
0010
1000
0000
0010
0000
0100
0000
0010
0000
,
0002
0000
0100
0000
1003
0000
0001
0100
0010
0000
1000
0000
0001
0000
0001
0000
,
1000
0100
0001
0100
0010
0001
1000
0010
0001
0010
0100
0001
,
2002
0000
0000
0000
0000
0000
3000
0000
0103
0000
0000
0000
1000
0000
0000
0000
0100
0000
0000
0000
0010
0000
0000
0000
1000
0000
0000
0100
0000
0000
0010
0000
0000
0001
0000
0000
1000
0000
0000
0001
0000
0000
0100
0000
0000
0010
0000
0000
,
1000
0000
0000
0001
0000
0000
1000
0000
0000
0100
0000
0000
0010
0000
0000
0001
0000
0000
1000
0000
0000
0001
0000
0000
0100
0000
0000
0010
0000
0000
1000
0000
0000
0001
0000
0000
2000
0000
0000
0000
0000
0000
0000
0000
3010
0000
0000
0000
,
0001
0000
0000
0000
0010
0000
0000
0000
0100
0000
0000
0000
0001
0000
0000
0010
0000
0000
0100
0000
0000
1000
0000
0000
0001
0000
0000
1000
0000
0000
0010
0000
0000
0100
0000
0000
0001
0000
0000
1000
0000
0000
0001
0000
0000
0010
0000
0000
,
0100
1000
0001
1000
0010
0100
0001
1000
0010
0100
0010
0100
0002
0000
1003
0010
,
1000
0000
0002
0000
1003
0100
1000
0000
0010
0100
0001
0000
1000
0000
0001
0100
,
0001
0000
1000
0010
1000
0000
0001
0010
0001
0000
1000
0000
0001
0000
0010
0000
,
0100
1000
0001
0000
0100
0001
1000
0000
0010
1000
0001
0000
1000
0100
0001
0000
,
0100
1000
0001
0000
1000
0010
0001
0000
0010
1000
0001
0000
2000
0000
3100
0010
,
0001
0000
1000
0000
0001
0000
0011
0000
1000
0000
1010
0000
0002
0000
0013
0100
,
1000
0000
0000
0000
0000
0000
0001
0000
0000
0000
0000
0000
1000
0000
0000
0000
0000
0000
1100
0000
0000
0000
0000
0000
0001
0000
0000
0000
0100
0000
0000
0000
0010
0000
0000
0000
1000
0000
0000
0000
0000
0000
0001
0000
0000
0010
0000
0000
,
1000
0000
0000
0000
0000
0000
0010
0000
0000
0000
0000
0000
0001
0000
0000
0000
0000
0000
1000
0000
0000
0100
0000
0000
0020
0000
0000
0000
0000
0000
0030
0000
0000
0000
0000
0000
0011
0000
0000
0000
0000
0000
0000
0000
1100
0000
0000
0000
,
0000
0000
0000
0000
0101
0000
0000
0000
0000
0000
0000
0000
1010
0000
0000
0000
0000
0000
0000
0000
2002
0000
0000
0000
0000
0000
0000
0000
3003
0000
0000
0000
0000
0000
0000
0000
2000
0000
0000
0000
0000
0000
3001
0000
0000
0100
0000
0000
,
0001
0000
2000
0000
3001
0010
0001
0000
0100
0010
1000
0000
0001
0000
1000
0010
,
1000
0000
0001
0100
0001
0000
1000
0100
1000
0000
0001
0000
1000
0000
0100
0000
,
0010
0001
1000
0000
0010
1000
0001
0000
0100
0001
1000
0000
0001
0010
1000
0000
,
0010
0001
1000
0000
0001
0100
1000
0000
0100
0001
1000
0000
0002
0000
0010
0000
,
0103
0000
0001
0100
1000
0000
1000
0100
0010
0000
1000
0000
0002
0000
0100
0000
,
0013
0000
0001
0010
1000
0000
1000
0010
0100
0000
1000
0000
0020
0000
0100
0000
,
0031
0000
0000
0000
0000
0000
0010
0000
0000
1000
0000
0000
0001
0000
0000
0000
0000
0000
0010
0000
0000
0001
0000
0000
1000
0000
0000
0000
0000
0000
0100
0000
0000
0000
0000
0000
1000
0000
0000
0000
0010
0000
0000
0000
0001
0000
0000
0000
,
1000
0000
0100
0000
0010
0000
1000
0000
0100
0000
0001
0000
1000
0000
0010
0000
0100
0000
2002
0000
0000
3000
0103
0000
,
1000
0000
0000
0000
0100
0000
0000
0000
0010
0000
0000
0000
1000
0000
0000
0100
0000
0000
0010
0000
0000
0001
0000
0000
1000
0000
0000
0001
0000
0000
0100
0000
0000
0010
0000
0000
1000
0000
0000
0001
0000
0000
1000
0000
0000
0100
0000
0000
,
0010
0000
0000
0001
0000
0000
1000
0000
0000
0001
0000
0000
0100
0000
0000
0010
0000
0000
1000
0000
0000
0001
0000
0000
2000
0000
0000
0000
0000
0000
0000
0000
3010
0000
0000
0000
0001
0000
0000
0000
0010
0000
0000
0000
0100
0000
0000
0000
,
0001
0010
0100
1000
0001
1000
0010
0100
0001
1000
0001
0010
0100
1000
0001
1000
,
0010
0000
0000
0100
0000
0000
0001
0000
0000
1000
0000
0000
0010
0000
0000
0100
0000
0000
0010
0000
0000
0100
0000
0000
0002
0000
0000
0000
1000
0000
0000
0000
1003
0000
0000
0000
0001
0000
0000
0000
0100
0000
0000
0000
1000
0000
0000
0000
,
0100
0010
1000
0001
0010
0100
1000
0010
0100
0001
1000
0001
0100
0010
1000
0001
,
1000
0000
0000
0100
0000
0000
0010
0000
0000
0001
0000
0000
2000
0000
0000
0000
0000
0000
0000
0000
3001
0000
0000
0000
1000
0000
0000
0000
0010
0000
0000
0000
0001
0000
0000
0000
0010
0000
0000
0100
0000
0000
0001
0000
0000
1000
0000
0000
,
0100
0010
0001
0100
0010
1000
0001
1000
0010
0100
0001
1000
0001
0010
0100
1000
,
0010
0000
0000
0100
0000
0000
0010
0000
0000
0100
0000
0000
0001
0000
0000
0000
0010
0000
0000
0000
0001
0000
0000
0000
1000
0000
0000
0010
0000
0000
0100
0000
0000
0001
0000
0000
0100
0000
0000
0000
0000
0000
0000
0000
0000
0000
0000
0000
,
0001
0000
0000
0000
0010
0000
0000
0000
0001
0000
0000
0000
1000
0000
0000
0010
0000
0000
0100
0000
0000
0001
0000
0000
1000
0000
0000
0010
0000
0000
0000
0000
0000
0000
0000
0000
1001
0000
0000
0000
0001
0000
0000
0000
1000
0000
0000
0000
,
0001
0010
0100
1000
0001
0000
0000
0000
0001
0010
0100
1000
0000
0000
0001
0100
,
0010
1000
0000
0000
0001
0010
1000
0010
0001
0100
1000
0100
0002
0000
0000
0000
,
0003
0000
0000
2020
0000
0000
3030
0000
0000
0000
1001
0000
2002
0000
0000
0000
,
0000
0000
3003
0000
0000
0022
0000
0033
,
0000
2200
0000
0000
3300
0000
0000
0000
1001
0000
2002
0000
0000
0000
0000
0000
,
0000
3003
0000
0220
0000
0330
0000
0010
,
0000
0000
0100
0000
0000
0000
0010
0000
0000
0000
0100
0000
0000
0010
0000
0000
,
0100
0000
0000
0000
0000
0000
0000
0000
0000
0010
0000
0000
0000
0000
0000
0000
0000
0000
0100
0000
0000
0000
0000
0000
0000
0000
0010
0000
0000
0000
0000
0000
0000
0100
0000
0000
0000
0000
0000
0010
0000
0000
0000
0000
0000
0100
0000
0000
,
0000
0000
0000
0010
0000
0000
0000
0000
0000
0100
0000
0000
0000
0000
0000
0010
0000
0000
0000
0000
0100
0000
0000
0000
0010
0000
0000
0000
0100
0000
0000
0000
0000
0000
0010
0000
0000
0000
0100
0000
0000
0000
0010
0000
0000
0000
0100
0000
,
0010
0100
0010
0100
0010
0100
0010
0000
2002
0000
0000
0000
3003
0000
0000
0000
,
1100
0000
0100
1000
0001
0000
0101
0000
,
0100
0001
1000
0000
0001
0010
1000
0000
,
1000
0010
0001
0000
0011
0000
0010
0001
,
1000
0000
1010
0000
0010
1000
0001
0000
,
1000
0100
0001
0000
0001
0100
1000
0000
,
0001
1000
0001
1000
0002
0000
0103
0010
,
1000
0000
0100
0000
0010
0001
1000
0000
,
0001
0010
1000
0000
0001
0100
1000
0000
,
0001
0000
0000
0100
0000
0000
0010
0000
0000
1000
0000
0000
0001
0000
0000
0000
0010
0000
0000
0000
1000
0000
0000
0000
,
0010
0000
0001
0000
0100
0000
1000
0000
0100
0000
0010
0000
,
1000
0100
0001
0100
2000
3020
0032
0023
,
2030
3002
1003
0000
0001
0100
1000
0000
,
0100
0000
0010
1000
0001
0000
1000
0100
,
0010
0001
1000
0010
0100
0001
1000
0000
,
0001
0010
1000
0000
0010
0000
0100
1000
,
0001
0000
1000
0010
0100
0001
1000
0100
,
0010
0001
1000
0100
0001
0100
1000
0000
,
0010
0001
1000
0000
0100
0000
0001
0010
,
1000
0000
0001
0100
1000
0010
0100
0001
,
1000
0000
0000
0100
0000
0000
0001
0000
0000
1000
0000
0000
0010
0000
0000
0100
0000
0000
2000
0000
0000
0000
3010
0000
,
0000
0200
0000
0310
0000
0002
0000
0013
0000
0200
0000
0301
,
0000
0000
0020
0000
0000
0000
0130
0000
0000
1000
0000
0000
0001
0000
0000
0100
0000
0000
0020
0000
0000
0000
0000
0000
,
1000
0100
0001
0100
,
1030
0000
0001
0010
0100
1000
0002
0000
,
0010
1000
0010
0100
,
1003
0000
0000
0000
0000
0000
0000
0000
0001
0000
0000
0000
0010
0000
0000
0000
1000
0000
0000
0000
0010
0000
0000
0000
0001
0000
0000
0000
0000
1000
0000
0000
,
0000
0001
0000
0000
0000
1000
0000
0000
0000
0001
0000
0000
0000
1000
0000
0000
0000
0000
0000
0000
0000
0000
0000
0000
0010
0000
0000
0000
0000
0000
0000
0000
,
0000
1100
0000
0000
0000
0000
0000
0101
0000
0000
0000
0000
0000
0000
1010
0000
,
0000
0000
0000
0202
0000
0000
0000
0000
,
0000
0000
0303
0000
0000
0000
0000
0000
1100
0000
0101
0000
1000
0100
0010
0100
,
0001
0100
0010
0100
1000
0000
1001
0000
1000
0010
0100
0010
0001
0010
0100
0010
,
1000
0000
2002
0000
0000
0000
3003
0000
0011
0000
1010
0000
0001
0010
0100
0010
,
1000
0010
0100
0010
0001
0000
1001
0000
0001
0100
0010
0100
1000
0100
0010
0100
,
0001
0000
0000
0001
0010
0000
0100
0000
1100
0000
0011
0000
1000
0010
0001
1000
,
0100
0001
0010
0100
0010
0000
1001
0000
0001
0100
1000
0001
0010
0100
0001
1000
,
0010
0000
0101
0000
0001
0010
1000
0001
0100
1000
0010
0100
0001
0000
1001
0000
,
1000
0100
0001
1000
0010
0001
0100
0010
1010
0000
2020
0000
3030
0000
0101
0000
,
0202
0000
0000
0303
0000
0000
0011
0000
0000
0022
0000
0000
0033
0000
0000
1100
0000
0000
1100
0000
0100
0000
0100
0000
,
0001
0000
0000
0000
0010
0000
0000
0000
0010
0000
0000
0000
1000
0000
0000
0000
0001
0000
0000
0000
0001
0000
0000
0000
0100
0000
0000
0010
0000
0000
1000
0000
0000
0001
0000
0000
0000
0000
0000
0000
0000
0000
0000
0000
0000
0000
0000
0000
,
0000
0000
0000
0000
0000
0000
0000
0000
0000
0000
0001
0000
0000
1000
0000
0000
0010
0000
0000
0100
0000
0000
0000
0001
0000
0000
0000
0001
0000
0000
0000
1000
0000
0000
0000
0010
0000
0000
0000
0010
0000
0000
0000
0001
0000
0000
0000
0100
,
0000
0000
0000
0000
0000
0000
0000
0000
0000
0000
0000
0000
0100
0000
0000
0000
0000
0000
0000
0000
0000
0000
0000
0000
0000
0000
0000
0000
1000
0000
0000
0000
0000
0000
0000
0000
0000
0000
0000
0000
0000
0000
2002
0000
0000
0000
0000
0000
0000
0000
0000
0000
0000
0000
0000
0000
0000
0000
0000
0000
0000
0000
0000
0000
0000
0000
0000
0000
0000
0000
0000
0000
0000
0000
0000
0000
0000
0000
0000
0000
0000
0000
0000
0000
0000
0000
0000
0000
0000
0000
0000
0000
0000
0000
0000
0000
0000
0000
0000
0000
0000
0000
0000
0000
0000
0000
0000
0000
0000
0000
0000
0000
0000
0000
0000
0000
0000
0000
0000
0000
0000
0000
0000
0000
0000
0000
0000
0000
0000
0000
0000
0000
0000
0000
0000
0000
0000
0000
0000
0000
0000
0000
0000
0000
0000
0000
0000
0000
0000
0000
0000
0000
0000
0000
0000
0000
0000
0000
0000
0000
0000
0000
0000
0000
0000
0000
0000
0000
0000
0000
0000
0000
0000
0000
0000
0000
0000
0000
0000
0000
0000
0000
0000
0000
0000
0000
0000
0000
0000
0000
0000
0000
,
0000
3003
0000
0000
;

//---------------dance-single - ----------------
#NOTEDATA:;
#CHARTNAME:;
#STEPSTYPE:dance-single;
#DESCRIPTION:;
#CHARTSTYLE:;
#DIFFICULTY:Easy;
#METER:7;
#RADARVALUES:0.490744,0.689529,0.164405,0.501869,0.021632,397.000000,378.000000,19.000000,58.000000,0.000000,0.000000,0.000000,0.000000,0.000000,0.490744,0.689529,0.164405,0.501869,0.021632,397.000000,378.000000,19.000000,58.000000,0.000000,0.000000,0.000000,0.000000,0.000000;
#CREDIT:;
#NOTES:
0000
0000
0000
0000
,
0000
0000
0000
0000
,
0000
0000
0000
0000
,
0000
0000
0000
0000
,
1000
0000
0010
0100
0010
0000
1000
0000
,
0100
0010
0100
0000
1000
0000
0001
0010
,
0100
0000
1000
0000
0001
0100
0010
0000
,
1000
1000
0000
0100
0100
0000
0010
0010
,
0000
0001
0002
0000
0203
0000
0320
0000
,
1030
0001
0000
0000
0000
0000
0000
0000
,
1001
0000
2100
0000
0000
3002
0000
0000
,
0203
0010
0010
0010
,
0310
1000
0002
0023
,
2030
3002
0203
2300
,
3002
0000
2003
0000
3010
0000
0100
0001
,
1000
0000
0001
0000
0010
0000
0100
1000
,
0001
0000
1000
0000
0010
0000
0001
0010
,
0001
0000
0010
0000
1000
0000
0001
1000
,
1001
0000
2100
0000
0000
0002
3000
0000
,
0203
0010
0010
0010
,
0310
1000
0002
0023
,
2030
3002
0203
2300
,
3002
0000
2003
0000
3000
0010
0100
0001
,
0000
2000
0000
3000
0010
0100
0001
0000
,
2000
0100
0001
3010
,
1000
0010
0100
0001
0100
0010
1000
0001
,
1001
0000
0001
0000
0100
0010
0000
0100
,
0010
1000
0001
1001
,
0001
0000
0010
0100
0000
0010
0100
0000
,
1000
0000
0001
0100
0010
1000
0001
0000
,
0010
1000
0000
0010
0001
0000
0100
0000
,
0010
1000
0001
1000
,
0002
0023
2030
3002
,
0203
2300
3002
1003
,
0010
0000
0100
0001
0100
0000
0001
0000
,
0010
0000
0100
1000
0100
0000
1000
0000
,
0010
0000
0000
0100
0000
0000
1001
0000
0000
0010
0000
0010
,
0000
0010
0000
0010
0000
0010
0000
0000
0000
1000
0000
0000
,
0100
0001
0000
0100
1000
0000
0010
0000
,
0100
0001
1000
0001
,
2000
3200
0302
2003
,
3020
0032
2003
3001
,
0100
0000
0010
1000
0010
0000
1000
0000
,
0100
0000
0010
0001
0010
0000
0001
0000
,
0100
0000
0010
1000
0001
0000
1000
0100
,
0010
0001
0010
0100
1000
0001
1000
0000
,
0010
0000
0100
0001
0000
1000
0001
0000
,
1001
1001
0001
0010
,
0100
1000
0000
0001
1000
0000
0001
0000
,
0101
1100
1000
0010
,
0100
0001
0000
1000
0100
0000
0011
0000
,
1010
0000
0001
0000
0100
0000
0010
1000
,
0000
0001
0010
0000
0100
0000
1100
0000
,
0101
0000
2000
0000
3010
0100
0001
0000
,
2000
0000
3100
0010
0001
0000
2000
0000
,
3010
0100
0001
0000
1000
1000
0000
0100
,
0100
0000
0010
0010
0001
0001
1000
0000
,
0000
0000
0000
0010
0000
0000
0000
0000
0000
0000
0100
0000
0200
0000
0000
0000
,
0000
0000
0300
0000
0000
0001
0000
0000
,
0000
0010
0000
0000
0000
0000
0000
0000
0100
0000
0200
0000
0000
0000
0000
0000
,
0300
0000
0000
2002
0000
0000
0000
0000
,
0000
0000
0000
0000
,
0000
0000
0000
0000
,
0000
0000
0000
0000
,
0000
0000
0000
3003
0000
0000
0000
0000
,
1000
0000
0010
1000
,
0000
0010
1000
0000
,
0100
0000
0010
0000
,
0001
0010
0000
0001
,
0010
0000
0100
0000
,
1000
0000
0001
0000
,
0100
1000
0000
0100
,
0001
0000
0010
0000
,
0100
0000
1000
0010
,
1000
0000
0001
0010
,
0001
0000
2000
0010
,
3100
1000
0000
0010
,
0001
0000
0010
1000
,
0000
0001
0000
1000
,
0000
0100
0001
0000
,
0100
1000
0000
0010
,
0000
0100
0000
0001
,
0000
0010
1000
0000
,
0001
0100
0000
1000
,
0000
0010
0000
0100
,
0001
1000
0000
0100
,
1000
0001
0000
0100
,
0010
0100
0010
0100
,
0010
1000
0000
0100
,
0010
0100
0010
0100
,
0010
0001
0000
2002
,
0000
3003
0000
0000
,
0000
0000
0000
0000
,
0000
0000
0000
0000
,
0000
0000
2000
0010
,
3010
0200
0001
0301
,
1000
0002
0000
0003
2000
0000
0100
0000
,
3100
0020
0001
0031
,
1000
0000
1001
0000
0001
0000
0100
1000
,
0100
0000
0001
0000
0010
1000
0010
0000
,
0001
0000
0100
1000
0001
0000
0010
0000
,
1000
0100
0001
0000
0100
0100
0000
1000
,
1000
0000
0010
0010
0000
0100
0100
0000
,
0001
0000
0010
0000
0100
1000
0000
0000
,
0000
0000
1000
0100
0010
0000
0001
0000
,
0100
0100
2002
0000
0000
0000
0000
0000
,
0000
3003
0000
0000
;

//---------------dance-single - ----------------
#NOTEDATA:;
#CHARTNAME:;
#STEPSTYPE:dance-single;
#DESCRIPTION:;
#CHARTSTYLE:;
#DIFFICULTY:Beginner;
#METER:4;
#RADARVALUES:0.184183,0.318752,0.112488,0.034612,0.000000,149.000000,136.000000,13.000000,4.000000,0.000000,0.000000,0.000000,0.000000,0.000000,0.184183,0.318752,0.112488,0.034612,0.000000,149.000000,136.000000,13.000000,4.000000,0.000000,0.000000,0.000000,0.000000,0.000000;
#CREDIT:;
#NOTES:
// measure 0
0000
0000
0000
0000
,  // measure 1
0000
0000
0000
0000
,  // measure 2
0000
0000
0000
0000
,  // measure 3
0000
0000
0000
0000
,  // measure 4
1000
0000
0000
1000
,  // measure 5
0000
0000
0001
0000
,  // measure 6
0000
0001
0000
0000
,  // measure 7
1001
0000
0000
0110
,  // measure 8
0000
0000
0000
0000
,  // measure 9
0000
0000
0000
0000
,  // measure 10
0000
0010
0000
0000
,  // measure 11
0100
0000
0000
0000
,  // measure 12
0000
0000
0001
0000
,  // measure 13
0000
1000
0000
0000
,  // measure 14
0000
0010
0000
0000
,  // measure 15
0000
0100
0000
0000
,  // measure 16
0000
0001
0000
0000
,  // measure 17
0000
1000
0000
0000
,  // measure 18
0001
1001
0000
0000
,  // measure 19
1000
0000
0000
0000
,  // measure 20
0000
0000
0010
0000
,  // measure 21
0000
0100
0000
0000
,  // measure 22
0000
0001
0000
0000
,  // measure 23
0000
1000
0000
0000
0000
0000
1000
0000
,  // measure 24
0010
0000
0000
0000
,  // measure 25
0100
0000
0000
0000
,  // measure 26
0001
0000
0000
0000
0000
0001
0000
0000
,  // measure 27
0000
1000
1000
1000
,  // measure 28
0000
0000
0000
0010
0000
0000
0000
0000
,  // measure 29
0100
0100
0010
0100
,  // measure 30
0000
0000
0010
0000
,  // measure 31
0000
0000
0000
0000
,  // measure 32
1000
0000
0000
0001
,  // measure 33
0000
0000
0000
0100
,  // measure 34
0000
0000
0000
0010
,  // measure 35
0000
0000
1000
1000
,  // measure 36
0000
0000
0000
1001
,  // measure 37
0000
0000
0000
0010
,  // measure 38
0000
0000
0100
0000
,  // measure 39
0000
0000
0000
0000
,  // measure 40
0010
0000
0000
1000
,  // measure 41
0000
0000
0000
1001
,  // measure 42
0000
0000
0000
0000
,  // measure 43
0000
0000
0001
0001
,  // measure 44
0000
0000
0000
0100
,  // measure 45
0000
0000
0000
0010
,  // measure 46
0000
0000
0000
0100
0000
0000
0000
0000
,  // measure 47
0010
0010
0010
0000
,  // measure 48
0000
1000
0000
0000
0000
0000
0001
0000
,  // measure 49
0001
1000
0001
0000
,  // measure 50
0000
1000
0000
0000
0000
0000
0010
0000
,  // measure 51
0010
0000
0010
0000
0000
0000
0000
0100
,  // measure 52
0000
0000
0010
0010
,  // measure 53
1000
0001
0000
0000
,  // measure 54
1000
0000
0000
0010
,  // measure 55
0000
0000
0000
0000
0100
0000
0000
0100
,  // measure 56
0000
0100
0100
0010
,  // measure 57
0000
0000
1000
0000
,  // measure 58
0000
0000
0001
0000
,  // measure 59
0000
0000
1000
0000
,  // measure 60
0000
1001
0000
0000
,  // measure 61
0000
0000
0000
0000
,  // measure 62
0000
0000
0000
0000
,  // measure 63
0000
0000
0000
0000
,  // measure 64
0000
0000
1000
0000
,  // measure 65
1000
0000
0000
0000
,  // measure 66
0000
0000
0010
0000
,  // measure 67
0010
0000
0100
0000
,  // measure 68
0000
0100
0000
0000
,  // measure 69
0010
0000
0010
0000
,  // measure 70
0010
0000
1000
0000
,  // measure 71
0000
1000
0000
0000
,  // measure 72
0001
0000
0001
0000
,  // measure 73
0001
0000
1000
0000
,  // measure 74
0001
0000
1000
0000
,  // measure 75
0001
0000
0100
0000
,  // measure 76
0000
0010
0000
0000
,  // measure 77
0010
0000
0000
0010
,  // measure 78
0000
0010
0000
0010
,  // measure 79
0000
0000
0100
0000
,  // measure 80
0000
0010
0000
1000
,  // measure 81
0000
0001
0000
1000
,  // measure 82
0000
0000
1000
0000
,  // measure 83
0000
0001
0000
1000
,  // measure 84
0000
0100
0000
0010
,  // measure 85
0000
0001
0000
1000
,  // measure 86
0000
0000
0000
0001
,  // measure 87
0000
0001
0000
0001
,  // measure 88
0000
0000
0000
1000
,  // measure 89
0000
1000
0000
1000
,  // measure 90
0000
0000
0000
2002
,  // measure 91
0000
0000
0000
0000
,  // measure 92
0000
0000
0000
0000
,  // measure 93
0000
0000
0000
0000
,  // measure 94
3003
0000
1001
0000
,  // measure 95
0000
1001
0000
0000
,  // measure 96
0010
0000
1001
0000
,  // measure 97
0000
1001
0000
0000
,  // measure 98
0000
0000
0001
0000
,  // measure 99
0000
1000
0000
0000
,  // measure 100
0010
0000
0000
0100
,  // measure 101
0000
0000
0110
0000
,  // measure 102
0000
0000
0000
0200
,  // measure 103
0000
0000
0000
0300
,  // measure 104
0000
0020
0000
0000
,  // measure 105
0030
1001
0000
0000
;
